<?xml version="1.0" standalone="no"?>
<!DOCTYPE svg PUBLIC "-//W3C//DTD SVG 1.1//EN" "http://www.w3.org/Graphics/SVG/1.1/DTD/svg11.dtd" >
<svg xmlns="http://www.w3.org/2000/svg" xmlns:xlink="http://www.w3.org/1999/xlink" version="1.1">
<metadata></metadata>
<defs>
<font id="mitrbold" horiz-adv-x="0" >
<font-face units-per-em="2048" ascent="1536" descent="-512" />
<missing-glyph horiz-adv-x="614" />
<glyph unicode="fi" horiz-adv-x="1298" d="M-10 772v94q0 61 23.5 89t88.5 28h56v10q0 209 134 319.5t380 110.5t377 -94q27 -18 26 -41q0 -14 -12 -37l-86 -145q-14 -25 -37 -25q-8 0 -33 9q-49 20 -110 20q-78 0 -118 -30.5t-40 -82.5v-14h463q70 0 97.5 -27.5t27.5 -89.5v-749q0 -59 -28 -88t-97 -29h-234 q-68 0 -95.5 28.5t-27.5 88.5v538h-106v-538q0 -59 -27.5 -88t-97.5 -29h-233q-68 0 -95.5 28.5t-27.5 88.5v538h-56q-66 0 -89 28t-23 89z" />
<glyph unicode="fl" horiz-adv-x="1298" d="M-10 772v94q0 61 23.5 89t88.5 28h56v10q0 209 134 319.5t380 110.5q297 0 479 -116q43 -27 59.5 -51.5t16.5 -79.5v-1059q0 -59 -28 -88t-97 -29h-234q-68 0 -95.5 28.5t-27.5 88.5v538h-106v-538q0 -59 -27.5 -88t-97.5 -29h-233q-68 0 -95.5 28.5t-27.5 88.5v538h-56 q-66 0 -89 28t-23 89zM625 983h135v94q-18 12 -58 13q-35 0 -56 -27t-21 -66v-14z" />
<glyph unicode="&#xe24;&#xe45;" horiz-adv-x="1939" d="M31 840q0 37 45 75q90 78 250.5 134.5t332.5 56.5q117 0 210.5 -21.5t154.5 -62.5q63 39 153.5 61.5t190.5 22.5q258 0 379 -106.5t121 -327.5v-889q0 -51 -28 -76.5t-79 -25.5h-278q-51 0 -79 25.5t-28 76.5v848q0 74 -24.5 102.5t-83.5 28.5q-25 0 -49 -4 q23 -49 22 -127v-834q0 -61 -27.5 -88.5t-97.5 -27.5h-244q-67 0 -94.5 28.5t-27.5 87.5v842q0 63 -20.5 92t-72.5 29q-66 0 -112 -27l12 -22q25 -45 25 -107v-256h26q47 0 64.5 -18.5t17.5 -63.5v-184q0 -45 -17.5 -63.5t-64.5 -18.5h-395q-68 0 -95.5 28.5t-27.5 88.5v536 l-39 103q-20 53 -20 84z" />
<glyph unicode="&#xe26;&#xe45;" horiz-adv-x="1947" d="M31 82v184q0 45 15 63.5t63 18.5h20v295l-70 113q-20 35 -20 84q0 23 9 38t36 37q90 78 245.5 134.5t327.5 56.5q229 0 371 -84q70 37 160 60.5t188 23.5q258 0 379 -106.5t121 -327.5v-889q0 -51 -27.5 -76.5t-79.5 -25.5h-278q-51 0 -79 25.5t-28 76.5v848 q0 74 -24.5 102.5t-83.5 28.5q-25 0 -49 -4q23 -61 22 -127v-834q0 -61 -27.5 -88.5t-97.5 -27.5h-243q-68 0 -95.5 28.5t-27.5 87.5v842q0 63 -20.5 92t-71.5 29q-33 0 -55.5 -5t-49.5 -20l23 -33q23 -33 30 -60.5t7 -86.5v-438q0 -59 -28 -88t-95 -29h-389 q-47 0 -62.5 18.5t-15.5 63.5z" />
<glyph unicode=" "  horiz-adv-x="614" />
<glyph unicode="&#x09;" horiz-adv-x="614" />
<glyph unicode="&#xa0;" horiz-adv-x="614" />
<glyph unicode="!" horiz-adv-x="569" d="M31 113v51q0 113 164 112h178q166 0 166 -112v-51q0 -113 -166 -113h-178q-164 0 -164 113zM41 1276q0 59 27.5 88t95.5 29h244q70 0 97 -28t27 -89l-14 -805q0 -59 -27.5 -88t-97.5 -29h-217q-67 0 -95 29t-28 88z" />
<glyph unicode="&#x22;" horiz-adv-x="802" d="M33 1366q-2 45 14 61.5t64 16.5h184q49 0 67.5 -16.5t14.5 -61.5l-27 -303q-4 -45 -22.5 -62.5t-59.5 -17.5h-131q-41 0 -61.5 17.5t-22.5 62.5zM426 1366q-2 45 14.5 61.5t63.5 16.5h184q49 0 67.5 -16.5t14.5 -61.5l-27 -303q-4 -45 -22.5 -62.5t-58.5 -17.5h-132 q-41 0 -61 17.5t-23 62.5z" />
<glyph unicode="#" horiz-adv-x="1697" d="M31 367v104q0 61 23.5 89t88.5 28h136l61 162h-53q-66 0 -89.5 27.5t-23.5 88.5v105q0 61 23.5 88.5t89.5 27.5h180l94 250q20 55 80 56h336q45 0 45 -43q0 -18 -10 -45l-82 -218h157l95 250q20 55 80 56h335q45 0 45 -43q0 -18 -10 -45l-82 -218h4q66 0 89.5 -27.5 t23.5 -88.5v-105q0 -61 -23.5 -88.5t-89.5 -27.5h-131l-61 -162h121q66 0 89 -28t23 -89v-104q0 -61 -23.5 -89t-88.5 -28h-248l-74 -195q-20 -55 -80 -55h-336q-45 0 -45 43q0 18 11 45l61 162h-158l-73 -195q-20 -55 -80 -55h-336q-45 0 -45 43q0 18 10 45l62 162h-9 q-66 0 -89 27.5t-23 89.5zM741 588h158l62 162h-158z" />
<glyph unicode="$" horiz-adv-x="1259" d="M33 172q0 18 14 39l119 186q18 27 37 27q16 0 39 -14q74 -45 169 -71t185 -26q76 0 109.5 20.5t33.5 63.5q0 47 -45 76t-155 72q-207 80 -326 181t-119 269q0 154 81 254.5t226 143.5v77q0 59 28 88t95 29h203q70 0 97.5 -27.5t27.5 -89.5v-61q184 -27 307 -113 q41 -29 41 -55q0 -18 -14 -39l-119 -186q-18 -29 -37 -29q-12 0 -39 17q-49 33 -116.5 54t-145.5 21q-72 0 -108.5 -20.5t-36.5 -65.5q0 -37 25.5 -61.5t64.5 -42t135 -55.5q154 -61 242 -118t133 -135.5t45 -199.5q0 -152 -94.5 -257.5t-282.5 -139.5v-58 q0 -61 -27.5 -88.5t-97.5 -27.5h-203q-67 0 -95 28.5t-28 87.5v68q-205 35 -327 123q-41 29 -41 55z" />
<glyph unicode="%" horiz-adv-x="1619" d="M31 1087q0 96 45 173t120.5 120t168.5 43q92 0 168.5 -43t121.5 -119.5t45 -173.5q0 -96 -45 -171.5t-121.5 -118.5t-168.5 -43q-93 0 -168.5 43t-120.5 118.5t-45 171.5zM125 45q0 23 14 43l862 1249q20 29 40 42.5t51 13.5h346q25 0 37 -12.5t12 -32.5q0 -23 -14 -43 l-873 -1264q-18 -27 -28.5 -34t-41.5 -7h-356q-22 0 -35.5 13.5t-13.5 31.5zM262 1087q0 -43 30 -72.5t73 -29.5t73.5 29.5t30.5 72.5q0 45 -30.5 75t-73.5 30t-73 -29.5t-30 -75.5zM920 303q0 96 45 173t120.5 120t167.5 43t169 -43t122 -120t45 -173t-45 -172t-121.5 -119 t-169.5 -43q-92 0 -167.5 43t-120.5 119t-45 172zM1151 303q0 -43 29.5 -72.5t72.5 -29.5t74 29.5t31 72.5q0 45 -31 75t-74 30t-72.5 -30t-29.5 -75z" />
<glyph unicode="&#x26;" horiz-adv-x="1472" d="M31 430q0 102 45 186t121 132q-57 41 -87 111.5t-30 137.5q0 127 70.5 223.5t206 149.5t323.5 53q154 0 258 -30.5t197 -94.5q25 -18 24 -41q0 -18 -18 -51l-101 -172q-16 -31 -41 -30q-18 0 -45 18q-37 25 -93 41t-111 16q-88 0 -134.5 -22.5t-46.5 -73.5q0 -82 113 -82 h668q66 0 89 -27.5t23 -89.5v-114q0 -61 -23.5 -89t-88.5 -28h-25q-4 -168 -80 -300t-221 -208t-348 -76q-326 0 -485.5 125t-159.5 336zM520 444q0 -63 42 -97t126 -34q105 0 144.5 59.5t39.5 180.5h-231q-121 0 -121 -109z" />
<glyph unicode="'" horiz-adv-x="460" d="M33 1366q-2 45 14 61.5t64 16.5h235q49 0 67.5 -16.5t14.5 -61.5l-27 -303q-4 -45 -22.5 -62.5t-59.5 -17.5h-182q-41 0 -61.5 17.5t-22.5 62.5z" />
<glyph unicode="(" horiz-adv-x="784" d="M31 647q0 207 60.5 391.5t170 315.5t248.5 180q94 33 149 33q57 0 86 -34t29 -110q0 -63 -4 -93t-20.5 -52.5t-55.5 -56.5q-100 -88 -137 -221.5t-37 -352.5t37 -352t137 -221q39 -35 55.5 -57.5t20.5 -52.5t4 -93q0 -76 -28.5 -109.5t-86.5 -33.5q-55 0 -149 32 q-139 50 -248.5 181t-170 315t-60.5 391z" />
<glyph unicode=")" horiz-adv-x="784" d="M10 -129q0 63 4 93t20.5 52.5t55.5 57.5q100 88 137 221t37 352t-37 352.5t-137 221.5q-39 35 -55.5 57t-20.5 52t-4 93q0 76 29 110t86 34q55 0 149 -33q139 -49 249 -180t170.5 -315.5t60.5 -391.5t-60.5 -391t-170 -315t-249.5 -181q-94 -32 -149 -32q-57 0 -86 33.5 t-29 109.5z" />
<glyph unicode="*" horiz-adv-x="913" d="M31 1155q0 10 6 23l72 153q10 23 30 23q10 0 27 -6l143 -64v141q0 23 14.5 38.5t38.5 15.5h189q25 0 39 -15.5t14 -38.5v-143l144 64q16 6 26 6q20 0 31 -23l72 -153q6 -12 6 -23q0 -20 -31 -35l-158 -67l111 -115q14 -14 14 -29q0 -18 -20 -35l-133 -114 q-11 -10 -25 -10q-18 0 -37 18l-147 158l-148 -156q-18 -18 -37 -18q-14 0 -24 10l-133 114q-20 16 -21 35q0 14 15 29l110 115l-158 67q-31 14 -30 35z" />
<glyph unicode="+" horiz-adv-x="956" d="M31 569v115q0 61 23.5 89t88.5 28h146v100q0 66 27.5 89.5t89.5 23.5h143q61 0 89 -23.5t28 -89.5v-100h147q66 0 89.5 -28t23.5 -89v-115q0 -61 -23.5 -88.5t-89.5 -27.5h-147v-99q0 -66 -28 -89t-89 -23h-143q-62 0 -89.5 23.5t-27.5 88.5v99h-146q-66 0 -89 27.5 t-23 88.5z" />
<glyph unicode="," horiz-adv-x="567" d="M33 -197q0 8 4 29l100 358q14 53 38 69.5t79 16.5h192q47 0 68 -12t21 -39q0 -29 -17 -67l-147 -348q-12 -27 -32 -40.5t-56 -13.5h-189q-61 0 -61 47z" />
<glyph unicode="-" horiz-adv-x="956" d="M31 569v115q0 61 23.5 89t88.5 28h670q66 0 89.5 -28t23.5 -89v-115q0 -61 -23.5 -88.5t-89.5 -27.5h-670q-65 0 -88.5 27.5t-23.5 88.5z" />
<glyph unicode="." horiz-adv-x="356" d="M31 127v51q0 55 33.5 91t87.5 36h53q53 0 87 -36t34 -91v-51q0 -53 -34 -90t-87 -37h-53q-54 0 -87.5 38t-33.5 89z" />
<glyph unicode="/" horiz-adv-x="1085" d="M31 43q0 18 10 45l512 1249q12 27 30.5 41.5t49.5 14.5h377q45 0 45 -43q0 -18 -11 -45l-512 -1250q-12 -27 -30.5 -41t-48.5 -14h-377q-45 0 -45 43z" />
<glyph unicode="0" horiz-adv-x="1523" d="M31 696q0 356 182 541.5t549 185.5t549 -185t182 -542q0 -356 -182.5 -541.5t-548.5 -185.5q-367 0 -549 185.5t-182 541.5zM520 696q0 -66 2 -94l330 463q-37 14 -90 14q-133 0 -187.5 -90t-54.5 -293zM664 328q37 -14 98 -15q133 0 187.5 91.5t54.5 291.5q0 41 -5 107z " />
<glyph unicode="1" horiz-adv-x="1060" d="M33 1100q0 20 22 33l387 233q25 14 47.5 20.5t65.5 6.5h150q68 0 95 -29t27 -88v-928h131q66 0 89.5 -27.5t23.5 -89.5v-114q0 -61 -23.5 -89t-89.5 -28h-751q-66 0 -89.5 27.5t-23.5 89.5v114q0 61 23.5 89t89.5 28h129v535l-84 -54q-10 -8 -25 -8q-18 0 -30 19 l-156 237q-8 10 -8 23z" />
<glyph unicode="2" horiz-adv-x="1187" d="M31 1251q0 23 24 41q88 59 227.5 95t305.5 36q258 0 408.5 -107.5t150.5 -303.5q0 -152 -84 -257.5t-275 -228.5q-203 -131 -243 -176h499q66 0 89.5 -27.5t23.5 -89.5v-116q0 -61 -23.5 -89t-89.5 -28h-901q-102 0 -102 106v121q0 121 82 227.5t287 250.5q72 49 88 59 q74 49 102.5 73.5t42.5 53.5t14 74q0 51 -37.5 82.5t-115.5 31.5q-131 0 -266 -67q-33 -16 -48 -17q-23 0 -38 29l-103 176q-18 33 -18 51z" />
<glyph unicode="3" horiz-adv-x="1243" d="M31 135q0 18 18 51l103 176q16 29 38 29q14 0 48 -16q53 -27 129.5 -44.5t152.5 -17.5q102 0 152.5 31t50.5 94q0 98 -133 99h-158q-68 0 -95.5 28.5t-27.5 87.5v111q0 59 28 88t95 29h125q68 0 98.5 24.5t30.5 75.5q0 98 -170 98q-137 0 -260 -61q-33 -16 -47 -17 q-23 0 -39 29l-102 176q-18 33 -19 51q0 23 25 41q88 59 219 92t299 33q178 0 310 -52t203 -148.5t71 -227.5q0 -180 -125 -278q162 -94 161 -299q0 -207 -157.5 -328t-454.5 -121q-170 0 -314.5 33t-230.5 92q-25 18 -24 41z" />
<glyph unicode="4" horiz-adv-x="1228" d="M-10 338v188q0 47 8 69.5t39 59.5l557 672q35 41 57.5 53.5t77.5 12.5h197q68 0 95.5 -29t27.5 -88v-662h77q66 0 89.5 -27.5t23.5 -88.5v-115q0 -61 -23.5 -89t-89.5 -28h-77v-160q0 -59 -28 -82.5t-97 -23.5h-244q-70 0 -96.5 23.5t-26.5 82.5v160h-494q-74 0 -73 72z M469 614h197v269z" />
<glyph unicode="5" horiz-adv-x="1320" d="M31 158q0 18 18 51l103 176q18 31 38 31q10 0 48 -19q150 -84 348 -84q100 0 157.5 43t57.5 127q0 164 -176 164q-55 0 -113.5 -9t-97.5 -24q-59 -20 -127 -20q-94 0 -152.5 45t-52.5 135l33 516q4 53 28.5 78t87.5 25h875q66 0 89.5 -28t23.5 -89v-117q0 -61 -24 -89 t-89 -28h-598l-6 -98q33 8 97.5 13.5t102.5 5.5q281 0 434.5 -110t153.5 -370q0 -160 -87 -276.5t-239.5 -177t-345.5 -60.5q-165 0 -314.5 39t-248.5 109q-25 18 -24 41z" />
<glyph unicode="6" horiz-adv-x="1325" d="M31 627q0 258 97 438t254 269t335 89q150 0 261.5 -31.5t201.5 -93.5q25 -18 24 -41q0 -18 -18 -51l-99 -170q-16 -29 -38 -28q-14 0 -48 16q-104 55 -233 55q-102 0 -171 -45t-120 -133q59 31 145.5 51.5t163.5 20.5q170 0 284 -59.5t169 -159t55 -219.5 q0 -281 -166.5 -423.5t-472.5 -142.5q-278 0 -451 161t-173 497zM522 510q0 -102 32 -149.5t103 -47.5q80 0 114 47.5t34 149.5t-34 149.5t-114 47.5q-72 0 -103.5 -47.5t-31.5 -149.5z" />
<glyph unicode="7" horiz-adv-x="1232" d="M10 1161v115q0 61 23.5 89t89.5 28h950q88 0 119 -26t31 -95q0 -78 -27 -127l-539 -1090q-14 -29 -31.5 -42t-47.5 -13h-385q-48 0 -48 43q0 20 13 45l473 956h-508q-66 0 -89.5 28t-23.5 89z" />
<glyph unicode="8" horiz-adv-x="1331" d="M31 428q0 90 45 170t127 127q-70 45 -103.5 110.5t-33.5 141.5q0 215 154.5 330.5t445.5 115.5t445.5 -115.5t154.5 -330.5q0 -76 -34 -141.5t-104 -110.5q82 -47 127 -127t45 -170q0 -219 -167.5 -339t-466.5 -120t-467 120t-168 339zM520 432q0 -119 146 -119 q147 0 147 119q0 59 -37 90t-110 31q-145 0 -146 -121zM555 975q0 -90 111 -90q110 0 110 90q0 55 -26.5 79.5t-83.5 24.5t-84 -24.5t-27 -79.5z" />
<glyph unicode="9" horiz-adv-x="1325" d="M31 872q0 279 165.5 415t473.5 136q279 0 451.5 -160.5t172.5 -496.5q0 -274 -91 -452.5t-240.5 -261.5t-331.5 -83q-287 0 -465 121q-25 18 -25 41q0 18 19 51l98 170q16 29 39 29q14 0 47 -16q96 -51 248 -52q117 0 180.5 44t93.5 130q-121 -72 -315 -71 q-172 0 -289 62.5t-174 166t-57 227.5zM520 883q0 -102 34 -149.5t114 -47.5q73 0 104 47t31 150q0 102 -31 149t-104 47q-80 0 -114 -47t-34 -149z" />
<glyph unicode=":" horiz-adv-x="438" d="M31 164v55q0 70 43 116t110 46h70q68 0 111 -46t43 -116v-55q0 -68 -42 -116t-112 -48h-70q-67 0 -110 48t-43 116zM31 793v55q0 70 43 116t110 46h70q68 0 111 -46t43 -116v-55q0 -68 -42 -116t-112 -48h-70q-67 0 -110 48t-43 116z" />
<glyph unicode=";" horiz-adv-x="567" d="M33 -197q0 8 4 29l100 358q14 53 38 69.5t79 16.5h192q47 0 68 -12t21 -39q0 -29 -17 -67l-147 -348q-12 -27 -32 -40.5t-56 -13.5h-189q-61 0 -61 47zM154 793v55q0 70 43 116t110 46h70q68 0 110.5 -46t42.5 -116v-55q0 -68 -42 -116t-111 -48h-70q-67 0 -110 48 t-43 116z" />
<glyph unicode="&#x3c;" horiz-adv-x="1044" d="M31 465v186q0 25 7 39.5t28 22.5l899 391q12 6 22 6q12 0 19.5 -8t7.5 -23v-350q0 -25 -6.5 -34t-28.5 -17l-358 -117l358 -117q23 -8 29 -17t6 -34v-356q0 -14 -7.5 -22.5t-19.5 -8.5q-10 0 -22 6l-899 391q-20 8 -27.5 22.5t-7.5 39.5z" />
<glyph unicode="=" horiz-adv-x="956" d="M31 311v105q0 61 23.5 88.5t88.5 27.5h670q66 0 89.5 -27.5t23.5 -88.5v-105q0 -61 -23.5 -88.5t-89.5 -27.5h-670q-65 0 -88.5 27.5t-23.5 88.5zM31 774v105q0 61 23.5 88.5t88.5 27.5h670q66 0 89.5 -27.5t23.5 -88.5v-105q0 -61 -23.5 -89t-89.5 -28h-670 q-65 0 -88.5 28t-23.5 89z" />
<glyph unicode="&#x3e;" horiz-adv-x="1044" d="M31 37v325q0 25 8 35.5t27 16.5l378 147l-378 148q-18 6 -26.5 16t-8.5 35v319q0 14 7 22.5t19 8.5q10 0 23 -6l899 -391q20 -8 27.5 -21.5t7.5 -38.5v-190q0 -25 -7.5 -38t-27.5 -22l-899 -391q-13 -6 -23 -6q-12 0 -19 8.5t-7 22.5z" />
<glyph unicode="?" horiz-adv-x="1157" d="M31 1233q0 23 24 41q109 74 228.5 111.5t281.5 37.5q252 0 406.5 -110.5t154.5 -311.5q0 -123 -56 -201.5t-173 -150.5q-78 -47 -110.5 -85t-32.5 -83v-10q0 -59 -28 -88t-97 -29h-244q-68 0 -95.5 29t-27.5 88v14q0 119 59.5 199t196.5 178q78 55 98.5 75.5t20.5 59.5 q0 82 -143 82q-63 0 -132 -24.5t-124 -61.5q-25 -18 -45 -18q-23 0 -41 31l-103 176q-18 33 -18 51zM254 113v51q0 113 164 112h178q166 0 166 -112v-51q0 -113 -166 -113h-178q-164 0 -164 113z" />
<glyph unicode="@" horiz-adv-x="1964" d="M31 612q0 276 126 468t352 287t527 95q272 0 475 -90t312.5 -259t109.5 -398q0 -268 -118.5 -400.5t-317.5 -132.5q-84 0 -144.5 45t-80.5 111q-51 -74 -138 -115t-192 -41q-221 0 -350 113t-129 315q0 250 154.5 375t414.5 125q121 0 236.5 -49t187.5 -135v-426 q0 -33 12.5 -46.5t36.5 -13.5q68 0 68 277q0 156 -88 259t-213 150.5t-240 47.5q-289 0 -464 -140.5t-175 -421.5q0 -236 146.5 -365.5t392.5 -129.5q92 0 175 25.5t144 72.5q10 6 17 6q6 0 12 -12l88 -242q4 -8 4 -12q0 -8 -14 -21q-72 -55 -183.5 -85.5t-240.5 -30.5 q-275 0 -478.5 98t-314 277.5t-110.5 418.5zM809 616q0 -137 149 -137q76 0 124 32t48 95v158q-23 12 -56.5 20.5t-69.5 8.5q-88 0 -141.5 -45.5t-53.5 -131.5z" />
<glyph unicode="A" horiz-adv-x="1540" d="M31 43q0 18 10 45l510 1227q18 43 41.5 60.5t66.5 17.5h224q43 0 66.5 -17.5t41.5 -60.5l508 -1227q10 -27 10 -45q0 -43 -45 -43h-385q-63 0 -80 55l-49 152h-362l-47 -152q-16 -55 -80 -55h-385q-45 0 -45 43zM690 530h160l-80 254z" />
<glyph unicode="B" horiz-adv-x="1368" d="M72 117v1159q0 59 27.5 88t95.5 29h620q250 0 367.5 -106.5t117.5 -303.5q0 -92 -39.5 -162.5t-105.5 -99.5q182 -61 182 -287q0 -193 -136 -313.5t-400 -120.5h-606q-68 0 -95.5 28.5t-27.5 88.5zM561 346h191q43 0 69.5 27.5t26.5 75.5q0 49 -25.5 75.5t-70.5 26.5 h-191v-205zM561 866h156q94 0 94 90t-94 91h-156v-181z" />
<glyph unicode="C" horiz-adv-x="1394" d="M31 696q0 362 199.5 544.5t570.5 182.5q168 0 299 -32.5t219 -92.5q25 -18 24 -41q0 -18 -18 -51l-102 -176q-16 -29 -39 -29q-14 0 -47 17q-57 29 -120 45t-147 16q-170 0 -260 -98t-90 -285q0 -184 98.5 -283.5t268.5 -99.5q147 0 270 62q33 16 47 16q23 0 39 -29 l103 -176q18 -33 18 -51q0 -23 -25 -41q-88 -59 -221 -92t-301 -33q-373 0 -579.5 183.5t-206.5 543.5z" />
<glyph unicode="D" horiz-adv-x="1419" d="M72 117v1159q0 59 27.5 88t95.5 29h471q723 0 723 -697q0 -344 -185.5 -520t-537.5 -176h-471q-68 0 -95.5 28.5t-27.5 88.5zM563 348h121q115 0 165 76t50 272q0 197 -50 272.5t-165 75.5h-121v-696z" />
<glyph unicode="E" horiz-adv-x="1175" d="M72 117v1159q0 59 27.5 88t95.5 29h847q66 0 89.5 -28t23.5 -89v-115q0 -61 -23.5 -89t-89.5 -28h-479v-176h295q66 0 89.5 -27.5t23.5 -88.5v-111q0 -61 -23.5 -89t-89.5 -28h-295v-176h477q66 0 89.5 -27.5t23.5 -89.5v-114q0 -61 -23.5 -89t-89.5 -28h-845 q-68 0 -95.5 28.5t-27.5 88.5z" />
<glyph unicode="F" horiz-adv-x="1155" d="M72 117v1159q0 59 27.5 88t95.5 29h847q66 0 89.5 -28t23.5 -89v-115q0 -61 -23.5 -89t-89.5 -28h-479v-174h295q66 0 89.5 -27.5t23.5 -88.5v-115q0 -61 -23.5 -89t-89.5 -28h-295v-405q0 -59 -27.5 -88t-97.5 -29h-243q-68 0 -95.5 28.5t-27.5 88.5z" />
<glyph unicode="G" horiz-adv-x="1449" d="M31 696q0 358 206.5 542.5t577.5 184.5q168 0 301 -32.5t221 -92.5q25 -18 25 -41q0 -18 -19 -51l-102 -176q-16 -29 -39 -29q-14 0 -47 17q-123 61 -270 61q-170 0 -267.5 -97t-97.5 -286q0 -195 82 -288t244 -93q29 0 64.5 5.5t58.5 11.5v186h-131q-66 0 -89.5 25.5 t-23.5 87.5v112q0 61 23.5 87t89.5 26h440q80 0 110.5 -36t30.5 -113v-480q0 -45 -11 -68.5t-44 -47.5q-197 -141 -547 -142q-373 0 -579.5 183.5t-206.5 543.5z" />
<glyph unicode="H" horiz-adv-x="1490" d="M72 117v1159q0 59 27.5 88t95.5 29h243q70 0 97.5 -28t27.5 -89v-406h365v406q0 59 27.5 88t95.5 29h243q70 0 97.5 -28t27.5 -89v-1159q0 -59 -27.5 -88t-97.5 -29h-243q-68 0 -95.5 28.5t-27.5 88.5v405h-365v-405q0 -59 -27.5 -88t-97.5 -29h-243q-68 0 -95.5 28.5 t-27.5 88.5z" />
<glyph unicode="I" horiz-adv-x="634" d="M72 117v1159q0 59 27.5 88t95.5 29h243q70 0 97.5 -28t27.5 -89v-1159q0 -59 -27.5 -88t-97.5 -29h-243q-68 0 -95.5 28.5t-27.5 88.5z" />
<glyph unicode="J" horiz-adv-x="1075" d="M-10 145q0 18 18 52l103 176q20 33 43 33q14 0 41 -19q98 -74 188 -74q139 0 139 133v830q0 59 28 88t95 29h244q70 0 97.5 -28t27.5 -89v-834q0 -217 -135.5 -345t-389.5 -128q-291 0 -475 135q-25 18 -24 41z" />
<glyph unicode="K" horiz-adv-x="1376" d="M72 117v1159q0 59 27.5 88t95.5 29h243q70 0 97.5 -28t27.5 -89v-336l258 422q10 18 26.5 24.5t49.5 6.5h379q25 0 37 -12.5t12 -32.5q0 -23 -14 -43l-391 -600l409 -617q14 -20 14 -43q0 -20 -12 -32.5t-37 -12.5h-379q-33 0 -48 6t-27 25l-277 436v-350 q0 -59 -27.5 -88t-97.5 -29h-243q-68 0 -95.5 28.5t-27.5 88.5z" />
<glyph unicode="L" horiz-adv-x="1142" d="M72 117v1159q0 59 27.5 88t95.5 29h243q70 0 97.5 -28t27.5 -89v-928h477q66 0 89.5 -27.5t23.5 -89.5v-114q0 -61 -23.5 -89t-89.5 -28h-845q-68 0 -95.5 28.5t-27.5 88.5z" />
<glyph unicode="M" horiz-adv-x="1568" d="M72 117v1161q0 59 27.5 87t97.5 28h235q45 0 71.5 -11.5t41.5 -44.5l239 -600l240 600q14 33 41 44.5t72 11.5h235q70 0 97.5 -28t27.5 -87v-1161q0 -59 -27.5 -88t-95.5 -29h-196q-68 0 -96.5 28.5t-28.5 88.5v559l-121 -279q-25 -59 -53.5 -84.5t-94.5 -25.5t-94 25.5 t-53 84.5l-121 279v-559q0 -59 -27.5 -88t-97.5 -29h-196q-68 0 -95.5 28.5t-27.5 88.5z" />
<glyph unicode="N" horiz-adv-x="1437" d="M72 117v1161q0 59 27.5 87t97.5 28h194q43 0 66.5 -11.5t46.5 -44.5l370 -551v490q0 59 28 88t95 29h244q70 0 97.5 -28t27.5 -89v-1161q0 -59 -27.5 -87t-97.5 -28h-194q-43 0 -67 11.5t-46 43.5l-371 551v-491q0 -59 -27.5 -87t-97.5 -28h-243q-68 0 -95.5 28.5 t-27.5 88.5z" />
<glyph unicode="O" horiz-adv-x="1544" d="M31 696q0 348 188.5 537.5t552.5 189.5q365 0 553 -189.5t188 -537.5t-188 -537.5t-553 -189.5q-364 0 -552.5 189.5t-188.5 537.5zM520 696q0 -193 59.5 -288t192.5 -95t192.5 95.5t59.5 287.5q0 195 -59.5 289t-192.5 94t-192.5 -94t-59.5 -289z" />
<glyph unicode="P" horiz-adv-x="1261" d="M72 117v1159q0 59 27.5 88t95.5 29h489q307 0 447.5 -122t140.5 -368t-140.5 -366.5t-445.5 -120.5h-123v-299q0 -59 -27.5 -88t-97.5 -29h-243q-68 0 -95.5 28.5t-27.5 88.5zM502 764h139q66 0 103.5 35t37.5 104q0 72 -37.5 106.5t-103.5 34.5h-139v-280z" />
<glyph unicode="Q" horiz-adv-x="1544" d="M31 696q0 348 188.5 537.5t552.5 189.5q365 0 553 -189.5t188 -537.5q0 -305 -148 -483t-443 -221q16 -33 59 -49.5t90 -16.5q94 0 158 43q18 12 28 13q16 0 25 -19l111 -174q10 -16 10 -25q0 -8 -7 -16t-18 -18q-59 -49 -131.5 -75t-175.5 -26q-199 0 -329 99.5 t-160 257.5q-272 45 -411.5 228t-139.5 482zM520 696q0 -193 59.5 -288t192.5 -95t192.5 95.5t59.5 287.5q0 195 -59.5 289t-192.5 94t-192.5 -94t-59.5 -289z" />
<glyph unicode="R" horiz-adv-x="1302" d="M72 117v1159q0 59 27.5 88t95.5 29h489q307 0 447.5 -122t140.5 -368q0 -147 -50.5 -248.5t-154.5 -158.5l190 -408q8 -16 9 -37q0 -23 -15.5 -37t-40.5 -14h-346q-33 0 -52 9t-28 32l-151 381h-70v-305q0 -59 -27.5 -88t-97.5 -29h-243q-68 0 -95.5 28.5t-27.5 88.5z M502 764h139q66 0 103.5 35t37.5 104q0 72 -37.5 106.5t-103.5 34.5h-139v-280z" />
<glyph unicode="S" horiz-adv-x="1259" d="M33 172q0 18 14 39l119 186q18 27 37 27q16 0 39 -14q74 -45 169 -71t185 -26q76 0 109.5 20.5t33.5 63.5q0 47 -45 76t-155 72q-207 80 -326 181t-119 269q0 213 148.5 320.5t400.5 107.5q176 0 300 -30.5t216 -96.5q41 -29 41 -55q0 -18 -14 -39l-119 -186 q-18 -29 -37 -29q-12 0 -39 17q-49 33 -116.5 54t-145.5 21q-72 0 -108.5 -20.5t-36.5 -65.5q0 -37 25.5 -61.5t64.5 -42t135 -55.5q154 -61 242 -118t133 -135.5t45 -199.5q0 -184 -138.5 -298t-412.5 -114q-186 0 -346 39t-258 109q-41 29 -41 55z" />
<glyph unicode="T" horiz-adv-x="1286" d="M-10 1161v115q0 61 23.5 89t88.5 28h1082q66 0 89 -28t23 -89v-115q0 -61 -23.5 -89t-88.5 -28h-295v-927q0 -59 -27.5 -88t-97.5 -29h-244q-67 0 -95 28.5t-28 88.5v927h-295q-66 0 -89 28t-23 89z" />
<glyph unicode="U" horiz-adv-x="1466" d="M61 510v766q0 59 28 88t95 29h244q70 0 97.5 -28t27.5 -89v-772q0 -96 48 -143.5t132 -47.5t132 47.5t48 143.5v772q0 59 28 88t95 29h244q70 0 97.5 -28t27.5 -89v-766q0 -168 -84 -290t-235.5 -186.5t-352.5 -64.5t-352.5 64.5t-235.5 186.5t-84 290z" />
<glyph unicode="V" horiz-adv-x="1499" d="M31 1350q0 43 45 43h385q63 0 80 -56l209 -667l208 667q16 55 80 56h385q45 0 45 -43q0 -18 -10 -45l-487 -1227q-16 -43 -40 -60.5t-69 -17.5h-223q-45 0 -68.5 17.5t-40.5 60.5l-489 1227q-10 27 -10 45z" />
<glyph unicode="W" horiz-adv-x="1792" d="M31 1350q0 43 61 43h348q39 0 57.5 -13.5t22.5 -42.5l80 -487l123 373q12 37 31.5 50t60.5 13h160q41 0 60.5 -13t31.5 -50l123 -373l80 487q4 29 22.5 42.5t57.5 13.5h350q61 0 61 -43l-4 -25l-309 -1247q-10 -43 -36 -60.5t-73 -17.5h-223q-45 0 -70.5 17.5t-37.5 60.5 l-113 397l-113 -397q-12 -43 -37.5 -60.5t-70.5 -17.5h-223q-48 0 -73.5 17.5t-35.5 60.5l-307 1247z" />
<glyph unicode="X" horiz-adv-x="1570" d="M31 45q0 20 16 43l469 633l-432 584q-16 23 -16 43q0 18 13 31.5t38 13.5h383q31 0 47 -7.5t29 -23.5l206 -281l209 281q12 16 28.5 23.5t47.5 7.5h383q25 0 38 -13.5t13 -31.5q0 -20 -16 -43l-434 -584l471 -633q16 -23 16 -43q0 -18 -13.5 -31.5t-37.5 -13.5h-383 q-31 0 -47.5 7t-28.5 24l-246 329l-243 -329q-12 -16 -28.5 -23.5t-47.5 -7.5h-383q-25 0 -38 13.5t-13 31.5z" />
<glyph unicode="Y" horiz-adv-x="1536" d="M33 1348q0 45 47 45h385q31 0 47 -13.5t33 -42.5l223 -401l223 401q16 29 32.5 42.5t47.5 13.5h385q47 0 47 -45q0 -20 -12 -43l-477 -818v-370q0 -59 -28 -88t-97 -29h-244q-67 0 -95 28.5t-28 88.5v370l-477 818q-12 23 -12 43z" />
<glyph unicode="Z" horiz-adv-x="1312" d="M31 111q0 66 11 102.5t56 95.5l539 735h-473q-68 0 -95.5 29t-27.5 88v115q0 59 27.5 88t95.5 29h1012q61 0 81.5 -23.5t20.5 -87.5q0 -63 -11.5 -100t-56.5 -99l-534 -735h483q68 0 95.5 -28.5t27.5 -88.5v-114q0 -59 -27.5 -88t-95.5 -29h-1026q-61 0 -81.5 23.5 t-20.5 87.5z" />
<glyph unicode="[" horiz-adv-x="776" d="M31 -27v1446q0 59 27.5 88t95.5 29h499q66 0 89.5 -27.5t23.5 -89.5v-114q0 -61 -23.5 -89t-89.5 -28h-131v-983h131q66 0 89.5 -27.5t23.5 -89.5v-115q0 -61 -23.5 -88.5t-89.5 -27.5h-499q-68 0 -95.5 28.5t-27.5 87.5z" />
<glyph unicode="\" horiz-adv-x="1097" d="M31 1380q0 43 45 43h377q31 0 49 -14t30 -41l525 -1280q10 -27 10 -45q0 -43 -45 -43h-377q-31 0 -49 14.5t-31 40.5l-524 1280q-10 27 -10 45z" />
<glyph unicode="]" horiz-adv-x="776" d="M10 -27v115q0 61 23.5 89t89.5 28h131v983h-131q-66 0 -89.5 27.5t-23.5 89.5v114q0 61 23.5 89t89.5 28h500q68 0 95 -28.5t27 -88.5v-1446q0 -59 -27.5 -87.5t-94.5 -28.5h-500q-66 0 -89.5 27.5t-23.5 88.5z" />
<glyph unicode="^" horiz-adv-x="1314" d="M33 739q0 23 14 43l393 598q35 53 61.5 73t86.5 20h139q59 0 86 -19.5t61 -73.5l394 -598q14 -20 14 -43q0 -20 -12.5 -32.5t-36.5 -12.5h-330q-33 0 -54.5 12.5t-39.5 43.5l-150 256l-153 -256q-18 -31 -40 -43.5t-54 -12.5h-330q-25 0 -37 12.5t-12 32.5z" />
<glyph unicode="_" horiz-adv-x="1038" d="M31 -147q0 61 23.5 88.5t88.5 27.5h752q66 0 89.5 -27.5t23.5 -88.5v-115q0 -61 -23.5 -89t-89.5 -28h-752q-65 0 -88.5 27.5t-23.5 89.5v115z" />
<glyph unicode="`" horiz-adv-x="665" d="M33 1468q0 29 24.5 44.5t67.5 15.5h293q63 0 84.5 -16.5t38.5 -63.5l86 -238q8 -25 8 -34q0 -57 -84 -58h-219q-70 0 -96.5 14.5t-55.5 63.5l-131 221q-16 27 -16 51z" />
<glyph unicode="a" horiz-adv-x="1269" d="M31 449q0 168 86 296.5t238.5 198.5t342.5 70q164 0 278 -32t222 -103v-811q0 -41 -15.5 -54.5t-62.5 -13.5h-258q-23 0 -35 6t-22 23l-33 51q-59 -55 -137 -83t-186 -28q-189 0 -303.5 126t-114.5 354zM520 449q0 -154 111 -154q51 0 84 28.5t33 79.5v279q-18 8 -50 8 q-84 0 -131 -62.5t-47 -178.5z" />
<glyph unicode="b" horiz-adv-x="1282" d="M72 121v1155q0 59 27.5 88t95.5 29h233q70 0 97.5 -28t27.5 -89v-299q29 14 87 25.5t103 11.5q250 0 379 -126t129 -358q0 -264 -159.5 -412.5t-462.5 -148.5q-160 0 -310.5 43t-246.5 109zM545 303q23 -8 55 -8h1q161 0 161 235q0 82 -26.5 121t-82.5 39 q-51 0 -79.5 -27.5t-28.5 -80.5v-279z" />
<glyph unicode="c" horiz-adv-x="1146" d="M31 492q0 158 73.5 275.5t213 182t331.5 64.5q143 0 243.5 -29t178.5 -82q25 -18 25 -41q0 -18 -19 -51l-98 -170q-16 -31 -41 -31q-18 0 -45 19q-49 33 -91 47t-106 14q-78 0 -127 -53t-49 -145q0 -94 50.5 -145.5t134.5 -51.5q55 0 102 16.5t100 46.5q31 18 47 19 q23 0 39 -31l109 -186q12 -20 12 -35q0 -25 -29 -41q-94 -57 -197.5 -86t-248.5 -29q-295 0 -451.5 134.5t-156.5 388.5z" />
<glyph unicode="d" horiz-adv-x="1282" d="M31 500q0 236 131 375t377 139q49 0 103 -10.5t87 -24.5v297q0 61 28.5 89t96.5 28h233q68 0 95.5 -29t27.5 -88v-1155q-94 -68 -238.5 -110t-312.5 -42q-313 0 -470.5 134.5t-157.5 396.5zM520 500q0 -111 40 -158t118 -47q36 0 59 8v287q0 53 -21.5 76.5t-72.5 23.5 q-61 0 -92 -52t-31 -138z" />
<glyph unicode="e" horiz-adv-x="1212" d="M31 483q0 258 150.5 394.5t434.5 136.5q279 0 422.5 -134.5t143.5 -365.5q0 -59 -24.5 -88t-76.5 -29h-589q0 -61 59 -97t164 -36q80 0 129 13.5t106 41.5q25 12 39 13q18 0 35 -29l80 -151q12 -20 12 -37q0 -23 -29 -39q-174 -106 -448 -107q-176 0 -314.5 59.5 t-216 175t-77.5 279.5zM492 627h256q0 110 -128 110h-2q-63 0 -94.5 -29.5t-31.5 -80.5z" />
<glyph unicode="f" horiz-adv-x="962" d="M-10 772v94q0 61 23.5 89t88.5 28h56v10q0 207 114.5 318.5t348.5 111.5q233 0 364 -94q27 -18 27 -41q0 -14 -13 -37l-86 -145q-14 -27 -36 -27q-12 0 -33 11q-39 20 -99 20q-51 0 -73.5 -24.5t-22.5 -71.5v-31h133q66 0 89.5 -27.5t23.5 -89.5v-94q0 -61 -23.5 -89 t-89.5 -28h-133v-538q0 -59 -27.5 -88t-97.5 -29h-243q-68 0 -95.5 28.5t-27.5 88.5v538h-56q-66 0 -89 28t-23 89z" />
<glyph unicode="g" horiz-adv-x="1282" d="M31 522q0 492 628 492q164 0 309.5 -46t241.5 -116v-639q0 -166 -70.5 -293t-204.5 -197.5t-317 -70.5q-126 0 -240 21.5t-194 66.5q-31 16 -30 37q0 10 12 33l102 172q18 33 39 32q6 0 31 -8q39 -14 109.5 -23.5t121.5 -9.5q160 0 160 111v6q-33 -14 -87 -24.5 t-103 -10.5q-252 0 -380 119t-128 348zM520 543q0 -82 29 -117t94 -35q51 0 72.5 23.5t21.5 77.5v188q-23 8 -59 8q-68 0 -94.5 -5t-45 -36t-18.5 -104z" />
<glyph unicode="h" horiz-adv-x="1249" d="M72 117v1208q0 41 15 54.5t63 13.5h247q47 0 62.5 -13.5t15.5 -54.5v-424q55 49 145.5 81t194.5 32q168 0 270.5 -94.5t102.5 -280.5v-522q0 -59 -27.5 -88t-95.5 -29h-244q-68 0 -96.5 28.5t-28.5 88.5v491q0 41 -14 60.5t-49 19.5q-39 0 -54.5 -19.5t-15.5 -60.5v-491 q0 -59 -27.5 -88t-95.5 -29h-243q-68 0 -96.5 28.5t-28.5 88.5z" />
<glyph unicode="i" horiz-adv-x="651" d="M72 1198v51q0 59 42 101.5t122 42.5h178q80 0 123 -42t43 -102v-51q0 -59 -43 -101t-123 -42h-178q-80 0 -122 42t-42 101zM80 117v749q0 59 27.5 88t95.5 29h243q70 0 97.5 -27.5t27.5 -89.5v-749q0 -59 -27.5 -88t-97.5 -29h-243q-68 0 -95.5 28.5t-27.5 88.5z" />
<glyph unicode="j" horiz-adv-x="788" d="M-307 -172q0 18 18 51l103 176q20 33 43 33q14 0 41 -18q98 -74 188 -74q139 0 139 133v737q0 59 28 88t95 29h244q70 0 97.5 -27.5t27.5 -89.5v-741q0 -217 -135.5 -345t-388.5 -128q-292 0 -476 135q-25 18 -24 41zM215 1198v51q0 59 42 101.5t122 42.5h178 q80 0 123 -42t43 -102v-51q0 -59 -43 -101t-123 -42h-178q-80 0 -122 42t-42 101z" />
<glyph unicode="k" horiz-adv-x="1257" d="M72 117v1159q0 59 27.5 88t95.5 29h243q70 0 97.5 -28t27.5 -89v-541l148 217q12 18 28.5 24.5t46.5 6.5h379q25 0 38.5 -13.5t13.5 -31.5q0 -20 -17 -43l-321 -395l329 -412q16 -23 17 -43q0 -18 -13.5 -31.5t-37.5 -13.5h-379q-33 0 -47.5 6t-28.5 25l-156 231v-145 q0 -59 -27.5 -88t-97.5 -29h-243q-68 0 -95.5 28.5t-27.5 88.5z" />
<glyph unicode="l" horiz-adv-x="634" d="M72 117v1159q0 59 27.5 88t95.5 29h243q70 0 97.5 -28t27.5 -89v-1159q0 -59 -27.5 -88t-97.5 -29h-243q-68 0 -95.5 28.5t-27.5 88.5z" />
<glyph unicode="m" horiz-adv-x="1689" d="M72 117v798q0 41 15 54.5t63 13.5h237q27 0 40 -5t17 -24l13 -51q59 51 127.5 81t158.5 30q84 0 142.5 -25.5t107.5 -81.5q57 51 125 79t168 28q164 0 253 -93.5t89 -281.5v-522q0 -59 -27.5 -88t-95.5 -29h-202q-68 0 -96.5 28.5t-28.5 88.5v491q0 80 -54 80 q-31 0 -45 -19.5t-14 -60.5v-491q0 -59 -27.5 -88t-95.5 -29h-182q-68 0 -96.5 28.5t-28.5 88.5v491q0 80 -53 80q-31 0 -45.5 -19.5t-14.5 -60.5v-491q0 -59 -27.5 -88t-95.5 -29h-202q-68 0 -96.5 28.5t-28.5 88.5z" />
<glyph unicode="n" horiz-adv-x="1249" d="M72 117v798q0 41 15 54.5t63 13.5h258q27 0 40 -5t17 -24l12 -51q55 49 143.5 80t194.5 31q168 0 270.5 -94.5t102.5 -280.5v-522q0 -59 -27.5 -88t-95.5 -29h-244q-68 0 -96.5 28.5t-28.5 88.5v491q0 41 -14 60.5t-49 19.5q-39 0 -54.5 -19.5t-15.5 -60.5v-491 q0 -59 -27.5 -88t-95.5 -29h-243q-68 0 -96.5 28.5t-28.5 88.5z" />
<glyph unicode="o" horiz-adv-x="1284" d="M31 492q0 160 71.5 277.5t210 181t328.5 63.5q289 0 450.5 -140.5t161.5 -381.5q0 -158 -72.5 -276t-209.5 -182.5t-330 -64.5q-190 0 -328.5 64.5t-210 182.5t-71.5 276zM520 492q0 -178 121 -179q123 1 123 179q0 94 -32 135t-91 41t-90 -41t-31 -135z" />
<glyph unicode="p" horiz-adv-x="1282" d="M72 -297v1149q96 70 241.5 116t309.5 46q628 0 628 -523q0 -238 -131 -380t-377 -142q-49 0 -103 10.5t-87 24.5v-301q0 -61 -27.5 -89t-97.5 -28h-233q-68 0 -95.5 29t-27.5 88zM545 393q0 -53 21.5 -76.5t72.5 -23.5q61 0 92 55t31 141q0 111 -40 155t-118 44 q-37 0 -59 -8v-287z" />
<glyph unicode="q" horiz-adv-x="1282" d="M31 461q0 264 158.5 408.5t469.5 144.5q164 0 309.5 -46t241.5 -116v-1149q0 -59 -27.5 -88t-95.5 -29h-233q-68 0 -96.5 28t-28.5 89v301q-33 -14 -87 -24.5t-103 -10.5q-250 0 -379 130t-129 362zM520 461q0 -168 123 -168q51 0 72.5 23.5t21.5 76.5v287q-23 8 -59 8 q-74 0 -116 -56.5t-42 -170.5z" />
<glyph unicode="r" horiz-adv-x="991" d="M72 117v798q0 41 15 54.5t63 13.5h258q27 0 40 -5t17 -24l12 -51q125 111 287 111q80 0 127 -12.5t88 -43.5q23 -16 22 -34q0 -12 -6 -29l-80 -217q-12 -33 -32 -33q-12 0 -29 10q-33 18 -63.5 26.5t-79.5 8.5q-66 0 -107 -34.5t-41 -94.5v-444q0 -59 -27.5 -88 t-95.5 -29h-243q-68 0 -96.5 28.5t-28.5 88.5z" />
<glyph unicode="s" horiz-adv-x="1116" d="M31 129q0 14 12 35l100 180q14 25 35 25q16 0 41 -13q55 -29 143.5 -54.5t153.5 -25.5q43 0 59.5 7.5t16.5 23.5t-30 28.5t-99 31.5q-20 6 -40 11t-38 11q-170 51 -242.5 117.5t-72.5 185.5q0 156 135 239t366 83q143 0 245 -23.5t200 -75.5q43 -25 43 -51q0 -16 -17 -43 l-98 -155q-16 -25 -31 -25q-6 0 -39 14q-47 23 -108 38.5t-113 15.5q-110 0 -110 -36q0 -17 35.5 -29.5t121.5 -33.5q113 -27 156 -41q92 -33 141.5 -67.5t68.5 -80.5t19 -120q0 -90 -56 -166t-172 -121t-286 -45q-294 0 -495 111q-45 25 -45 49z" />
<glyph unicode="t" horiz-adv-x="1030" d="M10 772v94q0 61 23.5 89t89.5 28h65v23q0 53 27 107t74 134q23 39 43 51.5t76 12.5h147q70 0 97.5 -28t27.5 -89v-211h123q66 0 89 -27.5t23 -89.5v-94q0 -61 -23.5 -89t-88.5 -28h-123v-247q0 -47 19.5 -71t62.5 -24q31 0 45 6.5t43 24.5q18 12 35 12q25 0 41 -28 l96 -166q18 -33 18 -53q0 -23 -24 -39q-76 -49 -169 -75t-224 -26q-209 0 -322 114t-113 316v256h-65q-66 0 -89.5 28t-23.5 89z" />
<glyph unicode="u" horiz-adv-x="1249" d="M61 352v514q0 59 28 88t95 29h244q70 0 97.5 -27.5t27.5 -89.5v-491q0 -41 15.5 -60.5t49.5 -19.5q39 0 53.5 19.5t14.5 60.5v491q0 59 27.5 88t95.5 29h244q70 0 97.5 -27.5t27.5 -89.5v-798q0 -41 -15.5 -54.5t-62.5 -13.5h-258q-27 0 -40.5 5t-17.5 24l-12 51 q-55 -49 -146 -80t-198 -31q-170 0 -268.5 95.5t-98.5 287.5z" />
<glyph unicode="v" horiz-adv-x="1298" d="M31 940q0 43 47 43h364q59 0 80 -55l127 -381l127 381q20 55 80 55h365q47 0 47 -43q0 -20 -13 -45l-385 -817q-20 -45 -42.5 -61.5t-65.5 -16.5h-223q-43 0 -65.5 17.5t-43.5 60.5l-387 817q-12 25 -12 45z" />
<glyph unicode="w" horiz-adv-x="1572" d="M33 952q0 31 43 31h327q51 0 58 -39l76 -385l108 293q10 27 23.5 36t42.5 9h151q29 0 42.5 -9t23.5 -36l106 -293l78 385q4 20 15.5 29.5t39.5 9.5h330q43 0 43 -31q0 -12 -2 -18l-260 -879q-8 -31 -25.5 -43t-50.5 -12h-241q-31 0 -48.5 12.5t-27.5 42.5l-99 281 l-100 -281q-10 -31 -27.5 -43t-48.5 -12h-239q-33 0 -51.5 12.5t-26.5 42.5l-258 879q-2 6 -2 18z" />
<glyph unicode="x" horiz-adv-x="1312" d="M33 47q0 18 16 41l336 412l-322 395q-16 23 -16 41q0 20 13.5 33.5t37.5 13.5h383q31 0 46.5 -7t29.5 -24l98 -123l101 123q14 16 29.5 23.5t45.5 7.5h383q25 0 38.5 -13.5t13.5 -33.5q0 -18 -17 -41l-323 -395l338 -412q16 -23 16 -41q0 -20 -13.5 -33.5t-37.5 -13.5 h-383q-31 0 -46.5 7t-29.5 24l-115 139l-112 -139q-14 -16 -29.5 -23.5t-46.5 -7.5h-383q-25 0 -38 13.5t-13 33.5z" />
<glyph unicode="y" horiz-adv-x="1265" d="M31 940q0 43 47 43h364q59 0 80 -55l127 -381l127 381q20 55 80 55h365q45 0 45 -43q0 -18 -11 -45l-378 -803q-68 -145 -133.5 -233t-152.5 -133t-208 -45h-3q-188 0 -312 108q-25 18 -25 41q0 20 14 43l97 168q18 31 39 31q16 0 45 -17q31 -18 54 -26.5t56 -8.5 q68 0 84 56l-389 819q-12 25 -12 45z" />
<glyph unicode="z" horiz-adv-x="1093" d="M31 752v114q0 59 27.5 88t95.5 29h794q49 0 69.5 -18.5t20.5 -55.5v-104q0 -41 -13 -64.5t-54 -66.5l-309 -326h278q68 0 95.5 -28.5t27.5 -88.5v-114q0 -59 -27.5 -88t-95.5 -29h-801q-59 0 -80.5 16.5t-21.5 65.5v96q0 43 12 66.5t55 64.5l345 326h-295 q-68 0 -95.5 28.5t-27.5 88.5z" />
<glyph unicode="{" horiz-adv-x="827" d="M-10 651v94q0 61 23.5 89t88.5 28h74v557q0 59 27.5 88t95.5 29h406q66 0 89 -27.5t23 -89.5v-94q0 -61 -23.5 -89t-88.5 -28h-48v-1024h48q66 0 89 -27.5t23 -88.5v-95q0 -61 -23.5 -88.5t-88.5 -27.5h-406q-68 0 -95.5 28.5t-27.5 87.5v562h-74q-66 0 -89 27.5 t-23 88.5z" />
<glyph unicode="|" horiz-adv-x="552" d="M31 -68v1528q0 59 27.5 88t95.5 29h243q70 0 97.5 -27.5t27.5 -89.5v-1528q0 -61 -27.5 -88.5t-97.5 -27.5h-243q-68 0 -95.5 28.5t-27.5 87.5z" />
<glyph unicode="}" horiz-adv-x="827" d="M10 -27v95q0 61 23.5 88.5t89.5 27.5h47v1024h-47q-66 0 -89.5 28t-23.5 89v94q0 61 23.5 89t89.5 28h405q68 0 95.5 -28.5t27.5 -88.5v-557h74q66 0 89.5 -27.5t23.5 -89.5v-94q0 -61 -23.5 -88.5t-89.5 -27.5h-74v-562q0 -59 -27.5 -87.5t-95.5 -28.5h-405 q-66 0 -89.5 27.5t-23.5 88.5z" />
<glyph unicode="~" horiz-adv-x="1318" d="M33 590q0 37 39 94q143 203 362 203q72 0 124 -18.5t124 -55.5q55 -29 91 -42t79 -13q55 0 83 20.5t71 73.5q23 29 51 29q25 0 59.5 -18.5t87.5 -59.5q43 -35 62.5 -59.5t19.5 -53.5q0 -37 -39 -94q-143 -203 -342 -203q-67 0 -117.5 16.5t-117.5 51.5q-63 31 -105.5 46 t-97.5 15q-49 0 -78 -19.5t-49.5 -44t-26.5 -30.5q-25 -27 -53 -27q-47 0 -145 76q-43 35 -62.5 59.5t-19.5 53.5z" />
<glyph unicode="&#xa1;" horiz-adv-x="569" d="M31 911v52q0 113 164 112h178q166 0 166 -112v-52q0 -113 -166 -112h-178q-164 -1 -164 112zM41 -201l12 805q2 61 29 89t94 28h217q68 0 95.5 -27.5t29.5 -89.5l14 -805q2 -59 -26.5 -87.5t-97.5 -28.5h-244q-68 0 -96.5 28.5t-26.5 87.5z" />
<glyph unicode="&#xa2;" horiz-adv-x="1146" d="M31 492q0 180 96 308t274 179v98q0 59 28 88t95 29h203q70 0 97.5 -27.5t27.5 -89.5v-82q121 -27 219 -92q25 -18 25 -41q0 -18 -19 -51l-98 -170q-16 -31 -41 -31q-18 0 -45 19q-49 33 -91 47t-106 14q-78 0 -127 -53t-49 -145q0 -94 50.5 -145.5t134.5 -51.5 q55 0 102 16.5t100 46.5q31 18 47 19q23 0 39 -31l109 -186q12 -20 12 -35q0 -25 -29 -41q-113 -70 -233 -94v-84q0 -61 -27.5 -89t-97.5 -28h-203q-67 0 -95 28.5t-28 88.5v92q-182 47 -276 172t-94 322z" />
<glyph unicode="&#xa3;" horiz-adv-x="1155" d="M31 117v94q0 61 23.5 89t88.5 28q33 0 44.5 12t11.5 45v199h-56q-66 0 -89 27.5t-23 88.5v95q0 61 23.5 88.5t88.5 27.5h56v82q0 207 114.5 318.5t348.5 111.5q233 0 364 -94q27 -18 27 -41q0 -14 -13 -37l-86 -145q-14 -27 -36 -27q-12 0 -33 11q-39 20 -99 20 q-51 0 -73.5 -24.5t-22.5 -71.5v-103h133q66 0 89.5 -27.5t23.5 -88.5v-95q0 -61 -23.5 -88.5t-89.5 -27.5h-133v-133q0 -84 -41 -123h363q66 0 89 -28t23 -89v-94q0 -61 -23.5 -89t-88.5 -28h-869q-65 0 -88.5 27.5t-23.5 89.5z" />
<glyph unicode="&#xa4;" horiz-adv-x="1196" d="M33 332q0 18 22 45l68 69q-45 94 -45 179q0 86 45 180l-68 69q-23 27 -22 46q0 23 26 49l177 166q29 29 59 28q29 0 53 -22l96 -82q90 20 154 20q63 0 154 -20l96 82q25 23 53 22q31 0 60 -28l176 -166q27 -27 26 -49q0 -18 -22 -46l-68 -69q45 -94 45 -180 q0 -84 -45 -179l68 -69q23 -27 22 -45q0 -23 -26 -49l-176 -166q-29 -29 -60 -29q-29 0 -53 23l-96 82q-63 -20 -154 -21q-90 0 -154 21l-96 -82q-24 -23 -53 -23q-31 0 -59 29l-177 166q-27 27 -26 49zM489 625q0 -45 32 -77t77 -32t77 32t32 77t-32 76.5t-77 31.5 t-77 -31.5t-32 -76.5z" />
<glyph unicode="&#xa5;" horiz-adv-x="1536" d="M33 1348q0 45 47 45h385q31 0 48 -14.5t32 -41.5l223 -411l223 411q14 27 31.5 41.5t48.5 14.5h385q47 0 47 -45q0 -20 -12 -43l-340 -580h33q70 0 91 -18.5t21 -77.5v-74q0 -59 -21.5 -77.5t-90.5 -18.5h-170v-66h170q70 0 91 -18.5t21 -77.5v-74q0 -59 -21.5 -77.5 t-90.5 -18.5h-170v-10q0 -59 -28 -88t-97 -29h-244q-67 0 -95 28.5t-28 88.5v10h-170q-70 0 -91 18.5t-21 77.5v74q0 59 21.5 77.5t90.5 18.5h170v66h-170q-70 0 -91 18.5t-21 77.5v74q0 59 21.5 77.5t90.5 18.5h31l-338 580q-12 23 -12 43z" />
<glyph unicode="&#xa6;" horiz-adv-x="552" d="M31 213q0 59 27.5 88t95.5 29h243q70 0 97.5 -28t27.5 -89v-545q0 -61 -27.5 -89t-97.5 -28h-243q-68 0 -95.5 29t-27.5 88v545zM31 834v544q0 59 27.5 88t95.5 29h243q70 0 97.5 -27.5t27.5 -89.5v-544q0 -59 -27.5 -88t-97.5 -29h-243q-68 0 -95.5 28.5t-27.5 88.5z " />
<glyph unicode="&#xa7;" horiz-adv-x="1259" d="M33 -117q0 18 14 39l119 187q18 27 37 26q16 0 39 -14q74 -45 169 -70.5t185 -25.5q76 0 109.5 10t33.5 35q0 29 -32.5 46t-112.5 46q-43 14 -125 47q-123 51 -201 99t-126 124t-48 189q0 70 17.5 118.5t54.5 100.5q-66 88 -66 207q0 109 64.5 193.5t187.5 133.5t291 49 q317 0 516 -127q43 -27 43 -53q0 -14 -16 -41l-119 -186q-18 -29 -37 -29q-12 0 -39 17q-47 33 -117.5 54t-144.5 21q-145 0 -145 -61q0 -29 29.5 -47.5t107.5 -48.5q47 -16 115 -48q156 -72 235.5 -123t118.5 -116.5t39 -165.5q0 -63 -18.5 -109.5t-57.5 -83.5 q41 -41 58.5 -89t17.5 -126q0 -111 -63.5 -196.5t-190.5 -134.5t-313 -49q-185 0 -337.5 37.5t-250.5 109.5q-41 29 -41 55zM483 674q0 -49 33 -80t123 -78q143 -76 217 -104q0 47 -34 76.5t-120 76.5q-135 74 -219 109z" />
<glyph unicode="&#xa8;" horiz-adv-x="858" d="M31 1233v59q0 61 39 103.5t100 42.5h61q61 0 100.5 -42t39.5 -104v-59q0 -59 -39 -102.5t-101 -43.5h-61q-59 0 -99 43.5t-40 102.5zM487 1233v59q0 61 39 103.5t101 42.5h61q61 0 100 -42t39 -104v-59q0 -59 -38.5 -102.5t-100.5 -43.5h-61q-60 0 -100 43.5t-40 102.5z " />
<glyph unicode="&#xa9;" horiz-adv-x="1556" d="M31 696q0 197 102.5 364t274.5 265t370 98q199 0 371 -98t274.5 -265t102.5 -364t-102.5 -363.5t-274.5 -265t-371 -98.5q-198 0 -370 98.5t-274.5 265.5t-102.5 363zM301 696q0 -145 58.5 -254.5t166 -170t252.5 -60.5q146 0 253.5 60.5t165.5 170t58 254.5t-58 255 t-165.5 170.5t-253.5 60.5q-145 0 -252.5 -60.5t-166 -170t-58.5 -255.5zM352 694q0 209 117 324t328 115q90 0 156.5 -24t121.5 -69q10 -8 10 -24t-8 -31l-51 -106q-12 -18 -25 -19q-12 0 -26 12q-29 20 -59.5 30.5t-77.5 10.5q-88 0 -136.5 -56t-48.5 -163 q0 -106 48.5 -162.5t136.5 -56.5q47 0 77.5 10.5t59.5 30.5q16 12 26 12q12 0 25 -18l51 -107q8 -14 8 -30t-10 -25q-55 -45 -121.5 -68.5t-156.5 -23.5q-211 0 -328 114.5t-117 323.5z" />
<glyph unicode="&#xaa;" horiz-adv-x="724" d="M31 963q0 104 68.5 161.5t183.5 57.5h174v4q0 27 -35 40t-88 13q-63 0 -131 -31q-4 -2 -10 -2q-8 0 -15 13l-76 131q-2 2 -2 8q0 10 21 20q96 45 241 45q174 0 253 -65.5t79 -202.5v-356q0 -27 -30 -27h-160q-27 0 -33 27l-8 26q-39 -37 -87 -54t-124 -17 q-98 0 -159.5 58t-61.5 151zM287 979q0 -55 63 -55q51 0 79 25.5t28 70.5v8h-107q-63 0 -63 -49z" />
<glyph unicode="&#xab;" horiz-adv-x="1603" d="M31 563v55q0 23 15 43.5t58 65.5l398 403q43 43 76 44q29 0 57 -27l168 -168q35 -35 35 -61q0 -29 -35 -62l-281 -264l281 -264q35 -33 35 -62q0 -27 -35 -61l-168 -168q-28 -29 -55 -29q-35 0 -78 45l-398 404l-32.5 32.5t-32.5 41t-8 32.5zM764 563v55q0 23 15.5 43.5 t58.5 65.5l397 403q43 43 76 44q29 0 57 -27l168 -168q35 -35 35 -61q0 -29 -35 -62l-281 -264l281 -264q35 -33 35 -62q0 -27 -35 -61l-168 -168q-28 -29 -55 -29q-35 0 -78 45l-397 404q-8 8 -33 32.5t-33 41t-8 32.5z" />
<glyph unicode="&#xac;" horiz-adv-x="956" d="M31 569v115q0 61 23.5 89t88.5 28h670q66 0 89.5 -28t23.5 -89v-352q0 -66 -28 -89.5t-89 -23.5h-143q-62 0 -89.5 23.5t-27.5 89.5v121h-406q-66 0 -89 27.5t-23 88.5z" />
<glyph unicode="&#xad;" horiz-adv-x="956" d="M31 569v115q0 61 23.5 89t88.5 28h670q66 0 89.5 -28t23.5 -89v-115q0 -61 -23.5 -88.5t-89.5 -27.5h-670q-65 0 -88.5 27.5t-23.5 88.5z" />
<glyph unicode="&#xae;" horiz-adv-x="1556" d="M31 696q0 197 102.5 364t274.5 265t370 98q199 0 371 -98t274.5 -265t102.5 -364t-102.5 -363.5t-274.5 -265t-371 -98.5q-198 0 -370 98.5t-274.5 265.5t-102.5 363zM301 696q0 -145 58.5 -254.5t166 -170t252.5 -60.5q146 0 253.5 60.5t165.5 170t58 254.5t-58 255 t-165.5 170.5t-253.5 60.5q-145 0 -252.5 -60.5t-166 -170t-58.5 -255.5zM475 403v619q0 35 15.5 49t52.5 14h264q166 0 246 -65.5t80 -196.5q0 -162 -123 -221l98 -217l4 -18q0 -27 -29 -27h-184q-39 0 -47 20l-76 205h-20v-162q0 -35 -15.5 -49t-52.5 -14h-145 q-37 0 -52.5 14.5t-15.5 48.5zM729 754h66q37 0 55 16t18 53q0 39 -18.5 55.5t-54.5 16.5h-66v-141z" />
<glyph unicode="&#xaf;" horiz-adv-x="833" d="M31 1268v114q0 61 23.5 89t88.5 28h547q66 0 89.5 -27.5t23.5 -89.5v-114q0 -61 -23.5 -89t-89.5 -28h-547q-65 0 -88.5 27.5t-23.5 89.5z" />
<glyph unicode="&#xb0;" horiz-adv-x="700" d="M31 1200q0 152 86 235t233 83t233.5 -83t86.5 -235t-86 -234.5t-234 -82.5q-147 0 -233 83t-86 234zM270 1200q0 -39 21.5 -60.5t58.5 -21.5t58.5 21.5t21.5 60.5t-21.5 60.5t-58.5 21.5t-58.5 -21.5t-21.5 -60.5z" />
<glyph unicode="&#xb1;" horiz-adv-x="956" d="M31 117v114q0 61 23.5 89t88.5 28h670q66 0 89.5 -27.5t23.5 -89.5v-114q0 -61 -23.5 -89t-89.5 -28h-670q-65 0 -88.5 27.5t-23.5 89.5zM31 754v114q0 61 23.5 89t88.5 28h146v100q0 66 27.5 89.5t89.5 23.5h143q61 0 89 -23.5t28 -89.5v-100h147q66 0 89.5 -27.5 t23.5 -89.5v-114q0 -61 -23.5 -89t-89.5 -28h-147v-98q0 -66 -28 -89.5t-89 -23.5h-143q-62 0 -89.5 23.5t-27.5 89.5v98h-146q-66 0 -89 27.5t-23 89.5z" />
<glyph unicode="&#xb2;" horiz-adv-x="765" d="M31 1323q0 14 14 23q51 37 146.5 57t220.5 20q141 0 229 -63.5t88 -177.5q0 -88 -37 -144.5t-135 -115.5q-72 -43 -123 -91h236q39 0 52 -15t13 -52v-111q0 -37 -13 -52t-52 -15h-574q-59 0 -59 63v96q0 70 44 118t173 136q51 35 63 41q51 33 66.5 50.5t15.5 52.5 q0 57 -84 57q-82 0 -163 -39q-20 -10 -27 -10q-10 0 -23 18l-61 123q-10 20 -10 31z" />
<glyph unicode="&#xb3;" horiz-adv-x="776" d="M31 670q0 12 10 28l61 113q10 16 23 16q10 0 27 -10q78 -37 145 -37q49 0 75.5 17.5t26.5 48.5q0 53 -59 53h-74q-41 0 -57 16.5t-16 53.5v73q0 35 16 50.5t57 15.5h58q53 0 53 51q0 27 -17.5 41t-60.5 14t-68.5 -8t-68.5 -28q-20 -10 -29 -11q-10 0 -20 17l-60 112 q-12 20 -12 31q0 14 14 23q53 35 134 54t180 19q160 0 258 -68.5t98 -183.5q0 -102 -74 -161q94 -57 94 -174q0 -121 -98 -193t-274 -72q-99 0 -188 20.5t-140 53.5q-14 12 -14 25z" />
<glyph unicode="&#xb4;" horiz-adv-x="665" d="M33 1176q0 16 6 34l86 238q16 47 38.5 63.5t84.5 16.5h293q43 0 67.5 -15.5t24.5 -44.5q0 -25 -17 -51l-131 -221q-29 -49 -55.5 -63.5t-95.5 -14.5h-219q-82 1 -82 58z" />
<glyph unicode="&#xb5;" horiz-adv-x="1177" d="M31 -246v1112q0 59 27.5 88t95.5 29h243q70 0 97.5 -27.5t27.5 -89.5v-491q0 -41 15.5 -60.5t50.5 -19.5q39 0 53 19.5t14 60.5v491q0 59 28 88t95 29h244q70 0 97.5 -27.5t27.5 -89.5v-798q0 -41 -15.5 -54.5t-62.5 -13.5h-258q-27 0 -40 5t-17 24l-13 51 q-43 -37 -94 -58.5t-125 -21.5v-246q0 -61 -27.5 -88.5t-97.5 -27.5h-243q-68 0 -95.5 28.5t-27.5 87.5z" />
<glyph unicode="&#xb6;" horiz-adv-x="1646" d="M31 920q0 240 145.5 356.5t458.5 116.5h868q66 0 89.5 -28t23.5 -89v-115q0 -61 -23.5 -89t-89.5 -28v-1132q0 -61 -27.5 -89t-97.5 -28h-239q-68 0 -95.5 29t-27.5 88v1130h-94v-1130q0 -61 -28 -89t-97 -28h-240q-68 0 -95.5 29t-27.5 88v577q-117 0 -209 55.5 t-143 153t-51 222.5z" />
<glyph unicode="&#xb7;" horiz-adv-x="356" d="M31 631v51q0 55 33.5 91t87.5 36h53q53 0 87 -36t34 -91v-51q0 -53 -34 -90t-87 -37h-53q-54 0 -87.5 38t-33.5 89z" />
<glyph unicode="&#xb8;" horiz-adv-x="595" d="M33 -448.5q-4 6.5 2 20.5l49 129q6 14 18 14q6 0 19 -6q41 -20 84 -20q61 0 61 35q0 27 -22.5 37t-73.5 10h-37q-16 0 -21.5 9t1.5 23l55 138q6 16 15.5 22t29.5 6h250q25 0 24 -16q0 -10 -4 -16l-47 -103q68 -14 98.5 -50t30.5 -101q0 -78 -72.5 -131.5t-216.5 -53.5 q-59 0 -124.5 11.5t-96.5 25.5q-18 10 -22 16.5z" />
<glyph unicode="&#xb9;" horiz-adv-x="681" d="M33 1223q0 12 12 18l223 135q16 10 27.5 13.5t36.5 3.5h149q39 0 55.5 -16.5t16.5 -51.5v-518h76q39 0 51 -15.5t12 -52.5v-86q0 -37 -12 -52t-51 -15h-477q-39 0 -52.5 15t-13.5 52v86q0 37 13.5 52.5t52.5 15.5h73v291l-59 -39q-6 -6 -14 -6q-12 0 -19 12l-96 145 q-4 4 -4 13z" />
<glyph unicode="&#xba;" horiz-adv-x="845" d="M31 1087q0 156 103.5 246t287.5 90q186 0 289.5 -90t103.5 -246q0 -154 -103.5 -243.5t-289.5 -89.5q-184 0 -287.5 90t-103.5 243zM338 1087q0 -59 23.5 -86.5t60.5 -27.5q39 0 62.5 27.5t23.5 86.5q0 117 -86 117q-39 0 -61.5 -27.5t-22.5 -89.5z" />
<glyph unicode="&#xbb;" horiz-adv-x="1603" d="M33 266q0 29 35 62l280 264l-280 264q-35 33 -35 62q0 27 35 61l168 168q29 27 57 27q33 0 76 -44l397 -403q43 -45 58.5 -65.5t15.5 -43.5v-55q0 -20 -12.5 -37.5t-33 -39t-28.5 -29.5l-397 -404q-43 -45 -78 -45q-27 0 -55 29l-168 168q-35 35 -35 61zM766 266 q0 29 35 62l280 264l-280 264q-35 33 -35 62q0 27 35 61l168 168q29 27 57 27q33 0 76 -44l397 -403q43 -45 58.5 -65.5t15.5 -43.5v-55q0 -20 -12.5 -37.5t-33 -39t-28.5 -29.5l-397 -404q-43 -45 -78 -45q-27 0 -55 29l-168 168q-35 35 -35 61z" />
<glyph unicode="&#xbc;" horiz-adv-x="1785" d="M33 1223q0 12 12 18l223 135q16 10 27.5 13.5t36.5 3.5h170q39 0 55 -16.5t16 -51.5v-672q0 -37 -12 -52t-51 -15h-219q-39 0 -52.5 15t-13.5 52v445l-59 -39q-6 -6 -14 -6q-12 0 -19 12l-96 145q-4 4 -4 13zM299 45q0 23 12 43l740 1249q18 29 37.5 42.5t52.5 13.5h284 q47 0 48 -45q0 -20 -13 -43l-749 -1264q-14 -27 -25.5 -34t-44.5 -7h-295q-47 0 -47 45zM930 197v108q0 29 4 42t22 34l324 389q18 23 31.5 30t46.5 7h217q39 0 55.5 -16.5t16.5 -51.5v-372h45q37 0 50 -16.5t13 -51.5v-78q0 -37 -12 -51t-51 -14h-45v-95q0 -35 -16.5 -48 t-57.5 -13h-203q-39 0 -55.5 13.5t-16.5 47.5v95h-327q-41 0 -41 41zM1266 367h112v145z" />
<glyph unicode="&#xbd;" horiz-adv-x="1861" d="M33 1223q0 12 12 18l223 135q16 10 27.5 13.5t36.5 3.5h170q39 0 55 -16.5t16 -51.5v-672q0 -37 -12 -52t-51 -15h-219q-39 0 -52.5 15t-13.5 52v445l-59 -39q-6 -6 -14 -6q-12 0 -19 12l-96 145q-4 4 -4 13zM299 45q0 23 12 43l740 1249q18 29 37.5 42.5t52.5 13.5h284 q47 0 48 -45q0 -20 -13 -43l-749 -1264q-14 -27 -25.5 -34t-44.5 -7h-295q-47 0 -47 45zM1153 63v76q0 76 40 135.5t157 139.5q51 35 63 41q51 33 66.5 50t15.5 52q0 57 -84 57q-39 0 -64.5 -6t-58.5 -22q-20 -10 -26 -11q-10 0 -23 19l-61 123q-10 20 -11 31q0 14 15 22 q53 35 128.5 51.5t186.5 16.5q143 0 235.5 -63.5t92.5 -178.5q0 -88 -37 -144.5t-135 -115.5q-72 -43 -123 -90h235q39 0 52.5 -15.5t13.5 -52.5v-110q0 -37 -13.5 -52.5t-52.5 -15.5h-553q-59 0 -59 63z" />
<glyph unicode="&#xbe;" horiz-adv-x="1863" d="M31 670q0 12 10 28l61 113q10 16 23 16q10 0 27 -10q78 -37 145 -37q49 0 75.5 17.5t26.5 48.5q0 53 -59 53h-74q-41 0 -57 16.5t-16 53.5v73q0 35 16 50.5t57 15.5h58q53 0 53 51q0 27 -17.5 41t-60.5 14t-68.5 -8t-68.5 -28q-20 -10 -29 -11q-10 0 -20 17l-60 112 q-12 20 -12 31q0 14 14 23q53 35 134 54t180 19q160 0 258 -68.5t98 -183.5q0 -102 -74 -161q94 -57 94 -174q0 -121 -98 -193t-274 -72q-99 0 -188 20.5t-140 53.5q-14 12 -14 25zM377 45q0 23 12 43l739 1249q18 29 38 42.5t53 13.5h284q47 0 47 -45q0 -20 -12 -43 l-750 -1264q-14 -27 -25 -34t-44 -7h-295q-47 0 -47 45zM1008 197v108q0 29 4 42t22 34l324 389q18 23 31.5 30t46.5 7h217q39 0 55 -16.5t16 -51.5v-372h45q37 0 50.5 -16.5t13.5 -51.5v-78q0 -37 -12.5 -51t-51.5 -14h-45v-95q0 -35 -16 -48t-57 -13h-203 q-39 0 -55.5 13.5t-16.5 47.5v95h-327q-41 0 -41 41zM1343 367h113v145z" />
<glyph unicode="&#xbf;" horiz-adv-x="1157" d="M31 74q0 123 56 201.5t173 150.5q78 47 110.5 85t32.5 83v10q0 61 29 89t96 28h244q68 0 95.5 -28.5t27.5 -88.5v-14q0 -119 -59.5 -199t-196.5 -178q-78 -55 -98.5 -75.5t-20.5 -59.5q0 -82 144 -82q63 0 131.5 24.5t124.5 61.5q25 18 45 18q23 0 41 -30l102 -176 q18 -33 18 -52q0 -23 -24 -41q-109 -74 -228.5 -111.5t-281.5 -37.5q-252 0 -406.5 110.5t-154.5 311.5zM395 911v52q0 113 166 112h178q164 0 164 -112v-52q0 -113 -164 -112h-178q-166 -1 -166 112z" />
<glyph unicode="&#xc0;" horiz-adv-x="1540" d="M31 43q0 18 10 45l510 1227q18 43 41.5 60.5t66.5 17.5h224q43 0 66.5 -17.5t41.5 -60.5l508 -1227q10 -27 10 -45q0 -43 -45 -43h-385q-63 0 -80 55l-49 152h-362l-47 -152q-16 -55 -80 -55h-385q-45 0 -45 43zM377 1808q0 29 24.5 44.5t67.5 15.5h293q63 0 84.5 -16.5 t38.5 -63.5l86 -238q8 -25 8 -34q0 -57 -84 -58h-219q-70 0 -96.5 14.5t-55.5 63.5l-131 221q-16 27 -16 51zM690 530h160l-80 254z" />
<glyph unicode="&#xc1;" horiz-adv-x="1540" d="M31 43q0 18 10 45l510 1227q18 43 41.5 60.5t66.5 17.5h224q43 0 66.5 -17.5t41.5 -60.5l508 -1227q10 -27 10 -45q0 -43 -45 -43h-385q-63 0 -80 55l-49 152h-362l-47 -152q-16 -55 -80 -55h-385q-45 0 -45 43zM551 1516q0 16 6 34l86 238q16 47 39 63.5t84 16.5h293 q43 0 67.5 -15.5t24.5 -44.5q0 -25 -16 -51l-131 -221q-29 -49 -55.5 -63.5t-96.5 -14.5h-219q-82 1 -82 58zM690 530h160l-80 254z" />
<glyph unicode="&#xc2;" horiz-adv-x="1540" d="M31 43q0 18 10 45l510 1227q18 43 41.5 60.5t66.5 17.5h224q43 0 66.5 -17.5t41.5 -60.5l508 -1227q10 -27 10 -45q0 -43 -45 -43h-385q-63 0 -80 55l-49 152h-362l-47 -152q-16 -55 -80 -55h-385q-45 0 -45 43zM299 1509q0 27 31 66l188 240q29 39 48.5 49t76.5 10h254 q57 0 76.5 -10.5t48.5 -48.5l188 -240q31 -39 31 -66q0 -23 -19.5 -34t-54.5 -11h-182q-57 0 -81.5 12.5t-47.5 45.5l-86 133l-86 -133q-23 -33 -47.5 -45.5t-81.5 -12.5h-182q-35 0 -54.5 11.5t-19.5 33.5zM690 530h160l-80 254z" />
<glyph unicode="&#xc3;" horiz-adv-x="1540" d="M31 43q0 18 10 45l510 1227q18 43 41.5 60.5t66.5 17.5h224q43 0 66.5 -17.5t41.5 -60.5l508 -1227q10 -27 10 -45q0 -43 -45 -43h-385q-63 0 -80 55l-49 152h-362l-47 -152q-16 -55 -80 -55h-385q-45 0 -45 43zM276 1612q0 29 31 71q70 100 130.5 144.5t148.5 44.5 q61 0 106 -16.5t101 -45.5q41 -20 64.5 -29t47.5 -9q33 0 54.5 14t54.5 53q20 27 51 27q39 0 125 -64q41 -29 58.5 -52.5t17.5 -47.5q0 -27 -31 -74q-68 -100 -128 -142t-151 -42q-43 0 -79.5 13t-90.5 42q-51 25 -78.5 35t-58.5 10q-35 0 -60.5 -14t-56.5 -53 q-20 -27 -51 -27q-39 0 -125 63q-43 33 -61.5 54.5t-18.5 44.5zM690 530h160l-80 254z" />
<glyph unicode="&#xc4;" horiz-adv-x="1540" d="M31 43q0 18 10 45l510 1227q18 43 41.5 60.5t66.5 17.5h224q43 0 66.5 -17.5t41.5 -60.5l508 -1227q10 -27 10 -45q0 -43 -45 -43h-385q-63 0 -80 55l-49 152h-362l-47 -152q-16 -55 -80 -55h-385q-45 0 -45 43zM373 1593v60q0 61 39 103t100 42h61q61 0 100.5 -42 t39.5 -103v-60q0 -59 -39 -102t-101 -43h-61q-59 0 -99 43t-40 102zM690 530h160l-80 254zM829 1593v60q0 61 39 103t101 42h61q61 0 100 -42t39 -103v-60q0 -59 -38.5 -102t-100.5 -43h-61q-60 0 -100 43t-40 102z" />
<glyph unicode="&#xc5;" horiz-adv-x="1540" d="M31 43q0 18 10 45l510 1227q14 35 35 55q-35 37 -54.5 84t-19.5 100q0 109 76 186t184 77q109 0 185.5 -77t76.5 -186q0 -55 -20.5 -102t-57.5 -82q18 -16 35 -55l508 -1227q10 -27 10 -45q0 -43 -45 -43h-385q-63 0 -80 55l-49 152h-362l-47 -152q-16 -55 -80 -55h-385 q-45 0 -45 43zM690 530h160l-80 254zM709 1554q0 -27 18 -45t45 -18t45.5 18.5t18.5 44.5q0 27 -18.5 45.5t-45.5 18.5t-45 -18.5t-18 -45.5z" />
<glyph unicode="&#xc6;" horiz-adv-x="1794" d="M33 43q0 18 10 45l510 1227q18 43 41.5 60.5t67.5 17.5h999q66 0 89.5 -28t23.5 -89v-115q0 -61 -24 -89t-89 -28h-438v-176h254q66 0 89 -27.5t23 -88.5v-111q0 -61 -23.5 -89t-88.5 -28h-254v-176h436q66 0 89.5 -27.5t23.5 -89.5v-114q0 -61 -24 -89t-89 -28h-764 q-68 0 -95.5 28.5t-27.5 88.5v96h-182l-47 -158q-16 -55 -80 -55h-385q-45 0 -45 43zM678 530h94v322z" />
<glyph unicode="&#xc7;" horiz-adv-x="1394" d="M31 696q0 362 199.5 544.5t570.5 182.5q168 0 299 -32.5t219 -92.5q25 -18 24 -41q0 -18 -18 -51l-102 -176q-16 -29 -39 -29q-14 0 -47 17q-57 29 -120 45t-147 16q-170 0 -260 -98t-90 -285q0 -184 98.5 -283.5t268.5 -99.5q147 0 270 62q33 16 47 16q23 0 39 -29 l103 -176q18 -33 18 -51q0 -23 -25 -41q-139 -94 -376 -119q2 -6 -5 -18l-47 -102q68 -14 98.5 -50t30.5 -102q0 -78 -72.5 -131t-215.5 -53q-59 0 -125 11t-97 26q-18 10 -22 16t2 20l49 129q6 14 19 15q6 0 18 -6q41 -20 84 -21q61 0 61 35q0 27 -22.5 37t-73.5 10h-37 q-16 0 -21 9.5t1 23.5l55 137q2 10 10 19q-297 37 -459.5 218t-162.5 498z" />
<glyph unicode="&#xc8;" horiz-adv-x="1185" d="M72 117v1159q0 59 27.5 88t95.5 29h847q66 0 89.5 -28t23.5 -89v-115q0 -61 -23.5 -89t-89.5 -28h-479v-176h295q66 0 89.5 -27.5t23.5 -88.5v-111q0 -61 -23.5 -89t-89.5 -28h-295v-176h477q66 0 89.5 -27.5t23.5 -89.5v-114q0 -61 -23.5 -89t-89.5 -28h-845 q-68 0 -95.5 28.5t-27.5 88.5zM276 1858q0 29 25 44t68 15h293q63 0 84.5 -16.5t37.5 -63.5l86 -238q8 -25 9 -34q0 -57 -84 -58h-220q-69 0 -95.5 14.5t-55.5 63.5l-131 221q-16 27 -17 52z" />
<glyph unicode="&#xc9;" horiz-adv-x="1175" d="M72 117v1159q0 59 27.5 88t95.5 29h847q66 0 89.5 -28t23.5 -89v-115q0 -61 -23.5 -89t-89.5 -28h-479v-176h295q66 0 89.5 -27.5t23.5 -88.5v-111q0 -61 -23.5 -89t-89.5 -28h-295v-176h477q66 0 89.5 -27.5t23.5 -89.5v-114q0 -61 -23.5 -89t-89.5 -28h-845 q-68 0 -95.5 28.5t-27.5 88.5zM350 1565q0 16 6 34l86 238q16 47 39 63.5t84 16.5h293q43 0 67.5 -15.5t24.5 -43.5q0 -25 -16 -52l-131 -221q-29 -49 -55.5 -63.5t-96.5 -14.5h-219q-82 1 -82 58z" />
<glyph unicode="&#xca;" horiz-adv-x="1175" d="M72 117v1159q0 59 27.5 88t95.5 29h847q66 0 89.5 -28t23.5 -89v-115q0 -61 -23.5 -89t-89.5 -28h-479v-176h295q66 0 89.5 -27.5t23.5 -88.5v-111q0 -61 -23.5 -89t-89.5 -28h-295v-176h477q66 0 89.5 -27.5t23.5 -89.5v-114q0 -61 -23.5 -89t-89.5 -28h-845 q-68 0 -95.5 28.5t-27.5 88.5zM143 1559q0 27 31 65l188 240q29 39 48.5 49t76.5 10h254q57 0 77 -10t48 -49l189 -240q31 -39 30 -65q0 -23 -19 -34.5t-54 -11.5h-183q-57 0 -81.5 12.5t-47.5 45.5l-86 133l-86 -133q-23 -33 -47 -45.5t-82 -12.5h-182q-35 0 -54.5 11.5 t-19.5 34.5z" />
<glyph unicode="&#xcb;" horiz-adv-x="1185" d="M72 117v1159q0 59 27.5 88t95.5 29h847q66 0 89.5 -28t23.5 -89v-115q0 -61 -23.5 -89t-89.5 -28h-479v-176h295q66 0 89.5 -27.5t23.5 -88.5v-111q0 -61 -23.5 -89t-89.5 -28h-295v-176h477q66 0 89.5 -27.5t23.5 -89.5v-114q0 -61 -23.5 -89t-89.5 -28h-845 q-68 0 -95.5 28.5t-27.5 88.5zM211 1602v59q0 61 39 103t100 42h62q61 0 100 -42t39 -103v-59q0 -59 -39 -102.5t-100 -43.5h-62q-59 0 -99 43t-40 103zM668 1602v59q0 61 38.5 103t100.5 42h61q61 0 100.5 -42t39.5 -103v-59q0 -59 -39 -102.5t-101 -43.5h-61q-59 0 -99 43 t-40 103z" />
<glyph unicode="&#xcc;" horiz-adv-x="655" d="M-41 1858q0 29 24.5 44t67.5 15h293q63 0 85 -16.5t38 -63.5l86 -238q8 -25 8 -34q0 -57 -84 -58h-219q-70 0 -96.5 14.5t-55.5 63.5l-131 221q-16 27 -16 52zM82 117v1159q0 59 27.5 88t95.5 29h244q70 0 97 -28t27 -89v-1159q0 -59 -27.5 -88t-96.5 -29h-244 q-68 0 -95.5 28.5t-27.5 88.5z" />
<glyph unicode="&#xcd;" horiz-adv-x="655" d="M82 117v1159q0 59 27.5 88t95.5 29h244q70 0 97 -28t27 -89v-1159q0 -59 -27.5 -88t-96.5 -29h-244q-68 0 -95.5 28.5t-27.5 88.5zM129 1565q0 16 6 34l86 238q16 47 39 63.5t84 16.5h293q43 0 67.5 -15.5t24.5 -43.5q0 -25 -16 -52l-131 -221q-29 -49 -55.5 -63.5 t-96.5 -14.5h-219q-82 1 -82 58z" />
<glyph unicode="&#xce;" horiz-adv-x="655" d="M-145 1573q0 27 30 65l189 240q29 39 48 49t77 10h254q57 0 76.5 -10t48.5 -49l188 -240q31 -39 31 -65q0 -23 -19.5 -34t-54.5 -11h-182q-57 0 -82 12t-47 45l-86 133l-86 -133q-23 -33 -47.5 -45t-81.5 -12h-183q-34 0 -53.5 11t-19.5 34zM82 117v1159q0 59 27.5 88 t95.5 29h244q70 0 97 -28t27 -89v-1159q0 -59 -27.5 -88t-96.5 -29h-244q-68 0 -95.5 28.5t-27.5 88.5z" />
<glyph unicode="&#xcf;" horiz-adv-x="655" d="M-63 1679v60q0 61 38.5 103t100.5 42h61q61 0 100 -42t39 -103v-60q0 -59 -38.5 -102t-100.5 -43h-61q-60 0 -99.5 43t-39.5 102zM82 117v1159q0 59 27.5 88t95.5 29h244q70 0 97 -28t27 -89v-1159q0 -59 -27.5 -88t-96.5 -29h-244q-68 0 -95.5 28.5t-27.5 88.5z M393 1679v60q0 61 39 103t100 42h62q61 0 100 -42t39 -103v-60q0 -59 -39 -102t-100 -43h-62q-59 0 -99 43t-40 102z" />
<glyph unicode="&#xd0;" horiz-adv-x="1497" d="M-10 641v115q0 61 23.5 88.5t88.5 27.5h48v404q0 59 27.5 88t94.5 29h471q723 0 723 -697q0 -344 -185 -520t-538 -176h-471q-67 0 -94.5 28.5t-27.5 88.5v407h-48q-66 0 -89 28t-23 89zM641 348h121q115 0 165 76t50 272q0 197 -50 272.5t-165 75.5h-121v-172h131 q66 0 89.5 -27.5t23.5 -88.5v-115q0 -61 -23.5 -89t-89.5 -28h-131v-176z" />
<glyph unicode="&#xd1;" horiz-adv-x="1437" d="M72 117v1161q0 59 27.5 87t97.5 28h194q43 0 66.5 -11.5t46.5 -44.5l370 -551v490q0 59 28 88t95 29h244q70 0 97.5 -28t27.5 -89v-1161q0 -59 -27.5 -87t-97.5 -28h-194q-43 0 -67 11.5t-46 43.5l-371 551v-491q0 -59 -27.5 -87t-97.5 -28h-243q-68 0 -95.5 28.5 t-27.5 88.5zM221 1661q0 29 31 72q70 100 130 144t148 44q61 0 106.5 -16.5t100.5 -44.5q41 -20 64.5 -29.5t48.5 -9.5q33 0 54.5 14t53.5 53q20 27 52 27q39 0 125 -64q41 -29 58 -52t17 -48q0 -27 -30 -74q-68 -100 -128.5 -142t-150.5 -42q-43 0 -80 13.5t-90 41.5 q-51 25 -78.5 35t-58.5 10q-35 0 -60.5 -14t-56.5 -53q-20 -27 -51 -27q-39 0 -125 64q-43 33 -61.5 54t-18.5 44z" />
<glyph unicode="&#xd2;" horiz-adv-x="1544" d="M31 696q0 348 188.5 537.5t552.5 189.5q365 0 553 -189.5t188 -537.5t-188 -537.5t-553 -189.5q-364 0 -552.5 189.5t-188.5 537.5zM414 1858q0 29 24.5 44t67.5 15h293q63 0 84.5 -16.5t38.5 -63.5l86 -238q8 -25 8 -34q0 -57 -84 -58h-219q-70 0 -96.5 14.5t-55.5 63.5 l-131 221q-16 27 -16 52zM520 696q0 -193 59.5 -288t192.5 -95t192.5 95.5t59.5 287.5q0 195 -59.5 289t-192.5 94t-192.5 -94t-59.5 -289z" />
<glyph unicode="&#xd3;" horiz-adv-x="1544" d="M31 696q0 348 188.5 537.5t552.5 189.5q365 0 553 -189.5t188 -537.5t-188 -537.5t-553 -189.5q-364 0 -552.5 189.5t-188.5 537.5zM520 696q0 -193 59.5 -288t192.5 -95t192.5 95.5t59.5 287.5q0 195 -59.5 289t-192.5 94t-192.5 -94t-59.5 -289zM555 1565q0 16 6 34 l86 238q16 47 39 63.5t84 16.5h293q43 0 67.5 -15.5t24.5 -43.5q0 -25 -16 -52l-131 -221q-29 -49 -55.5 -63.5t-96.5 -14.5h-219q-82 1 -82 58z" />
<glyph unicode="&#xd4;" horiz-adv-x="1544" d="M31 696q0 348 188.5 537.5t552.5 189.5q365 0 553 -189.5t188 -537.5t-188 -537.5t-553 -189.5q-364 0 -552.5 189.5t-188.5 537.5zM311 1559q0 27 31 65l188 240q29 39 48.5 49t76.5 10h254q57 0 77 -10t48 -49l189 -240q31 -41 30 -65q0 -23 -19.5 -34.5t-53.5 -11.5 h-183q-57 0 -81.5 12.5t-47.5 45.5l-86 133l-86 -133q-23 -33 -47 -45.5t-82 -12.5h-182q-35 0 -54.5 11.5t-19.5 34.5zM520 696q0 -193 59.5 -288t192.5 -95t192.5 95.5t59.5 287.5q0 195 -59.5 289t-192.5 94t-192.5 -94t-59.5 -289z" />
<glyph unicode="&#xd5;" horiz-adv-x="1544" d="M31 696q0 348 188.5 537.5t552.5 189.5q365 0 553 -189.5t188 -537.5t-188 -537.5t-553 -189.5q-364 0 -552.5 189.5t-188.5 537.5zM279 1661q0 29 30 72q70 100 130.5 144t148.5 44q61 0 106 -16.5t101 -44.5q41 -20 64.5 -29.5t47.5 -9.5q33 0 54.5 14t54.5 53 q20 27 51 27q39 0 125 -64q41 -29 58.5 -52t17.5 -48q0 -27 -31 -74q-68 -100 -128 -142t-151 -42q-43 0 -79.5 13.5t-90.5 41.5q-51 25 -78.5 35t-58.5 10q-37 0 -60.5 -14t-55.5 -53q-20 -27 -52 -27q-39 0 -125 64q-43 33 -61 54t-18 44zM520 696q0 -193 59.5 -288 t192.5 -95t192.5 95.5t59.5 287.5q0 195 -59.5 289t-192.5 94t-192.5 -94t-59.5 -289z" />
<glyph unicode="&#xd6;" horiz-adv-x="1544" d="M31 696q0 348 188.5 537.5t552.5 189.5q365 0 553 -189.5t188 -537.5t-188 -537.5t-553 -189.5q-364 0 -552.5 189.5t-188.5 537.5zM375 1622v59q0 61 39 103.5t100 42.5h61q61 0 100.5 -42t39.5 -104v-59q0 -59 -39 -102t-101 -43h-61q-59 0 -99 43t-40 102zM520 696 q0 -193 59.5 -288t192.5 -95t192.5 95.5t59.5 287.5q0 195 -59.5 289t-192.5 94t-192.5 -94t-59.5 -289zM831 1622v59q0 61 39 103.5t101 42.5h61q61 0 100 -42t39 -104v-59q0 -59 -38.5 -102t-100.5 -43h-61q-60 0 -100 43t-40 102z" />
<glyph unicode="&#xd7;" horiz-adv-x="827" d="M31 815q0 35 47 82l65 66q47 47 82 47q37 0 82 -45l107 -107l106 107q45 45 82 45q35 0 82 -47l66 -66q47 -47 47 -82q0 -37 -45 -82l-107 -106l107 -107q43 -41 43 -78t-47 -84l-66 -65q-47 -47 -84 -47t-78 43l-106 106l-107 -106q-41 -43 -78 -43t-84 47l-65 65 q-47 47 -47 84t43 78l106 107l-106 106q-45 45 -45 82z" />
<glyph unicode="&#xd8;" horiz-adv-x="1544" d="M31 696q0 348 188.5 537.5t552.5 189.5q59 0 115 -6l26 66q12 27 31 41t49 14h254q45 0 45 -43q0 -18 -10 -45l-57 -137q143 -88 215.5 -245t72.5 -372q0 -348 -188 -537.5t-553 -189.5q-35 0 -96 4l-39 -94q-12 -27 -30.5 -41t-49.5 -14h-254q-45 0 -45 43q0 18 10 45 l66 158q-152 88 -227.5 246.5t-75.5 379.5zM520 696q0 -94 10 -147l218 528q-121 -8 -174.5 -102t-53.5 -279zM817 315q109 17 158 111t49 270q0 61 -6 111z" />
<glyph unicode="&#xd9;" horiz-adv-x="1466" d="M61 510v766q0 59 28 88t95 29h244q70 0 97.5 -28t27.5 -89v-772q0 -96 48 -143.5t132 -47.5t132 47.5t48 143.5v772q0 59 28 88t95 29h244q70 0 97.5 -28t27.5 -89v-766q0 -168 -84 -290t-235.5 -186.5t-352.5 -64.5t-352.5 64.5t-235.5 186.5t-84 290zM406 1858 q0 29 24.5 44t67.5 15h293q63 0 84.5 -16.5t37.5 -63.5l86 -238q8 -25 9 -34q0 -57 -84 -58h-219q-70 0 -96.5 14.5t-55.5 63.5l-131 221q-16 27 -16 52z" />
<glyph unicode="&#xda;" horiz-adv-x="1466" d="M123 510v766q0 59 27.5 88t95.5 29h243q70 0 97.5 -28t27.5 -89v-772q0 -96 48.5 -143.5t132.5 -47.5t132 47.5t48 143.5v772q0 59 27.5 88t95.5 29h243q70 0 97.5 -28t27.5 -89v-766q0 -168 -84 -290t-235.5 -186.5t-351.5 -64.5q-201 0 -352.5 64.5t-235.5 186.5 t-84 290zM586 1565q0 16 6 34l86 238q16 47 38.5 63.5t84.5 16.5h293q43 0 67.5 -15.5t24.5 -43.5q0 -25 -17 -52l-131 -221q-29 -49 -55.5 -63.5t-95.5 -14.5h-219q-82 1 -82 58z" />
<glyph unicode="&#xdb;" horiz-adv-x="1466" d="M123 510v766q0 59 27.5 88t95.5 29h243q70 0 97.5 -28t27.5 -89v-772q0 -96 48.5 -143.5t132.5 -47.5t132 47.5t48 143.5v772q0 59 27.5 88t95.5 29h243q70 0 97.5 -28t27.5 -89v-766q0 -168 -84 -290t-235.5 -186.5t-351.5 -64.5q-201 0 -352.5 64.5t-235.5 186.5 t-84 290zM330 1559q0 27 30 65l189 240q29 39 48 49t77 10h254q57 0 76.5 -10t48.5 -49l188 -240q31 -39 31 -65q0 -23 -19.5 -34.5t-54.5 -11.5h-182q-57 0 -82 12.5t-47 45.5l-86 133l-86 -133q-23 -33 -47.5 -45.5t-81.5 -12.5h-183q-34 0 -53.5 11.5t-19.5 34.5z" />
<glyph unicode="&#xdc;" horiz-adv-x="1466" d="M123 510v766q0 59 27.5 88t95.5 29h243q70 0 97.5 -28t27.5 -89v-772q0 -96 48.5 -143.5t132.5 -47.5t132 47.5t48 143.5v772q0 59 27.5 88t95.5 29h243q70 0 97.5 -28t27.5 -89v-766q0 -168 -84 -290t-235.5 -186.5t-351.5 -64.5q-201 0 -352.5 64.5t-235.5 186.5 t-84 290zM399 1665v59q0 61 39 103.5t101 42.5h61q61 0 100 -42t39 -104v-59q0 -59 -38.5 -102t-100.5 -43h-61q-60 0 -100 43t-40 102zM856 1665v59q0 61 39 103.5t100 42.5h62q61 0 100 -42t39 -104v-59q0 -59 -39 -102t-100 -43h-62q-59 0 -99 43t-40 102z" />
<glyph unicode="&#xdd;" horiz-adv-x="1536" d="M33 1348q0 45 47 45h385q31 0 47 -13.5t33 -42.5l223 -401l223 401q16 29 32.5 42.5t47.5 13.5h385q47 0 47 -45q0 -20 -12 -43l-477 -818v-370q0 -59 -28 -88t-97 -29h-244q-67 0 -95 28.5t-28 88.5v370l-477 818q-12 23 -12 43zM598 1565q0 16 6 34l86 238 q16 47 39 63.5t84 16.5h293q43 0 67.5 -15.5t24.5 -43.5q0 -25 -16 -52l-131 -221q-29 -49 -55.5 -63.5t-96.5 -14.5h-219q-82 1 -82 58z" />
<glyph unicode="&#xde;" horiz-adv-x="1302" d="M72 117v1159q0 59 27.5 88t95.5 29h243q70 0 97.5 -28t27.5 -89v-90h121q307 0 447.5 -122t140.5 -368t-140.5 -366.5t-445.5 -120.5h-123v-92q0 -59 -27.5 -88t-97.5 -29h-243q-68 0 -95.5 28.5t-27.5 88.5zM502 557h139q66 0 103.5 35t37.5 104q0 72 -37.5 107 t-103.5 35h-139v-281z" />
<glyph unicode="&#xdf;" horiz-adv-x="1357" d="M61 117v884q0 221 158 347.5t447 126.5q303 0 463.5 -120t160.5 -341q0 -115 -39 -194t-106 -107q84 -29 133 -117t49 -195q0 -207 -104.5 -319.5t-309.5 -112.5q-186 0 -311 84q-25 16 -24 39q0 20 18 53l96 166q12 20 29 21q8 0 24 -8q18 -10 41 -11q25 0 38.5 30 t13.5 87q0 61 -28 87t-91 26q-53 0 -79 17.5t-26 57.5v164q0 43 20.5 59.5t72.5 16.5q49 0 71.5 22.5t22.5 71.5q0 47 -28 71t-99 24q-57 0 -90 -32t-33 -79v-819q0 -59 -27.5 -88t-97.5 -29h-242q-68 0 -95.5 28.5t-27.5 88.5z" />
<glyph unicode="&#xe0;" horiz-adv-x="1269" d="M31 449q0 168 86 296.5t238.5 198.5t342.5 70q164 0 278 -32t222 -103v-811q0 -41 -15.5 -54.5t-62.5 -13.5h-258q-23 0 -35 6t-22 23l-33 51q-59 -55 -137 -83t-186 -28q-189 0 -303.5 126t-114.5 354zM358 1427q0 29 25 44.5t68 15.5h292q63 0 85 -16.5t38 -63.5 l86 -238q8 -25 9 -34q0 -57 -84 -58h-220q-69 0 -95.5 14.5t-55.5 63.5l-131 221q-16 27 -17 51zM520 449q0 -154 111 -154q51 0 84 28.5t33 79.5v279q-18 8 -50 8q-84 0 -131 -62.5t-47 -178.5z" />
<glyph unicode="&#xe1;" horiz-adv-x="1269" d="M31 449q0 168 86 296.5t238.5 198.5t342.5 70q164 0 278 -32t222 -103v-811q0 -41 -15.5 -54.5t-62.5 -13.5h-258q-23 0 -35 6t-22 23l-33 51q-59 -55 -137 -83t-186 -28q-189 0 -303.5 126t-114.5 354zM457 1135q0 16 6 34l86 238q16 47 38.5 63.5t84.5 16.5h293 q43 0 67.5 -15.5t24.5 -44.5q0 -25 -17 -51l-131 -221q-29 -49 -55.5 -63.5t-95.5 -14.5h-219q-82 1 -82 58zM520 449q0 -154 111 -154q51 0 84 28.5t33 79.5v279q-18 8 -50 8q-84 0 -131 -62.5t-47 -178.5z" />
<glyph unicode="&#xe2;" horiz-adv-x="1269" d="M31 449q0 168 86 296.5t238.5 198.5t342.5 70q164 0 278 -32t222 -103v-811q0 -41 -15.5 -54.5t-62.5 -13.5h-258q-23 0 -35 6t-22 23l-33 51q-59 -55 -137 -83t-186 -28q-189 0 -303.5 126t-114.5 354zM213 1128q0 27 31 66l188 240q29 39 48.5 49t76.5 10h254 q57 0 76.5 -10t48.5 -49l188 -240q31 -39 31 -66q0 -23 -19.5 -34t-54.5 -11h-182q-57 0 -81.5 12.5t-47.5 45.5l-86 133l-86 -133q-23 -33 -47.5 -45.5t-81.5 -12.5h-182q-35 0 -54.5 11.5t-19.5 33.5zM520 449q0 -154 111 -154q51 0 84 28.5t33 79.5v279q-18 8 -50 8 q-84 0 -131 -62.5t-47 -178.5z" />
<glyph unicode="&#xe3;" horiz-adv-x="1277" d="M31 449q0 168 86 296.5t238.5 198.5t342.5 70q164 0 278 -32t222 -103v-811q0 -41 -15.5 -54.5t-62.5 -13.5h-258q-23 0 -35 6t-22 23l-33 51q-59 -55 -137 -83t-186 -28q-189 0 -303.5 126t-114.5 354zM217 1272q0 29 31 71q70 100 130 144.5t148 44.5q61 0 106.5 -16.5 t100.5 -45.5q41 -20 64.5 -29t48.5 -9q33 0 54.5 14t53.5 53q20 27 52 27q39 0 124 -64q41 -29 58.5 -52.5t17.5 -47.5q0 -27 -30 -74q-68 -100 -128.5 -142t-150.5 -42q-43 0 -80 13t-90 42q-51 25 -78.5 35t-58.5 10q-37 0 -60.5 -14t-56.5 -53q-20 -27 -51 -27 q-39 0 -125 64q-43 33 -61.5 54t-18.5 44zM520 449q0 -154 111 -154q51 0 84 28.5t33 79.5v279q-18 8 -50 8q-84 0 -131 -62.5t-47 -178.5z" />
<glyph unicode="&#xe4;" horiz-adv-x="1269" d="M31 449q0 168 86 296.5t238.5 198.5t342.5 70q164 0 278 -32t222 -103v-811q0 -41 -15.5 -54.5t-62.5 -13.5h-258q-23 0 -35 6t-22 23l-33 51q-59 -55 -137 -83t-186 -28q-189 0 -303.5 126t-114.5 354zM299 1212v60q0 61 39 103t100 42h62q61 0 100 -42t39 -103v-60 q0 -59 -39 -102t-100 -43h-62q-59 0 -99 43t-40 102zM520 449q0 -154 111 -154q51 0 84 28.5t33 79.5v279q-18 8 -50 8q-84 0 -131 -62.5t-47 -178.5zM756 1212v60q0 61 39 103t100 42h61q61 0 100.5 -42t39.5 -103v-60q0 -59 -39 -102t-101 -43h-61q-59 0 -99 43t-40 102z " />
<glyph unicode="&#xe5;" horiz-adv-x="1269" d="M31 449q0 168 86 296.5t238.5 198.5t342.5 70q164 0 278 -32t222 -103v-811q0 -41 -15.5 -54.5t-62.5 -13.5h-258q-23 0 -35 6t-22 23l-33 51q-59 -55 -137 -83t-186 -28q-189 0 -303.5 126t-114.5 354zM434 1368q0 109 76 185.5t184 76.5q109 0 185.5 -76.5t76.5 -185.5 t-76.5 -184.5t-185.5 -75.5q-108 0 -184 76t-76 184zM520 449q0 -154 111 -154q51 0 84 28.5t33 79.5v279q-18 8 -50 8q-84 0 -131 -62.5t-47 -178.5zM631 1368q0 -27 18.5 -45t44.5 -18q27 0 45.5 18t18.5 45t-18.5 45.5t-45.5 18.5t-45 -18.5t-18 -45.5z" />
<glyph unicode="&#xe6;" horiz-adv-x="1886" d="M31 301q0 166 107.5 244t324.5 78h231v12q0 35 -49 59.5t-160 24.5q-59 0 -116.5 -12.5t-102.5 -32.5q-25 -12 -39 -12q-18 0 -34 28l-80 152q-12 23 -13 37q0 23 29 39q86 51 182.5 73.5t223.5 22.5q135 0 236 -37t161 -109q57 70 149.5 108t208.5 38q279 0 422 -134.5 t143 -365.5q0 -59 -24.5 -88t-75.5 -29h-584q0 -61 59.5 -97t164.5 -36q80 0 124 13.5t105 41.5q25 12 39 13q18 0 35 -29l80 -151q12 -20 12 -37q0 -23 -29 -39q-92 -57 -185 -82t-237 -25q-274 0 -407 174q-168 -174 -445 -174q-213 0 -334.5 83t-121.5 249zM436 328 q0 -63 107 -64q82 0 116.5 31t34.5 90v12h-159q-45 0 -72 -15t-27 -54zM1171 627h256q0 111 -129 110q-63 0 -95 -29.5t-32 -80.5z" />
<glyph unicode="&#xe7;" horiz-adv-x="1146" d="M31 492q0 158 73.5 275.5t213 182t331.5 64.5q143 0 243.5 -29t178.5 -82q25 -18 25 -41q0 -18 -19 -51l-98 -170q-16 -31 -41 -31q-18 0 -45 19q-49 33 -91 47t-106 14q-78 0 -127 -53t-49 -145q0 -94 50.5 -145.5t134.5 -51.5q55 0 102 16.5t100 46.5q31 18 47 19 q23 0 39 -31l109 -186q12 -20 12 -35q0 -25 -29 -41q-94 -57 -197.5 -86t-248.5 -29q-295 0 -451.5 134.5t-156.5 388.5zM309.5 -448.5q-4.5 6.5 1.5 20.5l49 129q6 14 19 14q6 0 18 -6q41 -20 84 -20q61 0 62 35q0 27 -22.5 37t-74.5 10h-36q-16 0 -21.5 9t0.5 23l55 138 q6 16 15.5 22t29.5 6h250q25 0 25 -16q0 -10 -4 -16l-47 -103q68 -14 98.5 -50t30.5 -101q0 -78 -73 -131.5t-216 -53.5q-59 0 -125 11.5t-96 25.5q-18 10 -22.5 16.5z" />
<glyph unicode="&#xe8;" horiz-adv-x="1212" d="M31 483q0 258 150.5 394.5t434.5 136.5q279 0 422.5 -134.5t143.5 -365.5q0 -59 -24.5 -88t-76.5 -29h-589q0 -61 59 -97t164 -36q80 0 129 13.5t106 41.5q25 12 39 13q18 0 35 -29l80 -151q12 -20 12 -37q0 -23 -29 -39q-174 -106 -448 -107q-176 0 -314.5 59.5 t-216 175t-77.5 279.5zM270 1427q0 29 24.5 44.5t67.5 15.5h293q63 0 85 -16.5t38 -63.5l86 -238q8 -25 8 -34q0 -57 -84 -58h-219q-69 0 -96 14.5t-55 63.5l-131 221q-16 27 -17 51zM492 627h256q0 111 -130 110q-63 0 -94.5 -29.5t-31.5 -80.5z" />
<glyph unicode="&#xe9;" horiz-adv-x="1212" d="M31 483q0 258 150.5 394.5t434.5 136.5q279 0 422.5 -134.5t143.5 -365.5q0 -59 -24.5 -88t-76.5 -29h-589q0 -61 59 -97t164 -36q80 0 129 13.5t106 41.5q25 12 39 13q18 0 35 -29l80 -151q12 -20 12 -37q0 -23 -29 -39q-174 -106 -448 -107q-176 0 -314.5 59.5 t-216 175t-77.5 279.5zM432 1135q0 16 6 34l86 238q16 47 39 63.5t84 16.5h293q43 0 67.5 -15.5t24.5 -44.5q0 -25 -16 -51l-131 -221q-29 -49 -55.5 -63.5t-96.5 -14.5h-219q-82 1 -82 58zM492 627h256q0 111 -130 110q-63 0 -94.5 -29.5t-31.5 -80.5z" />
<glyph unicode="&#xea;" horiz-adv-x="1212" d="M31 483q0 258 150.5 394.5t434.5 136.5q279 0 422.5 -134.5t143.5 -365.5q0 -59 -24.5 -88t-76.5 -29h-589q0 -61 59 -97t164 -36q80 0 129 13.5t106 41.5q25 12 39 13q18 0 35 -29l80 -151q12 -20 12 -37q0 -23 -29 -39q-174 -106 -448 -107q-176 0 -314.5 59.5 t-216 175t-77.5 279.5zM166 1128q0 27 31 66l188 240q29 39 48.5 49t76.5 10h254q57 0 76.5 -10t48.5 -49l188 -240q31 -39 31 -66q0 -23 -19.5 -34t-54.5 -11h-182q-57 0 -82 12.5t-47 45.5l-86 133l-86 -133q-23 -33 -47.5 -45.5t-81.5 -12.5h-182q-35 0 -54.5 11.5 t-19.5 33.5zM492 627h256q0 111 -130 110q-63 0 -94.5 -29.5t-31.5 -80.5z" />
<glyph unicode="&#xeb;" horiz-adv-x="1212" d="M31 483q0 258 150.5 394.5t434.5 136.5q279 0 422.5 -134.5t143.5 -365.5q0 -59 -24.5 -88t-76.5 -29h-589q0 -61 59 -97t164 -36q80 0 129 13.5t106 41.5q25 12 39 13q18 0 35 -29l80 -151q12 -20 12 -37q0 -23 -29 -39q-174 -106 -448 -107q-176 0 -314.5 59.5 t-216 175t-77.5 279.5zM223 1212v60q0 61 39 103t100 42h62q61 0 100 -42t39 -103v-60q0 -59 -39 -102t-100 -43h-62q-59 0 -99 43t-40 102zM492 627h256q0 111 -130 110q-63 0 -94.5 -29.5t-31.5 -80.5zM680 1212v60q0 61 39 103t100 42h62q61 0 100 -42t39 -103v-60 q0 -59 -39 -102t-100 -43h-62q-59 0 -99 43t-40 102z" />
<glyph unicode="&#xec;" horiz-adv-x="655" d="M-29 1427q0 29 24.5 44.5t67.5 15.5h293q63 0 85 -16.5t38 -63.5l86 -238q8 -25 8 -34q0 -57 -84 -58h-219q-69 0 -96 14.5t-55 63.5l-131 221q-16 27 -17 51zM82 117v749q0 59 27.5 88t95.5 29h244q70 0 97 -27.5t27 -89.5v-749q0 -59 -27.5 -88t-96.5 -29h-244 q-68 0 -95.5 28.5t-27.5 88.5z" />
<glyph unicode="&#xed;" horiz-adv-x="655" d="M82 117v749q0 59 27.5 88t95.5 29h244q70 0 97 -27.5t27 -89.5v-749q0 -59 -27.5 -88t-96.5 -29h-244q-68 0 -95.5 28.5t-27.5 88.5zM84 1135q0 16 6 34l86 238q16 47 39 63.5t84 16.5h293q43 0 67.5 -15.5t24.5 -44.5q0 -25 -16 -51l-131 -221q-29 -49 -55.5 -63.5 t-96.5 -14.5h-219q-82 1 -82 58z" />
<glyph unicode="&#xee;" horiz-adv-x="655" d="M-141 1149q0 27 30 65l189 240q29 39 48 49t77 10h254q57 0 76.5 -10t48.5 -49l188 -240q31 -39 31 -65q0 -23 -19.5 -34t-54.5 -11h-182q-57 0 -82 12t-47 45l-86 133l-86 -133q-23 -33 -47.5 -45t-81.5 -12h-183q-34 0 -53.5 11t-19.5 34zM82 117v749q0 59 27.5 88 t95.5 29h244q70 0 97 -27.5t27 -89.5v-749q0 -59 -27.5 -88t-96.5 -29h-244q-68 0 -95.5 28.5t-27.5 88.5z" />
<glyph unicode="&#xef;" horiz-adv-x="655" d="M-66 1229v59q0 61 39 103.5t101 42.5h61q61 0 100 -42t39 -104v-59q0 -59 -38.5 -102.5t-100.5 -43.5h-61q-60 0 -100 43t-40 103zM82 117v749q0 59 27.5 88t95.5 29h244q70 0 97 -27.5t27 -89.5v-749q0 -59 -27.5 -88t-96.5 -29h-244q-68 0 -95.5 28.5t-27.5 88.5z M391 1229v59q0 61 39 103.5t100 42.5h62q61 0 100 -42t39 -104v-59q0 -59 -39 -102.5t-100 -43.5h-62q-59 0 -99 43t-40 103z" />
<glyph unicode="&#xf0;" horiz-adv-x="1372" d="M31 408q0 168 75.5 295.5t212 198.5t312.5 71q186 0 311 -88q-12 100 -68 147l-4 -8q-8 -10 -14 -15t-16 -5h-191q-14 0 -17 8t3 18l41 60h-31q-57 0 -124.5 -15.5t-127.5 -38.5q-8 -2 -25.5 -9t-27.5 -7q-18 0 -31 29l-61 170q-8 29 -8 41q0 33 32 51q203 113 480 112 q68 0 153 -14l27 37q8 10 14 15t17 5h190q14 0 17.5 -8t-3.5 -18l-71 -101q115 -68 179 -190.5t64 -294.5q0 -104 -24 -227q-72 -336 -280 -497t-486 -161q-197 0 -310.5 48.5t-160.5 143.5t-47 247zM514 422q0 -109 107 -109q88 0 130 59.5t54 182.5q2 18 2 49 q0 53 -22.5 78t-79.5 25q-90 0 -140.5 -63.5t-50.5 -221.5z" />
<glyph unicode="&#xf1;" horiz-adv-x="1249" d="M72 117v798q0 41 15 54.5t63 13.5h258q27 0 40 -5t17 -24l12 -51q55 49 143.5 80t194.5 31q168 0 270.5 -94.5t102.5 -280.5v-522q0 -59 -27.5 -88t-95.5 -29h-244q-68 0 -96.5 28.5t-28.5 88.5v491q0 41 -14 60.5t-49 19.5q-39 0 -54.5 -19.5t-15.5 -60.5v-491 q0 -59 -27.5 -88t-95.5 -29h-243q-68 0 -96.5 28.5t-28.5 88.5zM115 1272q0 29 30 71q70 100 130.5 144.5t148.5 44.5q61 0 106 -16.5t101 -45.5q41 -20 64.5 -29t47.5 -9q33 0 54.5 14t54.5 53q20 27 51 27q39 0 125 -64q41 -29 58.5 -52.5t17.5 -47.5q0 -27 -31 -74 q-68 -100 -128 -142t-150 -42q-43 0 -80 13t-90 42q-51 25 -79 35t-59 10q-35 0 -60.5 -14t-55.5 -53q-20 -27 -52 -27q-39 0 -124 64q-43 33 -61.5 54t-18.5 44z" />
<glyph unicode="&#xf2;" horiz-adv-x="1284" d="M31 492q0 160 71.5 277.5t210 181t328.5 63.5q289 0 450.5 -140.5t161.5 -381.5q0 -158 -72.5 -276t-209.5 -182.5t-330 -64.5q-190 0 -328.5 64.5t-210 182.5t-71.5 276zM248 1427q0 29 24.5 44.5t67.5 15.5h293q63 0 84.5 -16.5t38.5 -63.5l86 -238q8 -25 8 -34 q0 -57 -84 -58h-219q-70 0 -96.5 14.5t-55.5 63.5l-131 221q-16 27 -16 51zM520 492q0 -178 121 -179q123 1 123 179q0 94 -32 135t-91 41t-90 -41t-31 -135z" />
<glyph unicode="&#xf3;" horiz-adv-x="1284" d="M31 492q0 160 71.5 277.5t210 181t328.5 63.5q289 0 450.5 -140.5t161.5 -381.5q0 -158 -72.5 -276t-209.5 -182.5t-330 -64.5q-190 0 -328.5 64.5t-210 182.5t-71.5 276zM389 1135q0 16 6 34l86 238q16 47 39 63.5t84 16.5h293q43 0 67.5 -15.5t24.5 -44.5 q0 -25 -16 -51l-131 -221q-29 -49 -55.5 -63.5t-96.5 -14.5h-219q-82 1 -82 58zM520 492q0 -178 121 -179q123 1 123 179q0 94 -32 135t-91 41t-90 -41t-31 -135z" />
<glyph unicode="&#xf4;" horiz-adv-x="1284" d="M31 492q0 160 71.5 277.5t210 181t328.5 63.5q289 0 450.5 -140.5t161.5 -381.5q0 -158 -72.5 -276t-209.5 -182.5t-330 -64.5q-190 0 -328.5 64.5t-210 182.5t-71.5 276zM168 1128q0 27 31 66l188 240q29 39 48.5 49t76.5 10h254q57 0 76.5 -10t48.5 -49l188 -240 q31 -41 31 -66q0 -23 -19.5 -34t-54.5 -11h-182q-57 0 -81.5 12.5t-47.5 45.5l-86 133l-86 -133q-23 -33 -47.5 -45.5t-81.5 -12.5h-182q-35 0 -54.5 11.5t-19.5 33.5zM520 492q0 -178 121 -179q123 1 123 179q0 94 -32 135t-91 41t-90 -41t-31 -135z" />
<glyph unicode="&#xf5;" horiz-adv-x="1284" d="M31 492q0 160 71.5 277.5t210 181t328.5 63.5q289 0 450.5 -140.5t161.5 -381.5q0 -158 -72.5 -276t-209.5 -182.5t-330 -64.5q-190 0 -328.5 64.5t-210 182.5t-71.5 276zM147 1251q0 29 31 72q70 100 130.5 144t148.5 44q61 0 106 -16t101 -45q41 -20 64.5 -29.5 t47.5 -9.5q33 0 54.5 14.5t54.5 53.5q20 27 51 26q39 0 125 -63q41 -29 58.5 -52.5t17.5 -48.5q0 -27 -31 -73q-68 -100 -128 -142.5t-151 -42.5q-43 0 -79.5 13.5t-90.5 42.5q-51 25 -78.5 35t-58.5 10q-37 0 -60.5 -14.5t-56.5 -53.5q-20 -27 -51 -26q-39 0 -125 63 q-43 33 -61.5 54.5t-18.5 43.5zM520 492q0 -178 121 -179q123 1 123 179q0 94 -32 135t-91 41t-90 -41t-31 -135z" />
<glyph unicode="&#xf6;" horiz-adv-x="1284" d="M31 492q0 160 71.5 277.5t210 181t328.5 63.5q289 0 450.5 -140.5t161.5 -381.5q0 -158 -72.5 -276t-209.5 -182.5t-330 -64.5q-190 0 -328.5 64.5t-210 182.5t-71.5 276zM244 1233v59q0 61 39 103.5t100 42.5h61q61 0 100.5 -42t39.5 -104v-59q0 -59 -39 -102.5 t-101 -43.5h-61q-59 0 -99 43.5t-40 102.5zM520 492q0 -178 121 -179q123 1 123 179q0 94 -32 135t-91 41t-90 -41t-31 -135zM700 1233v59q0 61 39 103.5t101 42.5h61q61 0 100 -42t39 -104v-59q0 -59 -38.5 -102.5t-100.5 -43.5h-61q-60 0 -100 43.5t-40 102.5z" />
<glyph unicode="&#xf7;" horiz-adv-x="956" d="M31 569v115q0 61 23.5 89t88.5 28h670q66 0 89.5 -28t23.5 -89v-115q0 -61 -23.5 -88.5t-89.5 -27.5h-670q-65 0 -88.5 27.5t-23.5 88.5zM319 209v51q0 55 34 91t87 36h54q53 0 86.5 -36t33.5 -91v-51q0 -53 -33.5 -90t-86.5 -37h-54q-53 0 -87 38t-34 89zM319 993v51 q0 55 34 91t87 36h54q53 0 86.5 -35.5t33.5 -91.5v-51q0 -53 -33.5 -90t-86.5 -37h-54q-53 0 -87 38t-34 89z" />
<glyph unicode="&#xf8;" horiz-adv-x="1284" d="M31 492q0 160 71.5 277.5t210 181t328.5 63.5h29l43 104q12 27 30.5 41.5t49.5 14.5h254q45 0 45 -44q0 -18 -11 -45l-65 -159q115 -66 176 -177.5t61 -256.5q0 -236 -154.5 -375.5t-432.5 -147.5l-37 -92q-12 -27 -30.5 -41t-49.5 -14h-254q-45 0 -45 43q0 18 10 45 l51 123q-137 63 -208.5 181t-71.5 278zM520 492q0 -178 121 -179q123 1 123 179q0 94 -32 135t-91 41t-90 -41t-31 -135z" />
<glyph unicode="&#xf9;" horiz-adv-x="1249" d="M61 352v514q0 59 28 88t95 29h244q70 0 97.5 -27.5t27.5 -89.5v-491q0 -41 15.5 -60.5t49.5 -19.5q39 0 53.5 19.5t14.5 60.5v491q0 59 27.5 88t95.5 29h244q70 0 97.5 -27.5t27.5 -89.5v-798q0 -41 -15.5 -54.5t-62.5 -13.5h-258q-27 0 -40.5 5t-17.5 24l-12 51 q-55 -49 -146 -80t-198 -31q-170 0 -268.5 95.5t-98.5 287.5zM313 1427q0 29 24.5 44.5t68.5 15.5h292q63 0 85 -16.5t38 -63.5l86 -238q8 -25 8 -34q0 -57 -84 -58h-219q-69 0 -96 14.5t-55 63.5l-131 221q-16 27 -17 51z" />
<glyph unicode="&#xfa;" horiz-adv-x="1249" d="M61 352v514q0 59 28 88t95 29h244q70 0 97.5 -27.5t27.5 -89.5v-491q0 -41 15.5 -60.5t49.5 -19.5q39 0 53.5 19.5t14.5 60.5v491q0 59 27.5 88t95.5 29h244q70 0 97.5 -27.5t27.5 -89.5v-798q0 -41 -15.5 -54.5t-62.5 -13.5h-258q-27 0 -40.5 5t-17.5 24l-12 51 q-55 -49 -146 -80t-198 -31q-170 0 -268.5 95.5t-98.5 287.5zM391 1135q0 16 6 34l86 238q16 47 39 63.5t84 16.5h293q43 0 67.5 -15.5t24.5 -44.5q0 -25 -16 -51l-131 -221q-29 -49 -55.5 -63.5t-96.5 -14.5h-219q-82 1 -82 58z" />
<glyph unicode="&#xfb;" horiz-adv-x="1249" d="M61 352v514q0 59 28 88t95 29h244q70 0 97.5 -27.5t27.5 -89.5v-491q0 -41 15.5 -60.5t49.5 -19.5q39 0 53.5 19.5t14.5 60.5v491q0 59 27.5 88t95.5 29h244q70 0 97.5 -27.5t27.5 -89.5v-798q0 -41 -15.5 -54.5t-62.5 -13.5h-258q-27 0 -40.5 5t-17.5 24l-12 51 q-55 -49 -146 -80t-198 -31q-170 0 -268.5 95.5t-98.5 287.5zM147 1128q0 27 31 66l189 240q29 39 48 49t77 10h253q57 0 77 -10t48 -49l189 -240q31 -41 31 -66q0 -23 -19.5 -34t-54.5 -11h-182q-57 0 -82 12.5t-47 45.5l-87 133l-86 -133q-23 -33 -47 -45.5t-82 -12.5 h-182q-35 0 -54.5 11.5t-19.5 33.5z" />
<glyph unicode="&#xfc;" horiz-adv-x="1249" d="M61 352v514q0 59 28 88t95 29h244q70 0 97.5 -27.5t27.5 -89.5v-491q0 -41 15.5 -60.5t49.5 -19.5q39 0 53.5 19.5t14.5 60.5v491q0 59 27.5 88t95.5 29h244q70 0 97.5 -27.5t27.5 -89.5v-798q0 -41 -15.5 -54.5t-62.5 -13.5h-258q-27 0 -40.5 5t-17.5 24l-12 51 q-55 -49 -146 -80t-198 -31q-170 0 -268.5 95.5t-98.5 287.5zM215 1233v59q0 61 39 103.5t100 42.5h62q61 0 100 -42t39 -104v-59q0 -59 -39 -102.5t-100 -43.5h-62q-59 0 -99 43.5t-40 102.5zM672 1233v59q0 61 39 103.5t100 42.5h61q61 0 100.5 -42t39.5 -104v-59 q0 -59 -39 -102.5t-101 -43.5h-61q-59 0 -99 43.5t-40 102.5z" />
<glyph unicode="&#xfd;" horiz-adv-x="1265" d="M31 940q0 43 47 43h364q59 0 80 -55l127 -381l127 381q20 55 80 55h365q45 0 45 -43q0 -18 -11 -45l-378 -803q-68 -145 -133.5 -233t-152.5 -133t-208 -45q-190 -1 -315 108q-25 18 -25 41q0 20 14 43l97 168q18 31 39 31q16 0 45 -17q31 -18 54 -26.5t56 -8.5 q68 0 84 56l-389 819q-12 25 -12 45zM428 1176q0 16 6 34l86 238q16 47 39 63.5t84 16.5h293q43 0 67.5 -15.5t24.5 -44.5q0 -25 -16 -51l-131 -221q-29 -49 -55.5 -63.5t-96.5 -14.5h-219q-82 1 -82 58z" />
<glyph unicode="&#xfe;" horiz-adv-x="1282" d="M72 -297v1604q0 59 27.5 87.5t95.5 28.5h233q70 0 97.5 -27.5t27.5 -88.5v-308q18 6 53 10.5t66 4.5q272 0 425.5 -134.5t153.5 -390.5q0 -236 -131 -378t-377 -142q-49 0 -103 10.5t-87 24.5v-301q0 -61 -27.5 -89t-97.5 -28h-233q-68 0 -95.5 29t-27.5 88zM545 393 q0 -53 21.5 -76.5t72.5 -23.5q61 0 92 55t31 141q0 111 -40 155t-118 44q-37 0 -59 -8v-287z" />
<glyph unicode="&#xff;" horiz-adv-x="1224" d="M-10 940q0 43 47 43h364q59 0 80 -55l127 -381l127 381q20 55 80 55h365q45 0 45 -43q0 -18 -11 -45l-378 -803q-68 -145 -133.5 -233t-152.5 -133t-208 -45q-190 -1 -315 108q-25 18 -25 41q0 20 14 43l97 168q18 31 39 31q16 0 45 -17q31 -18 54 -26.5t56 -8.5 q68 0 84 56l-389 819q-12 25 -12 45zM219 1229v59q0 61 39 103.5t100 42.5h62q61 0 100 -42t39 -104v-59q0 -59 -39 -102.5t-100 -43.5h-62q-59 0 -99 43t-40 103zM676 1229v59q0 61 39 103.5t100 42.5h62q61 0 100 -42t39 -104v-59q0 -59 -39 -102.5t-100 -43.5h-62 q-59 0 -99 43t-40 103z" />
<glyph unicode="&#x100;" horiz-adv-x="1540" d="M31 43q0 18 10 45l510 1227q18 43 41.5 60.5t66.5 17.5h224q43 0 66.5 -17.5t41.5 -60.5l508 -1227q10 -27 10 -45q0 -43 -45 -43h-385q-63 0 -80 55l-49 152h-362l-47 -152q-16 -55 -80 -55h-385q-45 0 -45 43zM385 1636v115q0 61 23.5 89t89.5 28h546q66 0 89.5 -28 t23.5 -89v-115q0 -61 -23.5 -88.5t-89.5 -27.5h-546q-66 0 -89.5 27.5t-23.5 88.5zM690 530h160l-80 254z" />
<glyph unicode="&#x101;" horiz-adv-x="1269" d="M31 449q0 168 86 296.5t238.5 198.5t342.5 70q164 0 278 -32t222 -103v-811q0 -41 -15.5 -54.5t-62.5 -13.5h-258q-23 0 -35 6t-22 23l-33 51q-59 -55 -137 -83t-186 -28q-189 0 -303.5 126t-114.5 354zM305 1206v115q0 61 23.5 89t89.5 28h547q66 0 89 -28t23 -89v-115 q0 -61 -23.5 -88.5t-88.5 -27.5h-547q-66 0 -89.5 27.5t-23.5 88.5zM520 449q0 -154 111 -154q51 0 84 28.5t33 79.5v279q-18 8 -50 8q-84 0 -131 -62.5t-47 -178.5z" />
<glyph unicode="&#x102;" horiz-adv-x="1540" d="M31 43q0 18 10 45l510 1227q18 43 41.5 60.5t66.5 17.5h224q43 0 66.5 -17.5t41.5 -60.5l508 -1227q10 -27 10 -45q0 -43 -45 -43h-385q-63 0 -80 55l-49 152h-362l-47 -152q-16 -55 -80 -55h-385q-45 0 -45 43zM358 1876q0 16 9.5 26.5t23.5 10.5h264q20 0 27.5 -9.5 t7.5 -29.5q0 -37 21.5 -55.5t58.5 -18.5t58.5 18.5t21.5 55.5q0 20 7 29.5t28 9.5h264q14 0 23.5 -10.5t9.5 -26.5q0 -160 -106.5 -261.5t-305.5 -101.5q-201 0 -306.5 100.5t-105.5 262.5zM690 530h160l-80 254z" />
<glyph unicode="&#x103;" horiz-adv-x="1269" d="M31 449q0 168 86 296.5t238.5 198.5t342.5 70q164 0 278 -32t222 -103v-811q0 -41 -15.5 -54.5t-62.5 -13.5h-258q-23 0 -35 6t-22 23l-33 51q-59 -55 -137 -83t-186 -28q-189 0 -303.5 126t-114.5 354zM285 1466q0 16 9 26.5t23 10.5h265q20 0 27 -9t7 -30 q0 -37 21.5 -55t58.5 -18t58.5 18t21.5 55q0 20 7.5 29.5t27.5 9.5h264q14 0 23.5 -10t9.5 -27q0 -160 -106.5 -261t-305.5 -101q-200 0 -305.5 100.5t-105.5 261.5zM520 449q0 -154 111 -154q51 0 84 28.5t33 79.5v279q-18 8 -50 8q-84 0 -131 -62.5t-47 -178.5z" />
<glyph unicode="&#x104;" horiz-adv-x="1540" d="M31 43q0 18 10 45l510 1227q18 43 41.5 60.5t66.5 17.5h224q43 0 66.5 -17.5t41.5 -60.5l508 -1227q10 -27 10 -45q0 -43 -45 -43h-131q8 -10 -4 -23q-10 -12 -20.5 -23t-18.5 -24q-55 -66 -72.5 -94.5t-17.5 -62.5q0 -27 13.5 -41.5t35.5 -14.5q29 0 45 9q12 4 15 4 q8 0 14 -15l49 -104q4 -8 4 -12q0 -12 -24 -23q-82 -37 -236 -37q-113 0 -167 54.5t-54 138.5q0 57 29.5 116.5t95.5 135.5q8 10 24 22q-33 10 -45 49l-49 152h-362l-47 -152q-16 -55 -80 -55h-385q-45 0 -45 43zM690 530h160l-80 254z" />
<glyph unicode="&#x105;" horiz-adv-x="1269" d="M31 449q0 168 86 296.5t238.5 198.5t342.5 70q164 0 278 -32t222 -103v-811q0 -41 -14.5 -54.5t-57.5 -13.5q8 -10 -4 -23q-10 -12 -20 -23t-19 -24q-55 -66 -72.5 -94.5t-17.5 -62.5q0 -27 13.5 -41.5t35.5 -14.5q29 0 45 9q12 4 15 4q8 0 14 -15l49 -104q4 -8 4 -12 q0 -12 -24 -23q-82 -37 -236 -37q-113 0 -167 54.5t-54 138.5q0 57 30 116.5t95 135.5q20 20 21 20q-18 8 -29 25l-33 51q-59 -55 -137 -83t-186 -28q-188 0 -303 126t-115 354zM520 449q0 -154 111 -154q51 0 84 28.5t33 79.5v279q-18 8 -50 8q-84 0 -131 -62.5t-47 -178.5 z" />
<glyph unicode="&#x106;" horiz-adv-x="1394" d="M31 696q0 362 199.5 544.5t570.5 182.5q168 0 299 -32.5t219 -92.5q25 -18 24 -41q0 -18 -18 -51l-102 -176q-16 -29 -39 -29q-14 0 -47 17q-57 29 -120 45t-147 16q-170 0 -260 -98t-90 -285q0 -184 98.5 -283.5t268.5 -99.5q147 0 270 62q33 16 47 16q23 0 39 -29 l103 -176q18 -33 18 -51q0 -23 -25 -41q-88 -59 -221 -92t-301 -33q-373 0 -579.5 183.5t-206.5 543.5zM551 1565q0 16 6 34l86 238q16 47 39 63.5t84 16.5h293q43 0 67.5 -15.5t24.5 -43.5q0 -25 -16 -52l-131 -221q-29 -49 -55.5 -63.5t-96.5 -14.5h-219q-82 1 -82 58z " />
<glyph unicode="&#x107;" horiz-adv-x="1146" d="M31 492q0 158 73.5 275.5t213 182t331.5 64.5q143 0 243.5 -29t178.5 -82q25 -18 25 -41q0 -18 -19 -51l-98 -170q-16 -31 -41 -31q-18 0 -45 19q-49 33 -91 47t-106 14q-78 0 -127 -53t-49 -145q0 -94 50.5 -145.5t134.5 -51.5q55 0 102 16.5t100 46.5q31 18 47 19 q23 0 39 -31l109 -186q12 -20 12 -35q0 -25 -29 -41q-94 -57 -197.5 -86t-248.5 -29q-295 0 -451.5 134.5t-156.5 388.5zM412 1135q0 16 6 34l86 238q16 47 38.5 63.5t84.5 16.5h293q43 0 67.5 -15.5t24.5 -44.5q0 -25 -17 -51l-131 -221q-29 -49 -55.5 -63.5t-95.5 -14.5 h-219q-82 1 -82 58z" />
<glyph unicode="&#x108;" horiz-adv-x="1394" d="M31 696q0 362 199.5 544.5t570.5 182.5q168 0 299 -32.5t219 -92.5q25 -18 24 -41q0 -18 -18 -51l-102 -176q-16 -29 -39 -29q-14 0 -47 17q-57 29 -120 45t-147 16q-170 0 -260 -98t-90 -285q0 -184 98.5 -283.5t268.5 -99.5q147 0 270 62q33 16 47 16q23 0 39 -29 l103 -176q18 -33 18 -51q0 -23 -25 -41q-88 -59 -221 -92t-301 -33q-373 0 -579.5 183.5t-206.5 543.5zM285 1534q0 27 30 65l189 240q29 39 48 49t77 10h254q57 0 76.5 -10t48.5 -49l188 -240q31 -39 31 -65q0 -23 -19.5 -34t-54.5 -11h-182q-57 0 -82 12t-47 45l-86 133 l-86 -133q-23 -33 -47.5 -45t-81.5 -12h-183q-34 0 -53.5 11t-19.5 34z" />
<glyph unicode="&#x109;" horiz-adv-x="1146" d="M31 492q0 158 73.5 275.5t213 182t331.5 64.5q143 0 243.5 -29t178.5 -82q25 -18 25 -41q0 -18 -19 -51l-98 -170q-16 -31 -41 -31q-18 0 -45 19q-49 33 -91 47t-106 14q-78 0 -127 -53t-49 -145q0 -94 50.5 -145.5t134.5 -51.5q55 0 102 16.5t100 46.5q31 18 47 19 q23 0 39 -31l109 -186q12 -20 12 -35q0 -25 -29 -41q-94 -57 -197.5 -86t-248.5 -29q-295 0 -451.5 134.5t-156.5 388.5zM145 1128q0 27 31 66l189 240q29 39 48 49t76 10h254q57 0 77 -10t48 -49l189 -240q31 -39 30 -66q0 -23 -19 -34t-54 -11h-183q-57 0 -81.5 12.5 t-47.5 45.5l-86 133l-86 -133q-23 -33 -47 -45.5t-82 -12.5h-182q-35 0 -54.5 11.5t-19.5 33.5z" />
<glyph unicode="&#x10a;" horiz-adv-x="1394" d="M31 696q0 362 199.5 544.5t570.5 182.5q168 0 299 -32.5t219 -92.5q25 -18 24 -41q0 -18 -18 -51l-102 -176q-16 -29 -39 -29q-14 0 -47 17q-57 29 -120 45t-147 16q-170 0 -260 -98t-90 -285q0 -184 98.5 -283.5t268.5 -99.5q147 0 270 62q33 16 47 16q23 0 39 -29 l103 -176q18 -33 18 -51q0 -23 -25 -41q-88 -59 -221 -92t-301 -33q-373 0 -579.5 183.5t-206.5 543.5zM569 1663v59q0 61 39 103.5t101 42.5h61q61 0 100 -42t39 -104v-59q0 -59 -39 -102t-100 -43h-61q-60 0 -100 43t-40 102z" />
<glyph unicode="&#x10b;" horiz-adv-x="1146" d="M31 492q0 158 73.5 275.5t213 182t331.5 64.5q143 0 243.5 -29t178.5 -82q25 -18 25 -41q0 -18 -19 -51l-98 -170q-16 -31 -41 -31q-18 0 -45 19q-49 33 -91 47t-106 14q-78 0 -127 -53t-49 -145q0 -94 50.5 -145.5t134.5 -51.5q55 0 102 16.5t100 46.5q31 18 47 19 q23 0 39 -31l109 -186q12 -20 12 -35q0 -25 -29 -41q-94 -57 -197.5 -86t-248.5 -29q-295 0 -451.5 134.5t-156.5 388.5zM446 1233v59q0 61 39 103.5t101 42.5h61q61 0 100 -42t39 -104v-59q0 -59 -38.5 -102.5t-100.5 -43.5h-61q-60 0 -100 43.5t-40 102.5z" />
<glyph unicode="&#x10c;" horiz-adv-x="1394" d="M31 696q0 362 199.5 544.5t570.5 182.5q168 0 299 -32.5t219 -92.5q25 -18 24 -41q0 -18 -18 -51l-102 -176q-16 -29 -39 -29q-14 0 -47 17q-57 29 -120 45t-147 16q-170 0 -260 -98t-90 -285q0 -184 98.5 -283.5t268.5 -99.5q147 0 270 62q33 16 47 16q23 0 39 -29 l103 -176q18 -33 18 -51q0 -23 -25 -41q-88 -59 -221 -92t-301 -33q-373 0 -579.5 183.5t-206.5 543.5zM336 1896q0 23 19.5 34.5t54.5 11.5h182q57 0 81.5 -12.5t47.5 -45.5l86 -133l86 133q23 33 47.5 45.5t81.5 12.5h182q35 0 54.5 -11.5t19.5 -34.5q0 -25 -31 -65 l-188 -240q-29 -39 -48.5 -49t-76.5 -10h-254q-57 0 -76.5 10t-48.5 49l-188 240q-31 41 -31 65z" />
<glyph unicode="&#x10d;" horiz-adv-x="1146" d="M31 492q0 158 73.5 275.5t213 182t331.5 64.5q143 0 243.5 -29t178.5 -82q25 -18 25 -41q0 -18 -19 -51l-98 -170q-16 -31 -41 -31q-18 0 -45 19q-49 33 -91 47t-106 14q-78 0 -127 -53t-49 -145q0 -94 50.5 -145.5t134.5 -51.5q55 0 102 16.5t100 46.5q31 18 47 19 q23 0 39 -31l109 -186q12 -20 12 -35q0 -25 -29 -41q-94 -57 -197.5 -86t-248.5 -29q-295 0 -451.5 134.5t-156.5 388.5zM137 1466q0 23 19.5 34t54.5 11h182q57 0 82 -12t47 -45l86 -133l86 133q23 33 47.5 45t81.5 12h183q35 0 54 -11t19 -34q0 -25 -30 -65l-189 -240 q-29 -39 -48 -49t-77 -10h-254q-57 0 -76.5 10t-48.5 49l-188 240q-31 41 -31 65z" />
<glyph unicode="&#x10e;" horiz-adv-x="1419" d="M72 117v1159q0 59 27.5 88t95.5 29h471q723 0 723 -697q0 -344 -185.5 -520t-537.5 -176h-471q-68 0 -95.5 28.5t-27.5 88.5zM186 1896q0 23 19.5 34.5t54.5 11.5h182q57 0 82 -12.5t47 -45.5l86 -133l86 133q23 33 47.5 45.5t81.5 12.5h183q35 0 54 -11.5t19 -34.5 q0 -25 -30 -65l-189 -240q-29 -39 -48 -49t-77 -10h-254q-57 0 -76.5 10t-47.5 49l-189 240q-31 41 -31 65zM563 348h121q115 0 165 76t50 272q0 197 -50 272.5t-165 75.5h-121v-696z" />
<glyph unicode="&#x10f;" horiz-adv-x="1689" d="M31 500q0 236 131 375t377 139q49 0 103 -10.5t87 -24.5v297q0 61 28.5 89t96.5 28h233q68 0 95.5 -29t27.5 -88v-1155q-94 -68 -238.5 -110t-312.5 -42q-313 0 -470.5 134.5t-157.5 396.5zM520 500q0 -111 40 -158t118 -47q36 0 59 8v287q0 53 -21.5 76.5t-72.5 23.5 q-61 0 -92 -52t-31 -138zM1262 1196q0 16 6 35l86 237q16 47 38.5 63.5t84.5 16.5h252q43 0 67.5 -15t24.5 -44q0 -25 -17 -51l-131 -221q-29 -49 -55.5 -63.5t-95.5 -14.5h-179q-81 0 -81 57z" />
<glyph unicode="&#x110;" horiz-adv-x="1476" d="M-31 641v115q0 61 23.5 88.5t89.5 27.5h47v404q0 59 27.5 88t95.5 29h471q723 0 723 -697q0 -344 -185.5 -520t-537.5 -176h-471q-68 0 -95.5 28.5t-27.5 88.5v407h-47q-66 0 -89.5 28t-23.5 89zM621 348h120q115 0 165 76t50 272q0 197 -50 272.5t-165 75.5h-120v-172 h131q66 0 89 -27.5t23 -88.5v-115q0 -61 -23.5 -89t-88.5 -28h-131v-176z" />
<glyph unicode="&#x111;" horiz-adv-x="1318" d="M31 500q0 236 131 375t377 139q49 0 103 -10.5t87 -24.5v74h-100q-49 0 -63.5 14t-14.5 61v117q0 47 15.5 61.5t62.5 14.5h104q10 37 39 54.5t82 17.5h233q100 0 117 -72h17q47 0 62 -14.5t15 -61.5v-117q0 -47 -14 -61t-63 -14h-11v-932q-94 -68 -238.5 -110t-312.5 -42 q-313 0 -470.5 134.5t-157.5 396.5zM520 500q0 -111 40 -158t118 -47q36 0 59 8v287q0 53 -21.5 76.5t-72.5 23.5q-61 0 -92 -52t-31 -138z" />
<glyph unicode="&#x112;" horiz-adv-x="1185" d="M72 117v1159q0 59 27.5 88t95.5 29h847q66 0 89.5 -28t23.5 -89v-115q0 -61 -23.5 -89t-89.5 -28h-479v-176h295q66 0 89.5 -27.5t23.5 -88.5v-111q0 -61 -23.5 -89t-89.5 -28h-295v-176h477q66 0 89.5 -27.5t23.5 -89.5v-114q0 -61 -23.5 -89t-89.5 -28h-845 q-68 0 -95.5 28.5t-27.5 88.5zM205 1636v115q0 61 23.5 89t88.5 28h547q66 0 89.5 -28t23.5 -89v-115q0 -61 -23.5 -88.5t-89.5 -27.5h-547q-65 0 -88.5 27.5t-23.5 88.5z" />
<glyph unicode="&#x113;" horiz-adv-x="1212" d="M31 483q0 258 150.5 394.5t434.5 136.5q279 0 422.5 -134.5t143.5 -365.5q0 -59 -24.5 -88t-76.5 -29h-589q0 -61 59 -97t164 -36q80 0 129 13.5t106 41.5q25 12 39 13q18 0 35 -29l80 -151q12 -20 12 -37q0 -23 -29 -39q-174 -106 -448 -107q-176 0 -314.5 59.5 t-216 175t-77.5 279.5zM236 1247v115q0 61 23.5 89t88.5 28h547q66 0 89.5 -28t23.5 -89v-115q0 -61 -23.5 -89t-89.5 -28h-547q-65 0 -88.5 28t-23.5 89zM492 627h256q0 111 -130 110q-63 0 -94.5 -29.5t-31.5 -80.5z" />
<glyph unicode="&#x114;" horiz-adv-x="1175" d="M72 117v1159q0 59 27.5 88t95.5 29h847q66 0 89.5 -28t23.5 -89v-115q0 -61 -23.5 -89t-89.5 -28h-479v-176h295q66 0 89.5 -27.5t23.5 -88.5v-111q0 -61 -23.5 -89t-89.5 -28h-295v-176h477q66 0 89.5 -27.5t23.5 -89.5v-114q0 -61 -23.5 -89t-89.5 -28h-845 q-68 0 -95.5 28.5t-27.5 88.5zM225 1876q0 16 9.5 26.5t23.5 10.5h264q20 0 27.5 -9.5t7.5 -29.5q0 -37 21.5 -55.5t58.5 -18.5t58.5 18.5t21.5 55.5q0 20 7 29.5t28 9.5h264q14 0 23.5 -10.5t9.5 -26.5q0 -160 -106.5 -261.5t-305.5 -101.5q-201 0 -306.5 100.5 t-105.5 262.5z" />
<glyph unicode="&#x115;" horiz-adv-x="1212" d="M31 483q0 258 150.5 394.5t434.5 136.5q279 0 422.5 -134.5t143.5 -365.5q0 -59 -24.5 -88t-76.5 -29h-589q0 -61 59 -97t164 -36q80 0 129 13.5t106 41.5q25 12 39 13q18 0 35 -29l80 -151q12 -20 12 -37q0 -23 -29 -39q-174 -106 -448 -107q-176 0 -314.5 59.5 t-216 175t-77.5 279.5zM223 1446q0 16 9.5 26.5t23.5 10.5h264q20 0 27.5 -9.5t7.5 -29.5q0 -37 21.5 -55.5t58.5 -18.5t58.5 18.5t21.5 55.5q0 20 7 29.5t28 9.5h264q14 0 23.5 -10.5t9.5 -26.5q0 -160 -106.5 -261.5t-305.5 -101.5q-201 0 -306.5 100.5t-105.5 262.5z M492 627h256q0 111 -130 110q-63 0 -94.5 -29.5t-31.5 -80.5z" />
<glyph unicode="&#x116;" horiz-adv-x="1185" d="M72 117v1159q0 59 27.5 88t95.5 29h847q66 0 89.5 -28t23.5 -89v-115q0 -61 -23.5 -89t-89.5 -28h-479v-176h295q66 0 89.5 -27.5t23.5 -88.5v-111q0 -61 -23.5 -89t-89.5 -28h-295v-176h477q66 0 89.5 -27.5t23.5 -89.5v-114q0 -61 -23.5 -89t-89.5 -28h-845 q-68 0 -95.5 28.5t-27.5 88.5zM457 1663v59q0 61 39 103.5t100 42.5h61q61 0 100.5 -42t39.5 -104v-59q0 -59 -39 -102t-101 -43h-61q-59 0 -99 43t-40 102z" />
<glyph unicode="&#x117;" horiz-adv-x="1212" d="M31 483q0 258 150.5 394.5t434.5 136.5q279 0 422.5 -134.5t143.5 -365.5q0 -59 -24.5 -88t-76.5 -29h-589q0 -61 59 -97t164 -36q80 0 129 13.5t106 41.5q25 12 39 13q18 0 35 -29l80 -151q12 -20 12 -37q0 -23 -29 -39q-174 -106 -448 -107q-176 0 -314.5 59.5 t-216 175t-77.5 279.5zM457 1233v59q0 61 39 103.5t100 42.5h61q61 0 100.5 -42t39.5 -104v-59q0 -59 -39 -102.5t-101 -43.5h-61q-59 0 -99 43.5t-40 102.5zM492 627h256q0 111 -130 110q-63 0 -94.5 -29.5t-31.5 -80.5z" />
<glyph unicode="&#x118;" horiz-adv-x="1185" d="M72 117v1159q0 59 27.5 88t95.5 29h847q66 0 89.5 -28t23.5 -89v-115q0 -61 -23.5 -89t-89.5 -28h-479v-176h295q66 0 89.5 -27.5t23.5 -88.5v-111q0 -61 -23.5 -89t-89.5 -28h-295v-176h477q66 0 89.5 -27.5t23.5 -89.5v-114q0 -61 -22.5 -89t-88.5 -28q8 -10 -4 -23 q-10 -12 -20 -23t-19 -24q-55 -66 -72.5 -94.5t-17.5 -62.5q0 -27 13.5 -41.5t35.5 -14.5q29 0 46 9q12 4 14 4q8 0 14 -15l49 -104q4 -8 4 -12q0 -12 -24 -23q-82 -37 -236 -37q-113 0 -167 54.5t-54 138.5q0 57 30 116.5t95 135.5l16 16h-550q-68 0 -95.5 28.5t-27.5 88.5 z" />
<glyph unicode="&#x119;" horiz-adv-x="1212" d="M31 483q0 258 150.5 394.5t434.5 136.5q279 0 422.5 -134.5t143.5 -365.5q0 -59 -24.5 -88t-76.5 -29h-589q0 -61 59 -97t164 -36q80 0 129 13.5t106 41.5q25 12 39 13q18 0 35 -29l80 -151q12 -20 12 -35q0 -16 -16 -31l-2 -4q-10 -12 -20.5 -23.5t-18.5 -23.5 q-55 -66 -72.5 -94.5t-17.5 -63.5q0 -27 13 -41t36 -14q29 0 45 8q12 4 14 4q8 0 15 -14l49 -105q4 -8 4 -12q0 -12 -25 -22q-82 -37 -235 -37q-113 0 -167 54t-54 138q0 63 38 135q-20 -2 -63 -2q-176 0 -314.5 59.5t-216 175t-77.5 279.5zM492 627h256q0 111 -130 110 q-63 0 -94.5 -29.5t-31.5 -80.5z" />
<glyph unicode="&#x11a;" horiz-adv-x="1175" d="M72 117v1159q0 59 27.5 88t95.5 29h847q66 0 89.5 -28t23.5 -89v-115q0 -61 -23.5 -89t-89.5 -28h-479v-176h295q66 0 89.5 -27.5t23.5 -88.5v-111q0 -61 -23.5 -89t-89.5 -28h-295v-176h477q66 0 89.5 -27.5t23.5 -89.5v-114q0 -61 -23.5 -89t-89.5 -28h-845 q-68 0 -95.5 28.5t-27.5 88.5zM152 1896q0 23 19 34.5t54 11.5h183q57 0 81.5 -12.5t47.5 -45.5l86 -133l86 133q23 33 47 45.5t82 12.5h182q35 0 54.5 -11.5t19.5 -34.5q0 -25 -31 -65l-189 -240q-29 -39 -48 -49t-76 -10h-254q-58 0 -77.5 10t-47.5 49l-189 240 q-31 41 -30 65z" />
<glyph unicode="&#x11b;" horiz-adv-x="1212" d="M31 483q0 258 150.5 394.5t434.5 136.5q279 0 422.5 -134.5t143.5 -365.5q0 -59 -24.5 -88t-76.5 -29h-589q0 -61 59 -97t164 -36q80 0 129 13.5t106 41.5q25 12 39 13q18 0 35 -29l80 -151q12 -20 12 -37q0 -23 -29 -39q-174 -106 -448 -107q-176 0 -314.5 59.5 t-216 175t-77.5 279.5zM150 1466q0 23 19 34t54 11h183q57 0 81.5 -12t47.5 -45l86 -133l86 133q23 33 47 45t82 12h182q35 0 54.5 -11t19.5 -34q0 -25 -31 -65l-189 -240q-29 -39 -48 -49t-76 -10h-254q-58 0 -77.5 10t-47.5 49l-189 240q-31 41 -30 65zM492 627h256 q0 111 -130 110q-63 0 -94.5 -29.5t-31.5 -80.5z" />
<glyph unicode="&#x11c;" horiz-adv-x="1449" d="M31 696q0 358 206.5 542.5t577.5 184.5q168 0 301 -32.5t221 -92.5q25 -18 25 -41q0 -18 -19 -51l-102 -176q-16 -29 -39 -29q-14 0 -47 17q-123 61 -270 61q-170 0 -267.5 -97t-97.5 -286q0 -195 82 -288t244 -93q29 0 64.5 5.5t58.5 11.5v186h-131q-66 0 -89.5 25.5 t-23.5 87.5v112q0 61 23.5 87t89.5 26h440q80 0 110.5 -36t30.5 -113v-480q0 -45 -11 -68.5t-44 -47.5q-197 -141 -547 -142q-373 0 -579.5 183.5t-206.5 543.5zM354 1509q0 27 31 66l188 240q29 39 48.5 49t76.5 10h254q57 0 77 -10.5t48 -48.5l189 -240q31 -39 30 -66 q0 -23 -19.5 -34t-53.5 -11h-183q-57 0 -81.5 12.5t-47.5 45.5l-86 133l-86 -133q-23 -33 -47 -45.5t-82 -12.5h-182q-35 0 -54.5 11.5t-19.5 33.5z" />
<glyph unicode="&#x11d;" horiz-adv-x="1282" d="M31 522q0 492 628 492q164 0 309.5 -46t241.5 -116v-639q0 -166 -70.5 -293t-204.5 -197.5t-317 -70.5q-126 0 -240 21.5t-194 66.5q-31 16 -30 37q0 10 12 33l102 172q18 33 39 32q6 0 31 -8q39 -14 109.5 -23.5t121.5 -9.5q160 0 160 111v6q-33 -14 -87 -24.5 t-103 -10.5q-252 0 -380 119t-128 348zM190 1128q0 27 31 66l189 240q29 39 48 49t77 10h253q57 0 77 -10t48 -49l189 -240q31 -39 31 -66q0 -23 -19.5 -34t-54.5 -11h-182q-57 0 -82 12.5t-47 45.5l-86 133l-87 -133q-23 -33 -47 -45.5t-82 -12.5h-182q-35 0 -54.5 11.5 t-19.5 33.5zM520 543q0 -82 29 -117t94 -35q51 0 72.5 23.5t21.5 77.5v188q-23 8 -59 8q-68 0 -94.5 -5t-45 -36t-18.5 -104z" />
<glyph unicode="&#x11e;" horiz-adv-x="1449" d="M31 696q0 358 206.5 542.5t577.5 184.5q168 0 301 -32.5t221 -92.5q25 -18 25 -41q0 -18 -19 -51l-102 -176q-16 -29 -39 -29q-14 0 -47 17q-123 61 -270 61q-170 0 -267.5 -97t-97.5 -286q0 -195 82 -288t244 -93q29 0 64.5 5.5t58.5 11.5v186h-131q-66 0 -89.5 25.5 t-23.5 87.5v112q0 61 23.5 87t89.5 26h440q80 0 110.5 -36t30.5 -113v-480q0 -45 -11 -68.5t-44 -47.5q-197 -141 -547 -142q-373 0 -579.5 183.5t-206.5 543.5zM391 1827q0 16 9.5 26.5t23.5 10.5h264q20 0 27.5 -9.5t7.5 -29.5q0 -37 21.5 -55.5t58.5 -18.5t58.5 18.5 t21.5 55.5q0 20 7 29.5t28 9.5h264q14 0 23 -10.5t9 -26.5q0 -160 -106.5 -261.5t-304.5 -101.5q-201 0 -306.5 100.5t-105.5 262.5z" />
<glyph unicode="&#x11f;" horiz-adv-x="1282" d="M31 522q0 492 628 492q164 0 309.5 -46t241.5 -116v-639q0 -166 -70.5 -293t-204.5 -197.5t-317 -70.5q-126 0 -240 21.5t-194 66.5q-31 16 -30 37q0 10 12 33l102 172q18 33 39 32q6 0 31 -8q39 -14 109.5 -23.5t121.5 -9.5q160 0 160 111v6q-33 -14 -87 -24.5 t-103 -10.5q-252 0 -380 119t-128 348zM246 1425q0 16 9 26.5t24 10.5h264q20 0 27.5 -9t7.5 -30q0 -37 21.5 -55t57.5 -18q37 0 58.5 18t21.5 55q0 20 7.5 29.5t27.5 9.5h264q14 0 23.5 -10t9.5 -27q0 -160 -106.5 -261t-305.5 -101q-200 0 -305.5 100.5t-105.5 261.5z M520 543q0 -82 29 -117t94 -35q51 0 72.5 23.5t21.5 77.5v188q-23 8 -59 8q-68 0 -94.5 -5t-45 -36t-18.5 -104z" />
<glyph unicode="&#x120;" horiz-adv-x="1449" d="M31 696q0 358 206.5 542.5t577.5 184.5q168 0 301 -32.5t221 -92.5q25 -18 25 -41q0 -18 -19 -51l-102 -176q-16 -29 -39 -29q-14 0 -47 17q-123 61 -270 61q-170 0 -267.5 -97t-97.5 -286q0 -195 82 -288t244 -93q29 0 64.5 5.5t58.5 11.5v186h-131q-66 0 -89.5 25.5 t-23.5 87.5v112q0 61 23.5 87t89.5 26h440q80 0 110.5 -36t30.5 -113v-480q0 -45 -11 -68.5t-44 -47.5q-197 -141 -547 -142q-373 0 -579.5 183.5t-206.5 543.5zM633 1663v59q0 61 39 103.5t100 42.5h62q61 0 100 -42t39 -104v-59q0 -59 -39 -102t-100 -43h-62q-59 0 -99 43 t-40 102z" />
<glyph unicode="&#x121;" horiz-adv-x="1282" d="M31 522q0 492 628 492q164 0 309.5 -46t241.5 -116v-639q0 -166 -70.5 -293t-204.5 -197.5t-317 -70.5q-126 0 -240 21.5t-194 66.5q-31 16 -30 37q0 10 12 33l102 172q18 33 39 32q6 0 31 -8q39 -14 109.5 -23.5t121.5 -9.5q160 0 160 111v6q-33 -14 -87 -24.5 t-103 -10.5q-252 0 -380 119t-128 348zM494 1243v60q0 61 38.5 103t100.5 42h61q61 0 100.5 -42t39.5 -103v-60q0 -59 -39 -102t-101 -43h-61q-60 0 -99.5 43t-39.5 102zM520 543q0 -82 29 -117t94 -35q51 0 72.5 23.5t21.5 77.5v188q-23 8 -59 8q-68 0 -94.5 -5t-45 -36 t-18.5 -104z" />
<glyph unicode="&#x122;" horiz-adv-x="1449" d="M31 696q0 358 206.5 542.5t577.5 184.5q168 0 301 -32.5t221 -92.5q25 -18 25 -41q0 -18 -19 -51l-102 -176q-16 -29 -39 -29q-14 0 -47 17q-123 61 -270 61q-170 0 -267.5 -97t-97.5 -286q0 -195 82 -288t244 -93q29 0 64.5 5.5t58.5 11.5v186h-131q-66 0 -89.5 25.5 t-23.5 87.5v112q0 61 23.5 87t89.5 26h440q80 0 110.5 -36t30.5 -113v-480q0 -45 -11 -68.5t-44 -47.5q-197 -141 -547 -142q-373 0 -579.5 183.5t-206.5 543.5zM588 -520q0 8 4 28l90 332q14 53 37.5 69.5t79.5 16.5h192q47 0 68.5 -12t21.5 -39q0 -25 -18 -68l-137 -321 q-12 -27 -32 -40t-56 -13h-189q-61 0 -61 47z" />
<glyph unicode="&#x123;" horiz-adv-x="1282" d="M31 522q0 492 628 492q164 0 309.5 -46t241.5 -116v-639q0 -166 -70.5 -293t-204.5 -197.5t-317 -70.5q-126 0 -240 21.5t-194 66.5q-31 16 -30 37q0 10 12 33l102 172q18 33 39 32q6 0 31 -8q39 -14 109.5 -23.5t121.5 -9.5q160 0 160 111v6q-33 -14 -87 -24.5 t-103 -10.5q-252 0 -380 119t-128 348zM477 1176q0 25 19 67l137 322q12 27 31.5 40t56.5 13h188q61 0 62 -47q0 -8 -4 -29l-90 -332q-14 -53 -38 -69.5t-79 -16.5h-193q-47 0 -68.5 12.5t-21.5 39.5zM520 543q0 -82 29 -117t94 -35q51 0 72.5 23.5t21.5 77.5v188 q-23 8 -59 8q-68 0 -94.5 -5t-45 -36t-18.5 -104z" />
<glyph unicode="&#x124;" horiz-adv-x="1490" d="M72 117v1159q0 59 27.5 88t95.5 29h243q70 0 97.5 -28t27.5 -89v-406h365v406q0 59 27.5 88t95.5 29h243q70 0 97.5 -28t27.5 -89v-1159q0 -59 -27.5 -88t-97.5 -29h-243q-68 0 -95.5 28.5t-27.5 88.5v405h-365v-405q0 -59 -27.5 -88t-97.5 -29h-243q-68 0 -95.5 28.5 t-27.5 88.5zM274 1559q0 27 31 65l189 240q29 39 48 49t76 10h254q57 0 77 -10t48 -49l189 -240q31 -39 31 -65q0 -23 -19.5 -34.5t-54.5 -11.5h-182q-57 0 -82 12.5t-48 45.5l-86 133l-86 -133q-23 -33 -47 -45.5t-82 -12.5h-182q-35 0 -54.5 11.5t-19.5 34.5z" />
<glyph unicode="&#x125;" horiz-adv-x="1249" d="M72 117v1208q0 41 15 54.5t63 13.5h247q47 0 62.5 -13.5t15.5 -54.5v-424q55 49 145.5 81t194.5 32q168 0 270.5 -94.5t102.5 -280.5v-522q0 -59 -27.5 -88t-95.5 -29h-244q-68 0 -96.5 28.5t-28.5 88.5v491q0 41 -14 60.5t-49 19.5q-39 0 -54.5 -19.5t-15.5 -60.5v-491 q0 -59 -27.5 -88t-95.5 -29h-243q-68 0 -96.5 28.5t-28.5 88.5zM78 1497q0 27 31 66l188 239q29 39 48.5 49.5t76.5 10.5h254q57 0 76.5 -10.5t48.5 -49.5l188 -239q31 -39 31 -66q0 -23 -19.5 -34t-54.5 -11h-182q-57 0 -82 12.5t-47 44.5l-86 133l-86 -133 q-23 -33 -47.5 -45t-81.5 -12h-182q-35 0 -54.5 11.5t-19.5 33.5z" />
<glyph unicode="&#x126;" horiz-adv-x="1527" d="M-10 1036v127q0 47 15 61.5t63 14.5h32v37q0 59 28 88t95 29h244q70 0 97.5 -28t27.5 -89v-37h364v37q0 59 28 88t95 29h244q70 0 97.5 -28t27.5 -89v-37h12q47 0 62.5 -14.5t15.5 -61.5v-127q0 -47 -14.5 -61t-63.5 -14h-12v-844q0 -59 -27.5 -88t-97.5 -29h-244 q-68 0 -95.5 28.5t-27.5 88.5v405h-364v-405q0 -59 -27.5 -88t-97.5 -29h-244q-68 0 -95.5 28.5t-27.5 88.5v844h-32q-49 0 -63.5 14t-14.5 61zM592 870h364v91h-364v-91z" />
<glyph unicode="&#x127;" horiz-adv-x="1386" d="M84 1116v94q0 59 21.5 78t91.5 19h12v18q0 41 15.5 54.5t62.5 13.5h248q47 0 62 -13.5t15 -54.5v-18h70q70 0 91.5 -18.5t21.5 -78.5v-94q0 -59 -21.5 -77.5t-91.5 -18.5h-70v-119q55 49 145.5 81t194.5 32q168 0 270.5 -94.5t102.5 -280.5v-522q0 -59 -27.5 -88 t-95.5 -29h-244q-68 0 -96 28.5t-28 88.5v491q0 41 -14.5 60.5t-49.5 19.5q-39 0 -54.5 -19.5t-15.5 -60.5v-491q0 -59 -27.5 -88t-94.5 -29h-244q-68 0 -96.5 28.5t-28.5 88.5v903h-12q-70 0 -91.5 18.5t-21.5 77.5z" />
<glyph unicode="&#x128;" horiz-adv-x="655" d="M-143 1634q0 29 30 72q70 100 130.5 144t148.5 44q61 0 106 -16t101 -45q41 -20 64.5 -29.5t47.5 -9.5q33 0 54.5 14.5t54.5 53.5q20 27 51 26q39 0 125 -63q41 -29 58.5 -52.5t17.5 -48.5q0 -27 -31 -73q-68 -100 -128 -142.5t-150 -42.5q-43 0 -80 13.5t-90 42.5 q-51 25 -79 35t-59 10q-35 0 -60.5 -14.5t-55.5 -53.5q-20 -27 -52 -26q-39 0 -124 63q-43 33 -61.5 54.5t-18.5 43.5zM82 117v1159q0 59 27.5 88t95.5 29h244q70 0 97 -28t27 -89v-1159q0 -59 -27.5 -88t-96.5 -29h-244q-68 0 -95.5 28.5t-27.5 88.5z" />
<glyph unicode="&#x129;" horiz-adv-x="655" d="M-168 1272q0 29 31 71q70 100 130 144.5t148 44.5q61 0 106.5 -16.5t100.5 -45.5q41 -20 64.5 -29t48.5 -9q33 0 54.5 14t53.5 53q20 27 52 27q39 0 124 -64q41 -29 58.5 -52.5t17.5 -47.5q0 -27 -30 -74q-68 -100 -128.5 -142t-150.5 -42q-43 0 -80 13t-90 42 q-51 25 -78.5 35t-58.5 10q-35 0 -59.5 -14t-57.5 -53q-20 -27 -51 -27q-39 0 -125 64q-43 33 -61.5 54t-18.5 44zM82 117v749q0 59 27.5 88t95.5 29h244q70 0 97 -27.5t27 -89.5v-749q0 -59 -27.5 -88t-96.5 -29h-244q-68 0 -95.5 28.5t-27.5 88.5z" />
<glyph unicode="&#x12a;" horiz-adv-x="675" d="M-47 1636v115q0 61 23.5 89t89.5 28h546q66 0 89.5 -28t23.5 -89v-115q0 -61 -23.5 -88.5t-89.5 -27.5h-546q-66 0 -89.5 27.5t-23.5 88.5zM92 117v1159q0 59 27.5 88t95.5 29h244q70 0 97.5 -28t27.5 -89v-1159q0 -59 -28 -88t-97 -29h-244q-68 0 -95.5 28.5t-27.5 88.5 z" />
<glyph unicode="&#x12b;" horiz-adv-x="696" d="M-39 1247v115q0 61 23.5 89t89.5 28h547q66 0 89 -28t23 -89v-115q0 -61 -23.5 -89t-88.5 -28h-547q-66 0 -89.5 28t-23.5 89zM102 117v749q0 59 28 88t95 29h244q70 0 97.5 -27.5t27.5 -89.5v-749q0 -59 -27.5 -88t-97.5 -29h-244q-67 0 -95 28.5t-28 88.5z" />
<glyph unicode="&#x12c;" horiz-adv-x="655" d="M-88 1870q0 16 9 26.5t24 10.5h264q20 0 27.5 -9.5t7.5 -29.5q0 -37 21.5 -55.5t58.5 -18.5t58 18.5t21 55.5q0 20 7.5 29.5t27.5 9.5h264q14 0 23.5 -10.5t9.5 -26.5q0 -160 -106.5 -261.5t-304.5 -101.5q-201 0 -306.5 100.5t-105.5 262.5zM82 117v1159q0 59 27.5 88 t95.5 29h244q70 0 97 -28t27 -89v-1159q0 -59 -27.5 -88t-96.5 -29h-244q-68 0 -95.5 28.5t-27.5 88.5z" />
<glyph unicode="&#x12d;" horiz-adv-x="655" d="M-78 1487q0 16 9.5 26.5t23.5 10.5h264q20 0 27.5 -9.5t7.5 -29.5q0 -37 21.5 -55.5t58.5 -18.5t58.5 18.5t21.5 55.5q0 20 7 29.5t28 9.5h264q14 0 23 -10.5t9 -26.5q0 -160 -106.5 -261.5t-304.5 -101.5q-201 0 -306.5 100.5t-105.5 262.5zM82 117v749q0 59 27.5 88 t95.5 29h244q70 0 97 -27.5t27 -89.5v-749q0 -59 -27.5 -88t-96.5 -29h-244q-68 0 -95.5 28.5t-27.5 88.5z" />
<glyph unicode="&#x12e;" horiz-adv-x="655" d="M45 -268q0 53 35 125.5t94 144.5q-49 6 -70.5 33.5t-21.5 81.5v1159q0 59 27.5 88t95.5 29h244q69 0 96.5 -28t27.5 -89v-1159q0 -51 -18 -78t-63 -35q-80 -98 -111 -145t-31 -86q0 -27 13.5 -41.5t35.5 -14.5q29 0 45 9q12 4 15 4q8 0 14 -15l49 -104q4 -8 4 -12 q0 -12 -24 -23q-82 -37 -236 -37q-113 0 -167 54.5t-54 138.5z" />
<glyph unicode="&#x12f;" horiz-adv-x="661" d="M43 -268q0 49 36 123.5t91 148.5q-43 8 -61.5 36t-18.5 77v749q0 59 27.5 88t95.5 29h244q69 0 97 -27.5t28 -89.5v-749q0 -53 -22.5 -82t-76.5 -33q-68 -82 -101.5 -137t-33.5 -92q0 -27 13.5 -41.5t35.5 -14.5q29 0 45 9q12 4 15 4q8 0 14 -15l49 -104q4 -8 4 -12 q0 -12 -24 -23q-82 -37 -236 -37q-113 0 -167 54.5t-54 138.5zM82 1198v51q0 59 42 101.5t122 42.5h178q80 0 123 -42t43 -102v-51q0 -59 -43 -101t-123 -42h-178q-80 0 -122 42t-42 101z" />
<glyph unicode="&#x130;" horiz-adv-x="634" d="M72 117v1159q0 59 27.5 88t95.5 29h243q70 0 97.5 -28t27.5 -89v-1159q0 -59 -27.5 -88t-97.5 -29h-243q-68 0 -95.5 28.5t-27.5 88.5zM160 1686v59q0 61 39 103t100 42h61q61 0 100.5 -42t39.5 -103v-59q0 -59 -39 -102.5t-101 -43.5h-61q-59 0 -99 43t-40 103z" />
<glyph unicode="&#x131;" horiz-adv-x="634" d="M72 117v749q0 59 27.5 88t95.5 29h243q70 0 97.5 -27.5t27.5 -89.5v-749q0 -59 -27.5 -88t-97.5 -29h-243q-68 0 -95.5 28.5t-27.5 88.5z" />
<glyph unicode="&#x132;" horiz-adv-x="1691" d="M72 117v1159q0 59 27.5 88t95.5 29h243q70 0 97.5 -28t27.5 -89v-1159q0 -59 -27.5 -88t-97.5 -29h-243q-68 0 -95.5 28.5t-27.5 88.5zM596 145q0 18 18 52l103 176q20 33 43 33q14 0 41 -19q98 -74 188 -74q139 0 139 133v830q0 59 28 88t95 29h244q70 0 97.5 -28 t27.5 -89v-834q0 -217 -135 -345t-389 -128q-291 0 -475 135q-25 18 -25 41z" />
<glyph unicode="&#x133;" horiz-adv-x="1316" d="M82 1198v51q0 59 42 101.5t122 42.5h178q80 0 123 -42t43 -102v-51q0 -59 -43 -101t-123 -42h-178q-80 0 -122 42t-42 101zM90 117v749q0 59 27.5 88t95.5 29h244q70 0 97.5 -27.5t27.5 -89.5v-749q0 -59 -28 -88t-97 -29h-244q-68 0 -95.5 28.5t-27.5 88.5zM205 -295 q0 18 18 51l103 176q20 33 43 33q14 0 41 -18q98 -74 188 -74q139 0 139 133v860q0 59 28 88t95 29h244q70 0 97.5 -27.5t27.5 -89.5v-864q0 -217 -135.5 -345t-388.5 -128q-292 0 -476 135q-25 18 -24 41zM727 1198v51q0 59 42 101.5t122 42.5h178q80 0 123 -42t43 -102 v-51q0 -59 -43 -101t-123 -42h-178q-80 0 -122 42t-42 101z" />
<glyph unicode="&#x134;" horiz-adv-x="1214" d="M-10 145q0 18 18 52l103 176q20 33 43 33q14 0 41 -19q98 -74 188 -74q139 0 139 133v830q0 59 28 88t95 29h244q70 0 97.5 -28t27.5 -89v-834q0 -217 -135.5 -345t-389.5 -128q-291 0 -475 135q-25 18 -24 41zM303 1559q0 27 31 65l188 240q29 39 48.5 49t76.5 10h254 q57 0 76.5 -10t48.5 -49l188 -240q31 -39 31 -65q0 -23 -19.5 -34.5t-54.5 -11.5h-182q-57 0 -81.5 12.5t-47.5 45.5l-86 133l-86 -133q-23 -33 -47.5 -45.5t-81.5 -12.5h-182q-35 0 -54.5 11.5t-19.5 34.5z" />
<glyph unicode="&#x135;" horiz-adv-x="921" d="M-305 -172q0 18 18 51l103 176q20 33 43 33q14 0 41 -18q98 -74 188 -74q139 0 139 133v737q0 59 28 88t95 29h244q70 0 97.5 -27.5t27.5 -89.5v-741q0 -217 -135 -345t-389 -128q-292 0 -476 135q-25 18 -24 41zM10 1169q0 27 31 66l188 240q29 39 48.5 49t76.5 10h254 q57 0 77 -10.5t48 -48.5l189 -240q31 -39 30 -66q0 -23 -19.5 -34t-53.5 -11h-183q-57 0 -81.5 12.5t-47.5 45.5l-86 133l-86 -133q-23 -33 -47 -45.5t-82 -12.5h-182q-35 0 -54.5 11.5t-19.5 33.5z" />
<glyph unicode="&#x136;" horiz-adv-x="1376" d="M72 117v1159q0 59 27.5 88t95.5 29h243q70 0 97.5 -28t27.5 -89v-336l258 422q10 18 26.5 24.5t49.5 6.5h379q25 0 37 -12.5t12 -32.5q0 -23 -14 -43l-391 -600l409 -617q14 -20 14 -43q0 -20 -12 -32.5t-37 -12.5h-379q-33 0 -48 6t-27 25l-277 436v-350 q0 -59 -27.5 -88t-97.5 -29h-243q-68 0 -95.5 28.5t-27.5 88.5zM438 -520q0 8 4 28l90 332q14 53 38 69.5t79 16.5h193q47 0 68.5 -12t21.5 -39q0 -25 -19 -68l-137 -321q-12 -27 -31.5 -40t-56.5 -13h-188q-62 0 -62 47z" />
<glyph unicode="&#x137;" horiz-adv-x="1257" d="M72 117v1159q0 59 27.5 88t95.5 29h243q70 0 97.5 -28t27.5 -89v-541l148 217q12 18 28.5 24.5t46.5 6.5h379q25 0 38.5 -13.5t13.5 -31.5q0 -20 -17 -43l-321 -395l329 -412q16 -23 17 -43q0 -18 -13.5 -31.5t-37.5 -13.5h-379q-33 0 -47.5 6t-28.5 25l-156 231v-145 q0 -59 -27.5 -88t-97.5 -29h-243q-68 0 -95.5 28.5t-27.5 88.5zM393 -520q0 8 4 28l90 332q14 53 38 69.5t79 16.5h193q47 0 68.5 -12t21.5 -39q0 -25 -19 -68l-137 -321q-12 -27 -31.5 -40t-56.5 -13h-188q-62 0 -62 47z" />
<glyph unicode="&#x138;" horiz-adv-x="1257" d="M72 117v749q0 59 27.5 88t95.5 29h243q70 0 97.5 -27.5t27.5 -89.5v-131l148 217q12 18 28.5 24.5t46.5 6.5h379q25 0 38.5 -13.5t13.5 -31.5q0 -20 -17 -43l-321 -395l329 -412q16 -23 17 -43q0 -18 -13.5 -31.5t-37.5 -13.5h-379q-33 0 -47.5 6t-28.5 25l-156 231v-145 q0 -59 -27.5 -88t-97.5 -29h-243q-68 0 -95.5 28.5t-27.5 88.5z" />
<glyph unicode="&#x139;" horiz-adv-x="1142" d="M72 117v1159q0 59 27.5 88t95.5 29h243q70 0 97.5 -28t27.5 -89v-928h477q66 0 89.5 -27.5t23.5 -89.5v-114q0 -61 -23.5 -89t-89.5 -28h-845q-68 0 -95.5 28.5t-27.5 88.5zM168 1516q0 16 6 34l86 238q16 47 39 63.5t84 16.5h293q43 0 67.5 -15.5t24.5 -44.5 q0 -25 -16 -51l-131 -221q-29 -49 -55.5 -63.5t-96.5 -14.5h-219q-82 1 -82 58z" />
<glyph unicode="&#x13a;" horiz-adv-x="634" d="M72 117v1159q0 59 27.5 88t95.5 29h243q70 0 97.5 -28t27.5 -89v-1159q0 -59 -27.5 -88t-97.5 -29h-243q-68 0 -95.5 28.5t-27.5 88.5zM98 1563q0 16 6 34l86 238q16 47 39 63.5t84 16.5h293q43 0 67.5 -15.5t24.5 -44.5q0 -25 -16 -51l-131 -221q-29 -49 -55.5 -63.5 t-96.5 -14.5h-219q-82 1 -82 58z" />
<glyph unicode="&#x13b;" horiz-adv-x="1142" d="M72 117v1159q0 59 27.5 88t95.5 29h243q70 0 97.5 -28t27.5 -89v-928h477q66 0 89.5 -27.5t23.5 -89.5v-114q0 -61 -23.5 -89t-89.5 -28h-845q-68 0 -95.5 28.5t-27.5 88.5zM356 -520q0 8 4 28l91 332q14 53 37.5 69.5t78.5 16.5h193q47 0 68.5 -12t21.5 -39 q0 -25 -19 -68l-137 -321q-12 -27 -31.5 -40t-56.5 -13h-188q-62 0 -62 47z" />
<glyph unicode="&#x13c;" horiz-adv-x="665" d="M8 -520q0 8 4 28l90 332q14 53 38 69.5t79 16.5h193q47 0 68.5 -12t21.5 -39q0 -25 -19 -68l-137 -321q-12 -27 -31.5 -40t-56.5 -13h-188q-62 0 -62 47zM84 117v1159q0 59 27.5 88t95.5 29h244q70 0 97 -28t27 -89v-1159q0 -59 -27.5 -88t-96.5 -29h-244 q-68 0 -95.5 28.5t-27.5 88.5z" />
<glyph unicode="&#x13d;" horiz-adv-x="1224" d="M72 117v1159q0 59 27.5 88t95.5 29h243q70 0 97.5 -28t27.5 -89v-928h477q66 0 89.5 -27.5t23.5 -89.5v-114q0 -61 -23.5 -89t-89.5 -28h-845q-68 0 -95.5 28.5t-27.5 88.5zM737 1042q0 8 4 29l90 332q14 53 38 69.5t79 16.5h193q47 0 68.5 -12.5t21.5 -38.5 q0 -25 -19 -68l-137 -321q-12 -27 -31.5 -40.5t-56.5 -13.5h-188q-62 0 -62 47z" />
<glyph unicode="&#x13e;" horiz-adv-x="1157" d="M72 117v1159q0 59 27.5 88t95.5 29h243q70 0 97.5 -28t27.5 -89v-1159q0 -59 -27.5 -88t-97.5 -29h-243q-68 0 -95.5 28.5t-27.5 88.5zM690 1137q0 8 4 28l90 332q14 53 38 69.5t79 16.5h193q47 0 68.5 -12t21.5 -39q0 -25 -19 -68l-137 -321q-12 -27 -31.5 -40 t-56.5 -13h-188q-62 0 -62 47z" />
<glyph unicode="&#x13f;" horiz-adv-x="1142" d="M72 117v1159q0 59 27.5 88t95.5 29h243q70 0 97.5 -28t27.5 -89v-928h477q66 0 89.5 -27.5t23.5 -89.5v-114q0 -61 -23.5 -89t-89.5 -28h-845q-68 0 -95.5 28.5t-27.5 88.5zM705 717v59q0 61 38.5 103.5t100.5 42.5h61q61 0 100 -42t39 -104v-59q0 -59 -38.5 -102.5 t-100.5 -43.5h-61q-60 0 -99.5 43t-39.5 103z" />
<glyph unicode="&#x140;" horiz-adv-x="946" d="M72 117v1159q0 59 27.5 88t95.5 29h243q70 0 97.5 -28t27.5 -89v-1159q0 -59 -27.5 -88t-97.5 -29h-243q-68 0 -95.5 28.5t-27.5 88.5zM637 655v60q0 61 39 103t100 42h62q61 0 100 -42t39 -103v-60q0 -59 -39 -102t-100 -43h-62q-59 0 -99 43t-40 102z" />
<glyph unicode="&#x141;" horiz-adv-x="1329" d="M-31 594q0 20 27 33l262 149v500q0 59 27.5 88t95.5 29h244q70 0 97.5 -28t27.5 -89v-221l36 20q16 10 27 10q16 0 35 -26l121 -199q8 -10 8 -22q0 -18 -29 -35l-198 -113v-342h477q65 0 88.5 -27.5t23.5 -89.5v-114q0 -61 -23.5 -89t-88.5 -28h-846q-68 0 -95.5 28.5 t-27.5 88.5v293l-98 -56q-20 -10 -29 -10q-18 0 -33 23l-118 198q-10 16 -11 29z" />
<glyph unicode="&#x142;" horiz-adv-x="874" d="M-31 594q0 20 27 33l188 106v543q0 59 28 88t95 29h244q70 0 97.5 -28t27.5 -89v-262l35 20q16 10 26 10q16 0 35 -26l125 -197q8 -10 8 -22q0 -18 -28 -35l-201 -115v-532q0 -59 -27.5 -88t-97.5 -29h-244q-68 0 -95.5 28.5t-27.5 88.5v252l-20 -13q-20 -10 -29 -10 q-18 0 -33 23l-122 196q-10 16 -11 29z" />
<glyph unicode="&#x143;" horiz-adv-x="1437" d="M72 117v1161q0 59 27.5 87t97.5 28h194q43 0 66.5 -11.5t46.5 -44.5l370 -551v490q0 59 28 88t95 29h244q70 0 97.5 -28t27.5 -89v-1161q0 -59 -27.5 -87t-97.5 -28h-194q-43 0 -67 11.5t-46 43.5l-371 551v-491q0 -59 -27.5 -87t-97.5 -28h-243q-68 0 -95.5 28.5 t-27.5 88.5zM479 1540q0 16 6 35l86 237q16 47 39 63.5t84 16.5h293q43 0 67.5 -15t24.5 -44q0 -25 -16 -51l-131 -221q-29 -49 -55.5 -63.5t-96.5 -14.5h-219q-82 0 -82 57z" />
<glyph unicode="&#x144;" horiz-adv-x="1249" d="M72 117v798q0 41 15 54.5t63 13.5h258q27 0 40 -5t17 -24l12 -51q55 49 143.5 80t194.5 31q168 0 270.5 -94.5t102.5 -280.5v-522q0 -59 -27.5 -88t-95.5 -29h-244q-68 0 -96.5 28.5t-28.5 88.5v491q0 41 -14 60.5t-49 19.5q-39 0 -54.5 -19.5t-15.5 -60.5v-491 q0 -59 -27.5 -88t-95.5 -29h-243q-68 0 -96.5 28.5t-28.5 88.5zM455 1176q0 16 6 34l86 238q16 47 38.5 63.5t84.5 16.5h293q43 0 67.5 -15.5t24.5 -44.5q0 -25 -17 -51l-131 -221q-29 -49 -55.5 -63.5t-95.5 -14.5h-219q-82 1 -82 58z" />
<glyph unicode="&#x145;" horiz-adv-x="1437" d="M72 117v1161q0 59 27.5 87t97.5 28h194q43 0 66.5 -11.5t46.5 -44.5l370 -551v490q0 59 28 88t95 29h244q70 0 97.5 -28t27.5 -89v-1161q0 -59 -27.5 -87t-97.5 -28h-194q-43 0 -67 11.5t-46 43.5l-371 551v-491q0 -59 -27.5 -87t-97.5 -28h-243q-68 0 -95.5 28.5 t-27.5 88.5zM467 -520q0 8 4 28l90 332q14 53 38 69.5t79 16.5h192q47 0 69 -12t22 -39q0 -25 -19 -68l-137 -321q-12 -27 -31.5 -40t-56.5 -13h-189q-61 0 -61 47z" />
<glyph unicode="&#x146;" horiz-adv-x="1249" d="M72 117v798q0 41 15 54.5t63 13.5h258q27 0 40 -5t17 -24l12 -51q55 49 143.5 80t194.5 31q168 0 270.5 -94.5t102.5 -280.5v-522q0 -59 -27.5 -88t-95.5 -29h-244q-68 0 -96.5 28.5t-28.5 88.5v491q0 41 -14 60.5t-49 19.5q-39 0 -54.5 -19.5t-15.5 -60.5v-491 q0 -59 -27.5 -88t-95.5 -29h-243q-68 0 -96.5 28.5t-28.5 88.5zM330 -543q0 8 4 29l90 332q14 53 37.5 69.5t79.5 16.5h192q47 0 68.5 -12.5t21.5 -38.5q0 -25 -18 -68l-137 -322q-12 -27 -32 -40t-56 -13h-189q-61 0 -61 47z" />
<glyph unicode="&#x147;" horiz-adv-x="1437" d="M72 117v1161q0 59 27.5 87t97.5 28h194q43 0 66.5 -11.5t46.5 -44.5l370 -551v490q0 59 28 88t95 29h244q70 0 97.5 -28t27.5 -89v-1161q0 -59 -27.5 -87t-97.5 -28h-194q-43 0 -67 11.5t-46 43.5l-371 551v-491q0 -59 -27.5 -87t-97.5 -28h-243q-68 0 -95.5 28.5 t-27.5 88.5zM248 1872q0 23 19.5 34t54.5 11h182q57 0 81.5 -12.5t47.5 -44.5l86 -134l86 134q23 33 47.5 45t81.5 12h182q35 0 54.5 -11.5t19.5 -33.5q0 -25 -31 -66l-188 -239q-29 -39 -48.5 -49.5t-76.5 -10.5h-254q-57 0 -76.5 10.5t-48.5 49.5l-188 239q-31 41 -31 66z " />
<glyph unicode="&#x148;" horiz-adv-x="1249" d="M72 117v798q0 41 15 54.5t63 13.5h258q27 0 40 -5t17 -24l12 -51q55 49 143.5 80t194.5 31q168 0 270.5 -94.5t102.5 -280.5v-522q0 -59 -27.5 -88t-95.5 -29h-244q-68 0 -96.5 28.5t-28.5 88.5v491q0 41 -14 60.5t-49 19.5q-39 0 -54.5 -19.5t-15.5 -60.5v-491 q0 -59 -27.5 -88t-95.5 -29h-243q-68 0 -96.5 28.5t-28.5 88.5zM201 1446q0 23 19.5 34t53.5 11h183q57 0 81.5 -12.5t47.5 -44.5l86 -134l86 134q23 33 47 45t82 12h182q35 0 54.5 -11.5t19.5 -33.5q0 -25 -31 -66l-188 -239q-29 -39 -48.5 -49.5t-76.5 -10.5h-254 q-58 0 -77 10.5t-48 49.5l-189 239q-31 41 -30 66z" />
<glyph unicode="&#x149;" horiz-adv-x="1472" d="M-33 1042q0 8 4 29l90 332q14 53 38 69.5t79 16.5h193q47 0 68.5 -12.5t21.5 -38.5q0 -25 -19 -68l-137 -321q-12 -27 -31.5 -40.5t-56.5 -13.5h-188q-62 0 -62 47zM295 117v798q0 41 15.5 54.5t62.5 13.5h258q27 0 40 -5t17 -24l12 -51q55 49 143.5 80t194.5 31 q168 0 270.5 -94.5t102.5 -280.5v-522q0 -59 -27.5 -88t-95.5 -29h-244q-68 0 -96 28.5t-28 88.5v491q0 41 -14.5 60.5t-49.5 19.5q-39 0 -54.5 -19.5t-15.5 -60.5v-491q0 -59 -27.5 -88t-94.5 -29h-244q-68 0 -96.5 28.5t-28.5 88.5z" />
<glyph unicode="&#x14a;" horiz-adv-x="1437" d="M72 117v1161q0 59 27.5 87t97.5 28h194q43 0 66.5 -11.5t46.5 -44.5l370 -551v490q0 59 28 88t95 29h244q70 0 97.5 -28t27.5 -89v-1161v-119q0 -217 -135 -345t-389 -128q-291 0 -475 135q-25 18 -25 41q0 18 18 51l103 176q20 33 43 33q14 0 41 -18q98 -74 188 -74 q139 0 139 133v143l-311 463v-491q0 -59 -27.5 -87t-97.5 -28h-243q-68 0 -95.5 28.5t-27.5 88.5z" />
<glyph unicode="&#x14b;" horiz-adv-x="1249" d="M72 117v798q0 41 15 54.5t63 13.5h258q27 0 40 -5t17 -24l12 -51q55 49 143.5 80t194.5 31q168 0 270.5 -94.5t102.5 -280.5v-702q0 -217 -135 -345.5t-389 -128.5q-292 1 -476 136q-25 18 -24 41q0 18 18 51l103 176q20 33 43 33q14 0 41 -19q98 -74 188 -74 q139 0 139 134v673q0 74 -63 74q-39 0 -54.5 -19.5t-15.5 -60.5v-491q0 -59 -27.5 -88t-95.5 -29h-243q-68 0 -96.5 28.5t-28.5 88.5z" />
<glyph unicode="&#x14c;" horiz-adv-x="1544" d="M31 696q0 348 188.5 537.5t552.5 189.5q365 0 553 -189.5t188 -537.5t-188 -537.5t-553 -189.5q-364 0 -552.5 189.5t-188.5 537.5zM395 1612v114q0 61 23.5 89t89.5 28h547q66 0 89 -27.5t23 -89.5v-114q0 -61 -23.5 -89t-88.5 -28h-547q-66 0 -89.5 27.5t-23.5 89.5z M520 696q0 -193 59.5 -288t192.5 -95t192.5 95.5t59.5 287.5q0 195 -59.5 289t-192.5 94t-192.5 -94t-59.5 -289z" />
<glyph unicode="&#x14d;" horiz-adv-x="1284" d="M31 492q0 160 71.5 277.5t210 181t328.5 63.5q289 0 450.5 -140.5t161.5 -381.5q0 -158 -72.5 -276t-209.5 -182.5t-330 -64.5q-190 0 -328.5 64.5t-210 182.5t-71.5 276zM254 1247v115q0 61 23.5 89t89.5 28h546q66 0 89.5 -28t23.5 -89v-115q0 -61 -23.5 -89t-89.5 -28 h-546q-66 0 -89.5 28t-23.5 89zM520 492q0 -178 121 -179q123 1 123 179q0 94 -32 135t-91 41t-90 -41t-31 -135z" />
<glyph unicode="&#x14e;" horiz-adv-x="1544" d="M31 696q0 348 188.5 537.5t552.5 189.5q365 0 553 -189.5t188 -537.5t-188 -537.5t-553 -189.5q-364 0 -552.5 189.5t-188.5 537.5zM365 1851q0 16 9 26.5t23 10.5h265q20 0 27 -9t7 -30q0 -37 21.5 -55t58.5 -18t58.5 18t21.5 55q0 20 7 29.5t28 9.5h264q14 0 23.5 -10 t9.5 -27q0 -160 -106.5 -261t-305.5 -101q-201 0 -306 100.5t-105 261.5zM520 696q0 -193 59.5 -288t192.5 -95t192.5 95.5t59.5 287.5q0 195 -59.5 289t-192.5 94t-192.5 -94t-59.5 -289z" />
<glyph unicode="&#x14f;" horiz-adv-x="1284" d="M31 492q0 160 71.5 277.5t210 181t328.5 63.5q289 0 450.5 -140.5t161.5 -381.5q0 -158 -72.5 -276t-209.5 -182.5t-330 -64.5q-190 0 -328.5 64.5t-210 182.5t-71.5 276zM238 1446q0 16 9 26.5t23 10.5h265q20 0 27 -9.5t7 -29.5q0 -37 21.5 -55.5t58.5 -18.5t58.5 18.5 t21.5 55.5q0 20 7 29.5t28 9.5h264q14 0 23.5 -10.5t9.5 -26.5q0 -160 -106.5 -261.5t-305.5 -101.5q-200 0 -305.5 100.5t-105.5 262.5zM520 492q0 -178 121 -179q123 1 123 179q0 94 -32 135t-91 41t-90 -41t-31 -135z" />
<glyph unicode="&#x150;" horiz-adv-x="1544" d="M31 696q0 348 188.5 537.5t552.5 189.5q365 0 553 -189.5t188 -537.5t-188 -537.5t-553 -189.5q-364 0 -552.5 189.5t-188.5 537.5zM311 1561q0 18 8 34l117 238q16 35 26.5 49t32 22.5t64.5 8.5h252q43 0 69.5 -15.5t26.5 -44.5q0 -23 -20 -51l-162 -221 q-27 -37 -41 -50t-38.5 -20.5t-72.5 -7.5h-178q-84 1 -84 58zM520 696q0 -193 59.5 -288t192.5 -95t192.5 95.5t59.5 287.5q0 195 -59.5 289t-192.5 94t-192.5 -94t-59.5 -289zM850 1561q0 18 8 34l117 238q16 35 26.5 49t32 22.5t64.5 8.5h252q43 0 69.5 -15.5t26.5 -44.5 q0 -23 -21 -51l-161 -221q-27 -37 -41.5 -50t-39 -20.5t-71.5 -7.5h-178q-84 1 -84 58z" />
<glyph unicode="&#x151;" horiz-adv-x="1284" d="M31 492q0 160 71.5 277.5t210 181t328.5 63.5q289 0 450.5 -140.5t161.5 -381.5q0 -158 -72.5 -276t-209.5 -182.5t-330 -64.5q-190 0 -328.5 64.5t-210 182.5t-71.5 276zM135 1135q0 18 8 34l117 238q16 35 26.5 49t32 22.5t64.5 8.5h252q43 0 69.5 -15.5t26.5 -44.5 q0 -23 -20 -51l-162 -221q-27 -37 -41 -50t-39 -20.5t-72 -7.5h-178q-84 1 -84 58zM520 492q0 -178 121 -179q123 1 123 179q0 94 -32 135t-91 41t-90 -41t-31 -135zM674 1135q0 18 8 34l117 238q16 35 26.5 49t32 22.5t64.5 8.5h252q43 0 69.5 -15.5t26.5 -44.5 q0 -23 -21 -51l-162 -221q-27 -37 -41 -50t-38.5 -20.5t-71.5 -7.5h-178q-84 1 -84 58z" />
<glyph unicode="&#x152;" horiz-adv-x="2271" d="M31 696q0 351 186 539t535 188q154 0 279.5 -47t207.5 -133v33q0 59 27.5 88t95.5 29h766q66 0 89.5 -28t23.5 -89v-115q0 -61 -24 -89t-89 -28h-479v-176h295q66 0 89 -27.5t23 -88.5v-111q0 -61 -23.5 -89t-88.5 -28h-295v-176h477q66 0 89 -27.5t23 -89.5v-114 q0 -61 -23.5 -89t-88.5 -28h-764q-68 0 -95.5 28.5t-27.5 88.5v33q-82 -86 -208 -133.5t-279 -47.5q-348 0 -534.5 188.5t-186.5 538.5zM520 696q0 -193 59.5 -288t192.5 -95t192.5 95.5t59.5 287.5q0 195 -59.5 289t-192.5 94t-192.5 -94t-59.5 -289z" />
<glyph unicode="&#x153;" horiz-adv-x="2170" d="M31 492q0 251 152.5 386.5t437.5 135.5q147 0 271 -45t191 -129q63 84 175 129t255 45q279 0 422.5 -134.5t143.5 -365.5q0 -59 -24.5 -88t-76.5 -29h-589q0 -61 59 -97t164 -36q80 0 129 13.5t106 41.5q25 12 39 13q18 0 35 -29l80 -151q12 -20 12 -37q0 -23 -28 -39 q-174 -106 -449 -107q-143 0 -259 46t-187 135q-70 -86 -195 -133.5t-274 -47.5q-285 0 -437.5 135.5t-152.5 387.5zM520 492q0 -179 121 -179q123 0 123 179q0 94 -32 135t-91 41t-90 -41t-31 -135zM1389 627h256q0 111 -129 110q-63 0 -95 -29.5t-32 -80.5z" />
<glyph unicode="&#x154;" horiz-adv-x="1302" d="M72 117v1159q0 59 27.5 88t95.5 29h489q307 0 447.5 -122t140.5 -368q0 -147 -50.5 -248.5t-154.5 -158.5l190 -408q8 -16 9 -37q0 -23 -15.5 -37t-40.5 -14h-346q-33 0 -52 9t-28 32l-151 381h-70v-305q0 -59 -27.5 -88t-97.5 -29h-243q-68 0 -95.5 28.5t-27.5 88.5z M461 1540q0 16 6 35l86 237q16 47 38.5 63.5t84.5 16.5h293q43 0 67.5 -15t24.5 -44q0 -25 -17 -51l-131 -221q-29 -49 -55.5 -63.5t-95.5 -14.5h-219q-82 0 -82 57zM502 764h139q66 0 103.5 35t37.5 104q0 72 -37.5 106.5t-103.5 34.5h-139v-280z" />
<glyph unicode="&#x155;" horiz-adv-x="991" d="M72 117v798q0 41 15 54.5t63 13.5h258q27 0 40 -5t17 -24l12 -51q125 111 287 111q80 0 127 -12.5t88 -43.5q23 -16 22 -34q0 -12 -6 -29l-80 -217q-12 -33 -32 -33q-12 0 -29 10q-33 18 -63.5 26.5t-79.5 8.5q-66 0 -107 -34.5t-41 -94.5v-444q0 -59 -27.5 -88 t-95.5 -29h-243q-68 0 -96.5 28.5t-28.5 88.5zM178 1176q0 16 6 34l86 238q16 47 39 63.5t84 16.5h293q43 0 67.5 -15.5t24.5 -44.5q0 -25 -16 -51l-131 -221q-29 -49 -55.5 -63.5t-96.5 -14.5h-219q-82 1 -82 58z" />
<glyph unicode="&#x156;" horiz-adv-x="1302" d="M72 117v1159q0 59 27.5 88t95.5 29h489q307 0 447.5 -122t140.5 -368q0 -147 -50.5 -248.5t-154.5 -158.5l190 -408q8 -16 9 -37q0 -23 -15.5 -37t-40.5 -14h-346q-33 0 -52 9t-28 32l-151 381h-70v-305q0 -59 -27.5 -88t-97.5 -29h-243q-68 0 -95.5 28.5t-27.5 88.5z M430 -520q0 8 4 28l90 332q14 53 38 69.5t79 16.5h193q47 0 68.5 -12t21.5 -39q0 -25 -19 -68l-137 -321q-12 -27 -31.5 -40t-56.5 -13h-188q-62 0 -62 47zM502 764h139q66 0 103.5 35t37.5 104q0 72 -37.5 106.5t-103.5 34.5h-139v-280z" />
<glyph unicode="&#x157;" horiz-adv-x="991" d="M72 117v798q0 41 15 54.5t63 13.5h258q27 0 40 -5t17 -24l12 -51q125 111 287 111q80 0 127 -12.5t88 -43.5q23 -16 22 -34q0 -12 -6 -29l-80 -217q-12 -33 -32 -33q-12 0 -29 10q-33 18 -63.5 26.5t-79.5 8.5q-66 0 -107 -34.5t-41 -94.5v-444q0 -59 -27.5 -88 t-95.5 -29h-243q-68 0 -96.5 28.5t-28.5 88.5zM121 -520q0 8 4 28l90 332q14 53 37.5 69.5t79.5 16.5h192q47 0 68.5 -12t21.5 -39q0 -25 -18 -68l-137 -321q-12 -27 -31.5 -40t-56.5 -13h-189q-61 0 -61 47z" />
<glyph unicode="&#x158;" horiz-adv-x="1302" d="M72 117v1159q0 59 27.5 88t95.5 29h489q307 0 447.5 -122t140.5 -368q0 -147 -50.5 -248.5t-154.5 -158.5l190 -408q8 -16 9 -37q0 -23 -15.5 -37t-40.5 -14h-346q-33 0 -52 9t-28 32l-151 381h-70v-305q0 -59 -27.5 -88t-97.5 -29h-243q-68 0 -95.5 28.5t-27.5 88.5z M254 1872q0 23 19.5 34t54.5 11h182q57 0 81.5 -12.5t47.5 -44.5l86 -134l86 134q23 33 47.5 45t81.5 12h182q35 0 54.5 -11.5t19.5 -33.5q0 -25 -31 -66l-188 -239q-29 -39 -48.5 -49.5t-76.5 -10.5h-254q-57 0 -76.5 10.5t-48.5 49.5l-188 239q-31 41 -31 66zM502 764h139 q66 0 103.5 35t37.5 104q0 72 -37.5 106.5t-103.5 34.5h-139v-280z" />
<glyph unicode="&#x159;" horiz-adv-x="995" d="M39 1466q0 23 19.5 34t54.5 11h182q57 0 81.5 -12t47.5 -45l86 -133l86 133q23 33 47.5 45t81.5 12h182q35 0 54.5 -11t19.5 -34q0 -25 -31 -65l-188 -240q-29 -39 -48.5 -49t-76.5 -10h-254q-57 0 -76.5 10t-48.5 49l-188 240q-31 41 -31 65zM72 117v798q0 41 15 54.5 t63 13.5h258q27 0 40 -5t17 -24l12 -51q125 111 287 111q80 0 127 -12.5t88 -43.5q23 -16 22 -34q0 -12 -6 -29l-80 -217q-12 -33 -32 -33q-12 0 -29 10q-33 18 -63.5 26.5t-79.5 8.5q-66 0 -107 -34.5t-41 -94.5v-444q0 -59 -27.5 -88t-95.5 -29h-243q-68 0 -96.5 28.5 t-28.5 88.5z" />
<glyph unicode="&#x15a;" horiz-adv-x="1259" d="M33 172q0 18 14 39l119 186q18 27 37 27q16 0 39 -14q74 -45 169 -71t185 -26q76 0 109.5 20.5t33.5 63.5q0 47 -45 76t-155 72q-207 80 -326 181t-119 269q0 213 148.5 320.5t400.5 107.5q176 0 300 -30.5t216 -96.5q41 -29 41 -55q0 -18 -14 -39l-119 -186 q-18 -29 -37 -29q-12 0 -39 17q-49 33 -116.5 54t-145.5 21q-72 0 -108.5 -20.5t-36.5 -65.5q0 -37 25.5 -61.5t64.5 -42t135 -55.5q154 -61 242 -118t133 -135.5t45 -199.5q0 -184 -138.5 -298t-412.5 -114q-186 0 -346 39t-258 109q-41 29 -41 55zM502 1540q0 16 6 35 l86 237q16 47 38.5 63.5t84.5 16.5h293q43 0 67.5 -15t24.5 -44q0 -25 -17 -51l-131 -221q-29 -49 -55.5 -63.5t-95.5 -14.5h-219q-82 0 -82 57z" />
<glyph unicode="&#x15b;" horiz-adv-x="1116" d="M31 129q0 14 12 35l100 180q14 25 35 25q16 0 41 -13q55 -29 143.5 -54.5t153.5 -25.5q43 0 59.5 7.5t16.5 23.5t-30 28.5t-99 31.5q-20 6 -40 11t-38 11q-170 51 -242.5 117.5t-72.5 185.5q0 156 135 239t366 83q143 0 245 -23.5t200 -75.5q43 -25 43 -51q0 -16 -17 -43 l-98 -155q-16 -25 -31 -25q-6 0 -39 14q-47 23 -108 38.5t-113 15.5q-111 0 -110 -37q0 -16 35.5 -28.5t121.5 -33.5q113 -27 156 -41q92 -33 141.5 -67.5t68.5 -80.5t19 -120q0 -90 -56 -166t-172 -121t-286 -45q-294 0 -495 111q-45 25 -45 49zM360 1135q0 16 7 34l86 238 q16 47 38.5 63.5t83.5 16.5h293q43 0 68 -15.5t25 -44.5q0 -25 -17 -51l-131 -221q-29 -49 -55.5 -63.5t-95.5 -14.5h-220q-82 1 -82 58z" />
<glyph unicode="&#x15c;" horiz-adv-x="1259" d="M33 172q0 18 14 39l119 186q18 27 37 27q16 0 39 -14q74 -45 169 -71t185 -26q76 0 109.5 20.5t33.5 63.5q0 47 -45 76t-155 72q-207 80 -326 181t-119 269q0 213 148.5 320.5t400.5 107.5q176 0 300 -30.5t216 -96.5q41 -29 41 -55q0 -18 -14 -39l-119 -186 q-18 -29 -37 -29q-12 0 -39 17q-49 33 -116.5 54t-145.5 21q-72 0 -108.5 -20.5t-36.5 -65.5q0 -37 25.5 -61.5t64.5 -42t135 -55.5q154 -61 242 -118t133 -135.5t45 -199.5q0 -184 -138.5 -298t-412.5 -114q-186 0 -346 39t-258 109q-41 29 -41 55zM182 1534q0 27 31 65 l188 240q29 39 48.5 49t76.5 10h254q57 0 77 -10t48 -49l189 -240q31 -39 30 -65q0 -23 -19.5 -34t-53.5 -11h-183q-57 0 -81.5 12t-47.5 45l-86 133l-86 -133q-23 -33 -47 -45t-82 -12h-182q-35 0 -54.5 11t-19.5 34z" />
<glyph unicode="&#x15d;" horiz-adv-x="1116" d="M31 129q0 14 12 35l100 180q14 25 35 25q16 0 41 -13q55 -29 143.5 -54.5t153.5 -25.5q43 0 59.5 7.5t16.5 23.5t-30 28.5t-99 31.5q-20 6 -40 11t-38 11q-170 51 -242.5 117.5t-72.5 185.5q0 156 135 239t366 83q143 0 245 -23.5t200 -75.5q43 -25 43 -51q0 -16 -17 -43 l-98 -155q-16 -25 -31 -25q-6 0 -39 14q-47 23 -108 38.5t-113 15.5q-111 0 -110 -37q0 -16 35.5 -28.5t121.5 -33.5q113 -27 156 -41q92 -33 141.5 -67.5t68.5 -80.5t19 -120q0 -90 -56 -166t-172 -121t-286 -45q-294 0 -495 111q-45 25 -45 49zM104 1128q0 27 31 66 l189 240q29 39 48 49t77 10h253q57 0 77 -10t48 -49l189 -240q31 -39 31 -66q0 -23 -19.5 -34t-54.5 -11h-182q-57 0 -82 12.5t-47 45.5l-87 133l-86 -133q-23 -33 -47 -45.5t-82 -12.5h-182q-35 0 -54.5 11.5t-19.5 33.5z" />
<glyph unicode="&#x15e;" horiz-adv-x="1259" d="M33 172q0 18 14 39l119 186q18 27 37 27q16 0 39 -14q74 -45 169 -71t185 -26q76 0 109.5 20.5t33.5 63.5q0 47 -45 76t-155 72q-207 80 -326 181t-119 269q0 213 148.5 320.5t400.5 107.5q176 0 300 -30.5t216 -96.5q41 -29 41 -55q0 -18 -14 -39l-119 -186 q-18 -29 -37 -29q-12 0 -39 17q-49 33 -116.5 54t-145.5 21q-72 0 -108.5 -20.5t-36.5 -65.5q0 -37 25.5 -61.5t64.5 -42t135 -55.5q154 -61 242 -118t133 -135.5t45 -199.5q0 -150 -90 -254t-271 -139q8 -6 9 -15q0 -10 -5 -16l-47 -102q68 -14 98.5 -50t30.5 -102 q0 -78 -72.5 -131t-215.5 -53q-59 0 -125 11t-97 26q-18 10 -22 16t2 20l49 129q6 14 19 15q6 0 18 -6q41 -20 84 -21q61 0 61 35q0 27 -22.5 37t-73.5 10h-37q-16 0 -21 9.5t1 23.5l55 137l6 12q-154 10 -280.5 47t-208.5 97q-41 29 -41 55z" />
<glyph unicode="&#x15f;" horiz-adv-x="1116" d="M31 129q0 14 12 35l100 180q14 25 35 25q16 0 41 -13q55 -29 143.5 -54.5t153.5 -25.5q43 0 59.5 7.5t16.5 23.5t-30 28.5t-99 31.5q-20 6 -40 11t-38 11q-170 51 -242.5 117.5t-72.5 185.5q0 156 135 239t366 83q143 0 245 -23.5t200 -75.5q43 -25 43 -51q0 -16 -17 -43 l-98 -155q-16 -25 -31 -25q-6 0 -39 14q-47 23 -108 38.5t-113 15.5q-111 0 -110 -37q0 -16 35.5 -28.5t121.5 -33.5q113 -27 156 -41q92 -33 141.5 -67.5t68.5 -80.5t19 -120q0 -113 -85 -199t-250 -118l-56 -129q68 -14 98.5 -50t30.5 -102q0 -78 -72.5 -131t-215.5 -53 q-59 0 -125 11t-97 26q-18 10 -22 16t2 20l49 129q6 14 18 15q6 0 19 -6q41 -20 84 -21q61 0 61 35q0 27 -22.5 37t-73.5 10h-37q-16 0 -21 9.5t1 23.5l63 151q-209 23 -358 105q-45 25 -45 49z" />
<glyph unicode="&#x160;" horiz-adv-x="1259" d="M33 172q0 18 14 39l119 186q18 27 37 27q16 0 39 -14q74 -45 169 -71t185 -26q76 0 109.5 20.5t33.5 63.5q0 47 -45 76t-155 72q-207 80 -326 181t-119 269q0 213 148.5 320.5t400.5 107.5q176 0 300 -30.5t216 -96.5q41 -29 41 -55q0 -18 -14 -39l-119 -186 q-18 -29 -37 -29q-12 0 -39 17q-49 33 -116.5 54t-145.5 21q-72 0 -108.5 -20.5t-36.5 -65.5q0 -37 25.5 -61.5t64.5 -42t135 -55.5q154 -61 242 -118t133 -135.5t45 -199.5q0 -184 -138.5 -298t-412.5 -114q-186 0 -346 39t-258 109q-41 29 -41 55zM209 1896 q0 23 19.5 34.5t54.5 11.5h182q57 0 81.5 -12.5t47.5 -45.5l86 -133l86 133q23 33 47.5 45.5t81.5 12.5h182q35 0 54.5 -11.5t19.5 -34.5q0 -25 -31 -65l-188 -240q-29 -39 -48.5 -49t-76.5 -10h-254q-57 0 -76.5 10t-48.5 49l-188 240q-31 39 -31 65z" />
<glyph unicode="&#x161;" horiz-adv-x="1116" d="M31 129q0 14 12 35l100 180q14 25 35 25q16 0 41 -13q55 -29 143.5 -54.5t153.5 -25.5q43 0 59.5 7.5t16.5 23.5t-30 28.5t-99 31.5q-20 6 -40 11t-38 11q-170 51 -242.5 117.5t-72.5 185.5q0 156 135 239t366 83q143 0 245 -23.5t200 -75.5q43 -25 43 -51q0 -16 -17 -43 l-98 -155q-16 -25 -31 -25q-6 0 -39 14q-47 23 -108 38.5t-113 15.5q-111 0 -110 -37q0 -16 35.5 -28.5t121.5 -33.5q113 -27 156 -41q92 -33 141.5 -67.5t68.5 -80.5t19 -120q0 -90 -56 -166t-172 -121t-286 -45q-294 0 -495 111q-45 25 -45 49zM104 1446q0 23 19.5 34 t54.5 11h182q57 0 82 -12.5t47 -44.5l86 -134l87 134q23 33 47 45t82 12h182q35 0 54.5 -11.5t19.5 -33.5q0 -25 -31 -66l-189 -239q-29 -39 -48 -49.5t-77 -10.5h-253q-58 0 -77.5 10.5t-47.5 49.5l-189 239q-31 41 -31 66z" />
<glyph unicode="&#x162;" horiz-adv-x="1286" d="M-10 1161v115q0 61 23.5 89t88.5 28h1082q66 0 89 -28t23 -89v-115q0 -61 -23.5 -89t-88.5 -28h-295v-927q0 -59 -27.5 -88t-97.5 -29h-244q-67 0 -95 28.5t-28 88.5v927h-295q-66 0 -89 28t-23 89zM387.5 -428q-4.5 6 1.5 20l49 129q6 14 19 15q6 0 18 -6q41 -20 84 -21 q61 0 62 35q0 27 -23 37t-74 10h-37q-16 0 -21 9.5t1 23.5l55 137q6 16 15.5 22.5t29.5 6.5h250q25 0 25 -17q0 -10 -4 -16l-47 -102q68 -14 98.5 -50t30.5 -102q0 -78 -73 -131t-216 -53q-60 0 -125.5 11t-95.5 26q-18 10 -22.5 16z" />
<glyph unicode="&#x163;" horiz-adv-x="1030" d="M10 772v94q0 61 23.5 89t89.5 28h65v23q0 53 27 107t74 134q23 39 43 51.5t76 12.5h147q70 0 97.5 -28t27.5 -89v-211h123q66 0 89 -27.5t23 -89.5v-94q0 -61 -23.5 -89t-88.5 -28h-123v-247q0 -47 19.5 -71t62.5 -24q31 0 45 6.5t43 24.5q18 12 35 12q25 0 41 -28 l96 -166q18 -33 18 -53q0 -23 -24 -39q-106 -70 -244 -90v-7l-4 -16l-47 -102q68 -14 98.5 -50t30.5 -102q0 -78 -72.5 -131t-216.5 -53q-59 0 -124.5 11t-96.5 26q-18 10 -22.5 16t1.5 20l50 129q6 14 18 15q6 0 19 -6q41 -20 83 -21q61 0 62 35q0 27 -22.5 37t-73.5 10 h-37q-16 0 -21.5 9.5t0.5 23.5l56 137q10 23 22 27q-139 37 -213 143.5t-74 267.5v256h-65q-66 0 -89.5 28t-23.5 89z" />
<glyph unicode="&#x164;" horiz-adv-x="1286" d="M-10 1161v115q0 61 23.5 89t88.5 28h1082q66 0 89 -28t23 -89v-115q0 -61 -23.5 -89t-88.5 -28h-295v-927q0 -59 -27.5 -88t-97.5 -29h-244q-67 0 -95 28.5t-28 88.5v927h-295q-66 0 -89 28t-23 89zM180 1872q0 23 19.5 34t54.5 11h182q57 0 82 -12.5t47 -44.5l86 -134 l86 134q23 33 47.5 45t81.5 12h183q35 0 54 -11.5t19 -33.5q0 -25 -30 -66l-189 -239q-29 -39 -48 -49.5t-77 -10.5h-254q-57 0 -76.5 10.5t-48.5 49.5l-188 239q-31 41 -31 66z" />
<glyph unicode="&#x165;" horiz-adv-x="1255" d="M10 772v94q0 61 23.5 89t89.5 28h65v23q0 53 27 107t74 134q23 39 43 51.5t76 12.5h147q70 0 97.5 -28t27.5 -89v-211h123q66 0 89 -27.5t23 -89.5v-94q0 -61 -23.5 -89t-88.5 -28h-123v-247q0 -47 19.5 -71t62.5 -24q31 0 45 6.5t43 24.5q18 12 35 12q25 0 41 -28 l96 -166q18 -33 18 -53q0 -23 -24 -39q-76 -49 -169 -75t-224 -26q-209 0 -322 114t-113 316v256h-65q-66 0 -89.5 28t-23.5 89zM772 1208q0 8 4 29l90 332q14 53 38 69.5t79 16.5h193q47 0 68.5 -12.5t21.5 -38.5q0 -25 -19 -68l-137 -322q-12 -27 -31.5 -40t-56.5 -13 h-188q-62 0 -62 47z" />
<glyph unicode="&#x166;" horiz-adv-x="1286" d="M-10 1161v115q0 61 23.5 89t88.5 28h1082q65 0 88.5 -28t23.5 -89v-115q0 -61 -23.5 -89t-88.5 -28h-295v-135h26q66 0 89.5 -27.5t23.5 -88.5v-115q0 -61 -23.5 -89t-89.5 -28h-26v-444q0 -59 -27.5 -88t-97.5 -29h-244q-68 0 -95.5 28.5t-27.5 88.5v444h-28 q-66 0 -89.5 27.5t-23.5 89.5v115q0 61 23.5 88.5t89.5 27.5h28v135h-295q-66 0 -89 28t-23 89z" />
<glyph unicode="&#x167;" horiz-adv-x="1030" d="M10 772v94q0 61 23.5 89t89.5 28h65v23q0 53 27 107t74 134q23 39 43 51.5t76 12.5h147q70 0 97.5 -28t27.5 -89v-211h123q66 0 89 -27.5t23 -89.5v-94q0 -61 -23.5 -89t-88.5 -28h-123v-41h63q47 0 62.5 -14t15.5 -61v-107q0 -47 -14 -61.5t-64 -14.5h-55q16 -43 74 -43 q31 0 45 6.5t43 24.5q18 12 35 12q25 0 41 -28l96 -166q18 -33 18 -53q0 -23 -24 -39q-76 -49 -169 -75t-224 -26q-197 0 -309.5 102.5t-123.5 284.5h-38q-49 0 -63.5 14.5t-14.5 61.5v107q0 47 15 61t63 14h36v41h-65q-66 0 -89.5 28t-23.5 89z" />
<glyph unicode="&#x168;" horiz-adv-x="1466" d="M61 510v766q0 59 28 88t95 29h244q70 0 97.5 -28t27.5 -89v-772q0 -96 48 -143.5t132 -47.5t132 47.5t48 143.5v772q0 59 28 88t95 29h244q70 0 97.5 -28t27.5 -89v-766q0 -168 -84 -290t-235.5 -186.5t-352.5 -64.5t-352.5 64.5t-235.5 186.5t-84 290zM279 1636 q0 29 30 72q70 100 130.5 144t148.5 44q61 0 106 -16t101 -45q41 -20 64.5 -29.5t47.5 -9.5q33 0 54.5 14.5t54.5 53.5q20 27 51 26q39 0 125 -63q41 -29 58.5 -52.5t17.5 -48.5q0 -27 -31 -73q-68 -100 -128 -142.5t-151 -42.5q-43 0 -79.5 13.5t-90.5 42.5 q-51 25 -78.5 35t-58.5 10q-37 0 -60.5 -14.5t-55.5 -53.5q-20 -27 -52 -26q-39 0 -125 63q-43 33 -61 54.5t-18 43.5z" />
<glyph unicode="&#x169;" horiz-adv-x="1249" d="M61 352v514q0 59 28 88t95 29h244q70 0 97.5 -27.5t27.5 -89.5v-491q0 -41 15.5 -60.5t49.5 -19.5q39 0 53.5 19.5t14.5 60.5v491q0 59 27.5 88t95.5 29h244q70 0 97.5 -27.5t27.5 -89.5v-798q0 -41 -15.5 -54.5t-62.5 -13.5h-258q-27 0 -40.5 5t-17.5 24l-12 51 q-55 -49 -146 -80t-198 -31q-170 0 -268.5 95.5t-98.5 287.5zM133 1272q0 29 31 71q70 100 130 144.5t148 44.5q61 0 106.5 -16.5t100.5 -45.5q41 -20 64.5 -29t48.5 -9q33 0 54.5 14t53.5 53q20 27 52 27q39 0 125 -64q41 -29 58 -52.5t17 -47.5q0 -27 -30 -74 q-68 -100 -128.5 -142t-150.5 -42q-43 0 -80 13t-90 42q-51 25 -78.5 35t-58.5 10q-35 0 -59.5 -14t-57.5 -53q-20 -27 -51 -27q-39 0 -125 64q-43 33 -61.5 54t-18.5 44z" />
<glyph unicode="&#x16a;" horiz-adv-x="1466" d="M61 510v766q0 59 28 88t95 29h244q70 0 97.5 -28t27.5 -89v-772q0 -96 48 -143.5t132 -47.5t132 47.5t48 143.5v772q0 59 28 88t95 29h244q70 0 97.5 -28t27.5 -89v-766q0 -168 -84 -290t-235.5 -186.5t-352.5 -64.5t-352.5 64.5t-235.5 186.5t-84 290zM354 1612v114 q0 61 23.5 89t89.5 28h547q66 0 89 -27.5t23 -89.5v-114q0 -61 -23.5 -89t-88.5 -28h-547q-66 0 -89.5 27.5t-23.5 89.5z" />
<glyph unicode="&#x16b;" horiz-adv-x="1249" d="M61 352v514q0 59 28 88t95 29h244q70 0 97.5 -27.5t27.5 -89.5v-491q0 -41 15.5 -60.5t49.5 -19.5q39 0 53.5 19.5t14.5 60.5v491q0 59 27.5 88t95.5 29h244q70 0 97.5 -27.5t27.5 -89.5v-798q0 -41 -15.5 -54.5t-62.5 -13.5h-258q-27 0 -40.5 5t-17.5 24l-12 51 q-55 -49 -146 -80t-198 -31q-170 0 -268.5 95.5t-98.5 287.5zM201 1247v115q0 61 23.5 89t88.5 28h547q66 0 89.5 -28t23.5 -89v-115q0 -61 -23.5 -89t-89.5 -28h-547q-65 0 -88.5 28t-23.5 89z" />
<glyph unicode="&#x16c;" horiz-adv-x="1466" d="M61 510v766q0 59 28 88t95 29h244q70 0 97.5 -28t27.5 -89v-772q0 -96 48 -143.5t132 -47.5t132 47.5t48 143.5v772q0 59 28 88t95 29h244q70 0 97.5 -28t27.5 -89v-766q0 -168 -84 -290t-235.5 -186.5t-352.5 -64.5t-352.5 64.5t-235.5 186.5t-84 290zM330 1851 q0 16 9 26.5t23 10.5h265q20 0 27.5 -9t7.5 -30q0 -37 21.5 -55t57.5 -18q37 0 58.5 18t21.5 55q0 20 7.5 29.5t27.5 9.5h264q14 0 23.5 -10t9.5 -27q0 -160 -106.5 -261t-305.5 -101q-200 0 -305.5 100.5t-105.5 261.5z" />
<glyph unicode="&#x16d;" horiz-adv-x="1249" d="M61 352v514q0 59 28 88t95 29h244q70 0 97.5 -27.5t27.5 -89.5v-491q0 -41 15.5 -60.5t49.5 -19.5q39 0 53.5 19.5t14.5 60.5v491q0 59 27.5 88t95.5 29h244q70 0 97.5 -27.5t27.5 -89.5v-798q0 -41 -15.5 -54.5t-62.5 -13.5h-258q-27 0 -40.5 5t-17.5 24l-12 51 q-55 -49 -146 -80t-198 -31q-170 0 -268.5 95.5t-98.5 287.5zM209 1446q0 16 9 26.5t24 10.5h264q20 0 27.5 -9.5t7.5 -29.5q0 -37 21.5 -55.5t58.5 -18.5t58 18.5t21 55.5q0 20 7.5 29.5t27.5 9.5h264q14 0 23.5 -10.5t9.5 -26.5q0 -160 -106.5 -261.5t-304.5 -101.5 q-201 0 -306.5 100.5t-105.5 262.5z" />
<glyph unicode="&#x16e;" horiz-adv-x="1466" d="M61 510v766q0 59 28 88t95 29h244q70 0 97.5 -28t27.5 -89v-772q0 -96 48 -143.5t132 -47.5t132 47.5t48 143.5v772q0 59 28 88t95 29h244q70 0 97.5 -28t27.5 -89v-766q0 -168 -84 -290t-235.5 -186.5t-352.5 -64.5t-352.5 64.5t-235.5 186.5t-84 290zM498 1733 q0 109 75.5 185.5t184.5 76.5t185.5 -77t76.5 -185q0 -109 -77 -184.5t-185 -75.5q-109 0 -184.5 75.5t-75.5 184.5zM694 1733q0 -27 18.5 -45.5t45.5 -18.5q26 0 44.5 18.5t18.5 45.5t-18.5 45t-44.5 18q-27 0 -45.5 -18.5t-18.5 -44.5z" />
<glyph unicode="&#x16f;" horiz-adv-x="1249" d="M61 352v514q0 59 28 88t95 29h244q70 0 97.5 -27.5t27.5 -89.5v-491q0 -41 15.5 -60.5t49.5 -19.5q39 0 53.5 19.5t14.5 60.5v491q0 59 27.5 88t95.5 29h244q70 0 97.5 -27.5t27.5 -89.5v-798q0 -41 -15.5 -54.5t-62.5 -13.5h-258q-27 0 -40.5 5t-17.5 24l-12 51 q-55 -49 -146 -80t-198 -31q-170 0 -268.5 95.5t-98.5 287.5zM358 1327q0 109 76 185.5t184 76.5q109 0 186 -76.5t77 -185.5t-77 -184.5t-186 -75.5q-108 0 -184 76t-76 184zM555 1327q0 -27 18.5 -45t44.5 -18q27 0 45.5 18t18.5 45t-18.5 45.5t-45.5 18.5t-45 -18.5 t-18 -45.5z" />
<glyph unicode="&#x170;" horiz-adv-x="1529" d="M61 510v766q0 59 28 88t95 29h244q70 0 97.5 -28t27.5 -89v-772q0 -96 48 -143.5t132 -47.5t132 47.5t48 143.5v772q0 59 28 88t95 29h244q70 0 97.5 -28t27.5 -89v-766q0 -168 -84 -290t-235.5 -186.5t-352.5 -64.5t-352.5 64.5t-235.5 186.5t-84 290zM332 1561 q0 18 8 34l117 238q16 35 26.5 49t32 22.5t64.5 8.5h251q43 0 70 -15.5t27 -44.5q0 -23 -21 -51l-162 -221q-27 -37 -41 -50t-38.5 -20.5t-71.5 -7.5h-178q-84 1 -84 58zM870 1561q0 18 9 34l116 238q16 35 26.5 49t32 22.5t64.5 8.5h252q43 0 69.5 -15.5t26.5 -44.5 q0 -23 -20 -51l-162 -221q-27 -37 -41 -50t-38.5 -20.5t-71.5 -7.5h-179q-84 1 -84 58z" />
<glyph unicode="&#x171;" horiz-adv-x="1298" d="M61 352v514q0 59 28 88t95 29h244q70 0 97.5 -27.5t27.5 -89.5v-491q0 -41 15.5 -60.5t49.5 -19.5q39 0 53.5 19.5t14.5 60.5v491q0 59 27.5 88t95.5 29h244q70 0 97.5 -27.5t27.5 -89.5v-798q0 -41 -15.5 -54.5t-62.5 -13.5h-258q-27 0 -40.5 5t-17.5 24l-12 51 q-55 -49 -146 -80t-198 -31q-170 0 -268.5 95.5t-98.5 287.5zM123 1155q0 18 8 35l117 237q16 35 26.5 49.5t32 22.5t64.5 8h252q43 0 69.5 -15t26.5 -44q0 -23 -21 -51l-161 -221q-27 -37 -41.5 -50.5t-39 -20.5t-71.5 -7h-178q-84 0 -84 57zM662 1155q0 18 8 35l116 237 q16 35 26.5 49.5t32 22.5t64.5 8h252q43 0 69.5 -15t26.5 -44q0 -23 -20 -51l-162 -221q-27 -37 -41 -50.5t-38.5 -20.5t-71.5 -7h-179q-83 0 -83 57z" />
<glyph unicode="&#x172;" horiz-adv-x="1466" d="M61 510v766q0 59 28 88t95 29h244q70 0 97.5 -28t27.5 -89v-772q0 -96 48 -143.5t132 -47.5t132 47.5t48 143.5v772q0 59 28 88t95 29h244q70 0 97.5 -28t27.5 -89v-766q0 -211 -133 -349t-363 -177q0 -2 -4 -7q-10 -12 -20.5 -23t-18.5 -24q-55 -66 -72.5 -94.5 t-17.5 -62.5q0 -27 13.5 -41.5t35.5 -14.5q29 0 45 9q12 4 15 4q8 0 14 -15l49 -104q4 -8 4 -12q0 -12 -24 -23q-82 -37 -236 -37q-113 0 -167 54.5t-54 138.5q0 55 28.5 114.5t92.5 130.5q-246 33 -388.5 172.5t-142.5 360.5z" />
<glyph unicode="&#x173;" horiz-adv-x="1249" d="M61 352v514q0 59 28 88t95 29h244q70 0 97.5 -27.5t27.5 -89.5v-491q0 -41 15.5 -60.5t49.5 -19.5q39 0 53.5 19.5t14.5 60.5v491q0 59 27.5 88t95.5 29h244q69 0 97 -27.5t28 -89.5v-798q0 -41 -15.5 -54.5t-62.5 -13.5h-25q8 -10 -4 -23q-10 -12 -20.5 -23t-18.5 -24 q-55 -66 -72.5 -94.5t-17.5 -62.5q0 -27 13.5 -41.5t35.5 -14.5q29 0 45 9q12 4 15 4q8 0 14 -15l49 -104q4 -8 4 -12q0 -12 -24 -23q-82 -37 -236 -37q-113 0 -167 54.5t-54 138.5q0 57 29.5 116.5t95.5 135.5q18 23 35 24q-10 6 -13 21l-12 51q-55 -49 -146 -80t-198 -31 q-170 0 -268.5 95.5t-98.5 287.5z" />
<glyph unicode="&#x174;" horiz-adv-x="1792" d="M31 1350q0 43 61 43h348q39 0 57.5 -13.5t22.5 -42.5l80 -487l123 373q12 37 31.5 50t60.5 13h160q41 0 60.5 -13t31.5 -50l123 -373l80 487q4 29 22.5 42.5t57.5 13.5h350q61 0 61 -43l-4 -25l-309 -1247q-10 -43 -36 -60.5t-73 -17.5h-223q-45 0 -70.5 17.5t-37.5 60.5 l-113 397l-113 -397q-12 -43 -37.5 -60.5t-70.5 -17.5h-223q-48 0 -73.5 17.5t-35.5 60.5l-307 1247zM424 1534q0 27 31 65l188 240q29 39 48.5 49t76.5 10h254q57 0 76.5 -10t48.5 -49l188 -240q31 -41 31 -65q0 -23 -19.5 -34t-54.5 -11h-182q-57 0 -81.5 12t-47.5 45 l-86 133l-86 -133q-23 -33 -47.5 -45t-81.5 -12h-182q-35 0 -54.5 11t-19.5 34z" />
<glyph unicode="&#x175;" horiz-adv-x="1572" d="M33 952q0 31 43 31h327q51 0 58 -39l76 -385l108 293q10 27 23.5 36t42.5 9h151q29 0 42.5 -9t23.5 -36l106 -293l78 385q4 20 15.5 29.5t39.5 9.5h330q43 0 43 -31q0 -12 -2 -18l-260 -879q-8 -31 -25.5 -43t-50.5 -12h-241q-31 0 -48.5 12.5t-27.5 42.5l-99 281 l-100 -281q-10 -31 -27.5 -43t-48.5 -12h-239q-33 0 -51.5 12.5t-26.5 42.5l-258 879q-2 6 -2 18zM317 1128q0 27 31 66l189 240q29 39 48 49t77 10h253q57 0 77 -10t48 -49l189 -240q31 -39 31 -66q0 -23 -19.5 -34t-54.5 -11h-182q-57 0 -82 12.5t-48 45.5l-86 133 l-86 -133q-23 -33 -47 -45.5t-82 -12.5h-182q-35 0 -54.5 11.5t-19.5 33.5z" />
<glyph unicode="&#x176;" horiz-adv-x="1536" d="M33 1348q0 45 47 45h385q31 0 47 -13.5t33 -42.5l223 -401l223 401q16 29 32.5 42.5t47.5 13.5h385q47 0 47 -45q0 -20 -12 -43l-477 -818v-370q0 -59 -28 -88t-97 -29h-244q-67 0 -95 28.5t-28 88.5v370l-477 818q-12 23 -12 43zM297 1554q0 27 31 66l188 240 q29 39 48.5 49t76.5 10h254q57 0 76.5 -10.5t48.5 -48.5l188 -240q31 -39 31 -66q0 -23 -19.5 -34t-54.5 -11h-182q-57 0 -81.5 12.5t-47.5 45.5l-86 133l-86 -133q-23 -33 -47.5 -45.5t-81.5 -12.5h-182q-35 0 -54.5 11.5t-19.5 33.5z" />
<glyph unicode="&#x177;" horiz-adv-x="1265" d="M31 940q0 43 47 43h364q59 0 80 -55l127 -381l127 381q20 55 80 55h365q45 0 45 -43q0 -18 -11 -45l-378 -803q-68 -145 -133.5 -233t-152.5 -133t-208 -45q-190 -1 -315 108q-25 18 -25 41q0 20 14 43l97 168q18 31 39 31q16 0 45 -17q31 -18 54 -26.5t56 -8.5 q68 0 84 56l-389 819q-12 25 -12 45zM158 1128q0 27 30 66l189 240q29 39 48 49t77 10h254q57 0 76.5 -10t48.5 -49l188 -240q31 -41 31 -66q0 -23 -19.5 -34t-54.5 -11h-182q-57 0 -82 12.5t-47 45.5l-86 133l-86 -133q-23 -33 -47.5 -45.5t-81.5 -12.5h-183 q-34 0 -53.5 11.5t-19.5 33.5z" />
<glyph unicode="&#x178;" horiz-adv-x="1536" d="M33 1348q0 45 47 45h385q31 0 47 -13.5t33 -42.5l223 -401l223 401q16 29 32.5 42.5t47.5 13.5h385q47 0 47 -45q0 -20 -12 -43l-477 -818v-370q0 -59 -28 -88t-97 -29h-244q-67 0 -95 28.5t-28 88.5v370l-477 818q-12 23 -12 43zM408 1622v59q0 61 38.5 103.5 t100.5 42.5h61q61 0 100.5 -42t39.5 -104v-59q0 -59 -39 -102t-101 -43h-61q-60 0 -99.5 43t-39.5 102zM864 1622v59q0 61 39 103.5t101 42.5h61q61 0 100 -42t39 -104v-59q0 -59 -39 -102t-100 -43h-61q-60 0 -100 43t-40 102z" />
<glyph unicode="&#x179;" horiz-adv-x="1312" d="M31 111q0 66 11 102.5t56 95.5l539 735h-473q-68 0 -95.5 29t-27.5 88v115q0 59 27.5 88t95.5 29h1012q61 0 81.5 -23.5t20.5 -87.5q0 -63 -11.5 -100t-56.5 -99l-534 -735h483q68 0 95.5 -28.5t27.5 -88.5v-114q0 -59 -27.5 -88t-95.5 -29h-1026q-61 0 -81.5 23.5 t-20.5 87.5zM424 1540q0 16 6 35l86 237q16 47 39 63.5t84 16.5h293q43 0 67.5 -15t24.5 -44q0 -25 -16 -51l-131 -221q-29 -49 -55.5 -63.5t-96.5 -14.5h-219q-82 0 -82 57z" />
<glyph unicode="&#x17a;" horiz-adv-x="1093" d="M31 752v114q0 59 27.5 88t95.5 29h794q49 0 69.5 -18.5t20.5 -55.5v-104q0 -41 -13 -64.5t-54 -66.5l-309 -326h278q68 0 95.5 -28.5t27.5 -88.5v-114q0 -59 -27.5 -88t-95.5 -29h-801q-59 0 -80.5 16.5t-21.5 65.5v96q0 43 12 66.5t55 64.5l345 326h-295 q-68 0 -95.5 28.5t-27.5 88.5zM416 1176q0 16 6 34l86 238q16 47 38.5 63.5t84.5 16.5h293q43 0 67.5 -15.5t24.5 -44.5q0 -25 -17 -51l-131 -221q-29 -49 -55.5 -63.5t-95.5 -14.5h-219q-82 1 -82 58z" />
<glyph unicode="&#x17b;" horiz-adv-x="1312" d="M31 111q0 66 11 102.5t56 95.5l539 735h-473q-68 0 -95.5 29t-27.5 88v115q0 59 27.5 88t95.5 29h1012q61 0 81.5 -23.5t20.5 -87.5q0 -63 -11.5 -100t-56.5 -99l-534 -735h483q68 0 95.5 -28.5t27.5 -88.5v-114q0 -59 -27.5 -88t-95.5 -29h-1026q-61 0 -81.5 23.5 t-20.5 87.5zM543 1659v59q0 61 39 103.5t100 42.5h61q61 0 100.5 -42t39.5 -104v-59q0 -59 -39 -102.5t-101 -43.5h-61q-59 0 -99 43t-40 103z" />
<glyph unicode="&#x17c;" horiz-adv-x="1093" d="M31 752v114q0 59 27.5 88t95.5 29h794q49 0 69.5 -18.5t20.5 -55.5v-104q0 -41 -13 -64.5t-54 -66.5l-309 -326h278q68 0 95.5 -28.5t27.5 -88.5v-114q0 -59 -27.5 -88t-95.5 -29h-801q-59 0 -80.5 16.5t-21.5 65.5v96q0 43 12 66.5t55 64.5l345 326h-295 q-68 0 -95.5 28.5t-27.5 88.5zM389 1233v59q0 61 39 103.5t100 42.5h62q61 0 100 -42t39 -104v-59q0 -59 -39 -102.5t-100 -43.5h-62q-59 0 -99 43.5t-40 102.5z" />
<glyph unicode="&#x17d;" horiz-adv-x="1312" d="M31 111q0 66 11 102.5t56 95.5l539 735h-473q-68 0 -95.5 29t-27.5 88v115q0 59 27.5 88t95.5 29h1012q61 0 81.5 -23.5t20.5 -87.5q0 -63 -11.5 -100t-56.5 -99l-534 -735h483q68 0 95.5 -28.5t27.5 -88.5v-114q0 -59 -27.5 -88t-95.5 -29h-1026q-61 0 -81.5 23.5 t-20.5 87.5zM197 1896q0 23 19.5 34.5t53.5 11.5h183q57 0 81.5 -12.5t47.5 -45.5l86 -133l86 133q23 33 47 45.5t82 12.5h182q35 0 54.5 -11.5t19.5 -34.5q0 -25 -31 -65l-188 -240q-29 -39 -48.5 -49t-76.5 -10h-254q-58 0 -77.5 10t-47.5 49l-189 240q-31 41 -30 65z" />
<glyph unicode="&#x17e;" horiz-adv-x="1093" d="M31 752v114q0 59 27.5 88t95.5 29h794q49 0 69.5 -18.5t20.5 -55.5v-104q0 -41 -13 -64.5t-54 -66.5l-309 -326h278q68 0 95.5 -28.5t27.5 -88.5v-114q0 -59 -27.5 -88t-95.5 -29h-801q-59 0 -80.5 16.5t-21.5 65.5v96q0 43 12 66.5t55 64.5l345 326h-295 q-68 0 -95.5 28.5t-27.5 88.5zM84 1466q0 23 19.5 34t54.5 11h182q57 0 81.5 -12t47.5 -45l86 -133l86 133q23 33 47.5 45t81.5 12h182q35 0 54.5 -11t19.5 -34q0 -25 -31 -65l-188 -240q-29 -39 -48.5 -49t-76.5 -10h-254q-57 0 -76.5 10t-48.5 49l-188 240q-31 41 -31 65z " />
<glyph unicode="&#x18f;" horiz-adv-x="1417" d="M31 653q0 59 24.5 88t75.5 29h795q0 164 -72 236.5t-248 72.5q-84 0 -146.5 -16t-119.5 -45q-33 -16 -47 -17q-23 0 -39 29l-102 176q-18 33 -19 51q0 23 25 41q88 59 219 92t299 33q254 0 412.5 -102t228 -269t69.5 -368q0 -328 -164.5 -521.5t-523.5 -193.5 q-667 0 -667 684zM465 500q0 -84 58.5 -135.5t172.5 -51.5q109 0 169.5 51.5t60.5 135.5h-461z" />
<glyph unicode="&#x192;" horiz-adv-x="1161" d="M-246 -229q0 12 19 41l100 145q20 27 41 27q10 0 31 -11q35 -20 94 -20q51 0 76.5 24.5t29.5 71.5l64 606h-49q-66 0 -89.5 28t-23.5 89v94q0 61 23.5 89t89.5 28h82l2 10q23 207 149.5 318.5t360.5 111.5q233 0 354 -94q23 -16 22 -37q0 -14 -16 -41l-102 -145 q-18 -27 -39 -27q-12 0 -33 11q-35 20 -96 20q-51 0 -76 -23.5t-29 -72.5l-4 -31h105q66 0 89 -27.5t23 -89.5v-94q0 -61 -23.5 -89t-88.5 -28h-140l-61 -585q-23 -207 -148.5 -318.5t-359.5 -111.5q-231 0 -352 94q-25 18 -25 37z" />
<glyph unicode="&#x1a0;" horiz-adv-x="1669" d="M31 696q0 348 188.5 537.5t552.5 189.5q287 0 465 -118q43 14 60.5 49t17.5 100q0 49 11 64.5t44 15.5h264q41 0 53.5 -15.5t12.5 -66.5q0 -162 -54.5 -265.5t-189.5 -156.5q57 -141 57 -334q0 -348 -188 -537.5t-553 -189.5q-364 0 -552.5 189.5t-188.5 537.5zM520 696 q0 -193 59.5 -288t192.5 -95t192.5 95.5t59.5 287.5q0 195 -59.5 289t-192.5 94t-192.5 -94t-59.5 -289z" />
<glyph unicode="&#x1a1;" horiz-adv-x="1484" d="M31 492q0 160 71.5 277.5t210 181t328.5 63.5q262 0 420 -117q39 16 54 51t15 96q0 49 11.5 64.5t44.5 15.5h264q41 0 53.5 -15t12.5 -67q0 -172 -61.5 -277.5t-213.5 -154.5q12 -57 12 -118q0 -158 -72.5 -276t-209.5 -182.5t-330 -64.5q-190 0 -328.5 64.5t-210 182.5 t-71.5 276zM520 492q0 -178 121 -179q123 1 123 179q0 94 -32 135t-91 41t-90 -41t-31 -135z" />
<glyph unicode="&#x1af;" horiz-adv-x="1847" d="M61 510v766q0 59 28 88t95 29h244q70 0 97.5 -28t27.5 -89v-772q0 -96 48 -143.5t132 -47.5t132 47.5t48 143.5v772q0 59 28 88t95 29h244q63 0 91 -23.5t32 -73.5q51 16 70.5 53t19.5 105q0 49 11.5 64.5t43.5 15.5h264q41 0 53.5 -15.5t12.5 -66.5q0 -215 -108.5 -334 t-364.5 -143v-465q0 -168 -84 -290t-235.5 -186.5t-352.5 -64.5t-352.5 64.5t-235.5 186.5t-84 290z" />
<glyph unicode="&#x1b0;" horiz-adv-x="1587" d="M61 352v514q0 59 28 88t95 29h244q70 0 97.5 -27.5t27.5 -89.5v-491q0 -41 15.5 -60.5t49.5 -19.5q39 0 53.5 19.5t14.5 60.5v491q0 59 27.5 88t95.5 29h244q57 0 85.5 -19.5t35.5 -60.5q33 16 46 49t13 92q0 49 11 64.5t44 15.5h264q41 0 53.5 -15t12.5 -67 q0 -139 -39 -233t-135 -153.5t-266 -80.5v-507q0 -41 -15.5 -54.5t-62.5 -13.5h-258q-27 0 -40.5 5t-17.5 24l-12 51q-55 -49 -146 -80t-198 -31q-170 0 -268.5 95.5t-98.5 287.5z" />
<glyph unicode="&#x1cd;" horiz-adv-x="1540" d="M31 43q0 18 10 45l510 1227q18 43 41.5 60.5t66.5 17.5h224q43 0 66.5 -17.5t41.5 -60.5l508 -1227q10 -27 10 -45q0 -43 -45 -43h-385q-63 0 -80 55l-49 152h-362l-47 -152q-16 -55 -80 -55h-385q-45 0 -45 43zM303 1872q0 23 19.5 34t54.5 11h182q57 0 82 -12.5 t47 -44.5l86 -134l86 134q23 33 47.5 45t81.5 12h182q35 0 54.5 -11.5t19.5 -33.5q0 -25 -31 -66l-188 -239q-29 -39 -48.5 -49.5t-76.5 -10.5h-254q-57 0 -76.5 10.5t-48.5 49.5l-188 239q-31 41 -31 66zM690 530h160l-80 254z" />
<glyph unicode="&#x1ce;" horiz-adv-x="1269" d="M31 449q0 168 86 296.5t238.5 198.5t342.5 70q164 0 278 -32t222 -103v-811q0 -41 -15.5 -54.5t-62.5 -13.5h-258q-23 0 -35 6t-22 23l-33 51q-59 -55 -137 -83t-186 -28q-189 0 -303.5 126t-114.5 354zM299 1507q0 23 19.5 34t54.5 11h182q57 0 82 -12t47 -45l86 -133 l86 133q23 33 47.5 45t81.5 12h182q35 0 54.5 -11t19.5 -34q0 -25 -31 -65l-188 -240q-29 -39 -48.5 -49t-76.5 -10h-254q-57 0 -76.5 10t-48.5 49l-188 240q-31 41 -31 65zM520 449q0 -154 111 -154q51 0 84 28.5t33 79.5v279q-18 8 -50 8q-84 0 -131 -62.5t-47 -178.5z " />
<glyph unicode="&#x1cf;" horiz-adv-x="655" d="M-141 1872q0 23 19.5 34t53.5 11h183q57 0 81.5 -12.5t47.5 -44.5l86 -134l86 134q23 33 47 45t82 12h182q35 0 54.5 -11.5t19.5 -33.5q0 -25 -31 -66l-188 -239q-29 -39 -48.5 -49.5t-76.5 -10.5h-254q-58 0 -77.5 10.5t-47.5 49.5l-189 239q-31 41 -30 66zM82 117v1159 q0 59 27.5 88t95.5 29h244q70 0 97 -28t27 -89v-1159q0 -59 -27.5 -88t-96.5 -29h-244q-68 0 -95.5 28.5t-27.5 88.5z" />
<glyph unicode="&#x1d0;" horiz-adv-x="655" d="M-135 1528q0 23 19.5 34t54.5 11h182q57 0 81.5 -12.5t47.5 -44.5l86 -134l86 134q23 33 47.5 45t81.5 12h182q35 0 54.5 -11.5t19.5 -33.5q0 -25 -31 -66l-188 -239q-29 -39 -48.5 -49.5t-76.5 -10.5h-254q-57 0 -76.5 10.5t-48.5 49.5l-188 239q-31 41 -31 66zM82 117 v749q0 59 27.5 88t95.5 29h244q70 0 97 -27.5t27 -89.5v-749q0 -59 -27.5 -88t-96.5 -29h-244q-68 0 -95.5 28.5t-27.5 88.5z" />
<glyph unicode="&#x1d1;" horiz-adv-x="1544" d="M31 696q0 348 188.5 537.5t552.5 189.5q365 0 553 -189.5t188 -537.5t-188 -537.5t-553 -189.5q-364 0 -552.5 189.5t-188.5 537.5zM301 1872q0 23 19.5 34t54.5 11h182q57 0 82 -12.5t47 -44.5l86 -134l86 134q23 33 47.5 45t81.5 12h182q35 0 54.5 -11.5t19.5 -33.5 q0 -25 -31 -66l-188 -239q-29 -39 -48.5 -49.5t-76.5 -10.5h-254q-57 0 -76.5 10.5t-48.5 49.5l-188 239q-31 39 -31 66zM520 696q0 -193 59.5 -288t192.5 -95t192.5 95.5t59.5 287.5q0 195 -59.5 289t-192.5 94t-192.5 -94t-59.5 -289z" />
<glyph unicode="&#x1d2;" horiz-adv-x="1284" d="M31 492q0 160 71.5 277.5t210 181t328.5 63.5q289 0 450.5 -140.5t161.5 -381.5q0 -158 -72.5 -276t-209.5 -182.5t-330 -64.5q-190 0 -328.5 64.5t-210 182.5t-71.5 276zM170 1446q0 23 19.5 34t54.5 11h182q57 0 81.5 -12.5t47.5 -44.5l86 -134l86 134q23 33 47.5 45 t81.5 12h182q35 0 54.5 -11.5t19.5 -33.5q0 -25 -31 -66l-188 -239q-29 -39 -48.5 -49.5t-76.5 -10.5h-254q-57 0 -76.5 10.5t-48.5 49.5l-188 239q-31 41 -31 66zM520 492q0 -178 121 -179q123 1 123 179q0 94 -32 135t-91 41t-90 -41t-31 -135z" />
<glyph unicode="&#x1d3;" horiz-adv-x="1466" d="M61 510v766q0 59 28 88t95 29h244q70 0 97.5 -28t27.5 -89v-772q0 -96 48 -143.5t132 -47.5t132 47.5t48 143.5v772q0 59 28 88t95 29h244q70 0 97.5 -28t27.5 -89v-766q0 -168 -84 -290t-235.5 -186.5t-352.5 -64.5t-352.5 64.5t-235.5 186.5t-84 290zM256 1872 q0 23 19.5 34t54.5 11h182q57 0 81.5 -12.5t47.5 -44.5l86 -134l86 134q23 33 47.5 45t81.5 12h182q35 0 54.5 -11.5t19.5 -33.5q0 -25 -31 -66l-188 -239q-29 -39 -48.5 -49.5t-76.5 -10.5h-254q-57 0 -76.5 10.5t-48.5 49.5l-188 239q-31 41 -31 66z" />
<glyph unicode="&#x1d4;" horiz-adv-x="1249" d="M61 352v514q0 59 28 88t95 29h244q70 0 97.5 -27.5t27.5 -89.5v-491q0 -41 15.5 -60.5t49.5 -19.5q39 0 53.5 19.5t14.5 60.5v491q0 59 27.5 88t95.5 29h244q70 0 97.5 -27.5t27.5 -89.5v-798q0 -41 -15.5 -54.5t-62.5 -13.5h-258q-27 0 -40.5 5t-17.5 24l-12 51 q-55 -49 -146 -80t-198 -31q-170 0 -268.5 95.5t-98.5 287.5zM150 1446q0 23 19 34t54 11h183q57 0 81.5 -12.5t47.5 -44.5l86 -134l86 134q23 33 47 45t82 12h182q35 0 54.5 -11.5t19.5 -33.5q0 -25 -31 -66l-189 -239q-29 -39 -48 -49.5t-76 -10.5h-254q-58 0 -77.5 10.5 t-47.5 49.5l-189 239q-31 41 -30 66z" />
<glyph unicode="&#x1d5;" horiz-adv-x="1466" d="M61 510v766q0 59 28 88t95 29h244q70 0 97.5 -28t27.5 -89v-772q0 -96 48 -143.5t132 -47.5t132 47.5t48 143.5v772q0 59 28 88t95 29h244q70 0 97.5 -28t27.5 -89v-766q0 -168 -84 -290t-235.5 -186.5t-352.5 -64.5t-352.5 64.5t-235.5 186.5t-84 290zM342 1655v59 q0 61 39 103.5t100 42.5h62q61 0 100 -42t39 -104v-59q0 -59 -39 -102.5t-100 -43.5h-62q-59 0 -99 43t-40 103zM346 2075v114q0 61 23.5 89t89.5 28h547q66 0 89 -27.5t23 -89.5v-114q0 -61 -23.5 -89t-88.5 -28h-547q-66 0 -89.5 27.5t-23.5 89.5zM799 1655v59 q0 61 39 103.5t100 42.5h61q61 0 100.5 -42t39.5 -104v-59q0 -59 -39 -102.5t-101 -43.5h-61q-59 0 -99 43t-40 103z" />
<glyph unicode="&#x1d6;" horiz-adv-x="1249" d="M61 352v514q0 59 28 88t95 29h244q70 0 97.5 -27.5t27.5 -89.5v-491q0 -41 15.5 -60.5t49.5 -19.5q39 0 53.5 19.5t14.5 60.5v491q0 59 27.5 88t95.5 29h244q70 0 97.5 -27.5t27.5 -89.5v-798q0 -41 -15.5 -54.5t-62.5 -13.5h-258q-27 0 -40.5 5t-17.5 24l-12 51 q-55 -49 -146 -80t-198 -31q-170 0 -268.5 95.5t-98.5 287.5zM219 1241v59q0 61 39 103.5t100 42.5h62q61 0 100 -42t39 -104v-59q0 -59 -39 -102t-100 -43h-62q-59 0 -99 43t-40 102zM219 1622v115q0 61 23.5 88.5t89.5 27.5h547q66 0 89 -27.5t23 -88.5v-115 q0 -61 -23.5 -89t-88.5 -28h-547q-66 0 -89.5 28t-23.5 89zM676 1241v59q0 61 39 103.5t100 42.5h62q61 0 100 -42t39 -104v-59q0 -59 -39 -102t-100 -43h-62q-59 0 -99 43t-40 102z" />
<glyph unicode="&#x1d7;" horiz-adv-x="1466" d="M61 510v766q0 59 28 88t95 29h244q70 0 97.5 -28t27.5 -89v-772q0 -96 48 -143.5t132 -47.5t132 47.5t48 143.5v772q0 59 28 88t95 29h244q70 0 97.5 -28t27.5 -89v-766q0 -168 -84 -290t-235.5 -186.5t-352.5 -64.5t-352.5 64.5t-235.5 186.5t-84 290zM334 1661v59 q0 61 39 103.5t100 42.5h62q61 0 100 -42t39 -104v-59q0 -59 -39 -102t-100 -43h-62q-59 0 -99 43t-40 102zM582 1927q0 14 6 27l61 166q16 47 34.5 63.5t70.5 16.5h174q70 0 69 -50q0 -29 -20 -61l-80 -135q-31 -53 -54.5 -65.5t-86.5 -12.5h-105q-33 0 -51 14.5t-18 36.5z M791 1661v59q0 61 38.5 103.5t100.5 42.5h61q61 0 100 -42t39 -104v-59q0 -59 -38.5 -102t-100.5 -43h-61q-60 0 -99.5 43t-39.5 102z" />
<glyph unicode="&#x1d8;" horiz-adv-x="1249" d="M61 352v514q0 59 28 88t95 29h244q70 0 97.5 -27.5t27.5 -89.5v-491q0 -41 15.5 -60.5t49.5 -19.5q39 0 53.5 19.5t14.5 60.5v491q0 59 27.5 88t95.5 29h244q70 0 97.5 -27.5t27.5 -89.5v-798q0 -41 -15.5 -54.5t-62.5 -13.5h-258q-27 0 -40.5 5t-17.5 24l-12 51 q-55 -49 -146 -80t-198 -31q-170 0 -268.5 95.5t-98.5 287.5zM215 1235v59q0 61 39 103.5t100 42.5h62q61 0 100 -42t39 -104v-59q0 -59 -39 -102t-100 -43h-62q-59 0 -99 43t-40 102zM463 1501q0 14 6 27l61 166q16 47 35 63.5t70 16.5h174q70 0 70 -50q0 -29 -21 -61 l-80 -135q-31 -53 -54.5 -65.5t-86.5 -12.5h-105q-32 0 -50.5 14.5t-18.5 36.5zM672 1235v59q0 61 39 103.5t100 42.5h61q61 0 100.5 -42t39.5 -104v-59q0 -59 -39 -102t-101 -43h-61q-59 0 -99 43t-40 102z" />
<glyph unicode="&#x1d9;" horiz-adv-x="1466" d="M61 510v766q0 59 28 88t95 29h244q70 0 97.5 -28t27.5 -89v-772q0 -96 48 -143.5t132 -47.5t132 47.5t48 143.5v772q0 59 28 88t95 29h244q70 0 97.5 -28t27.5 -89v-766q0 -168 -84 -290t-235.5 -186.5t-352.5 -64.5t-352.5 64.5t-235.5 186.5t-84 290zM309 2238 q0 20 17.5 31.5t50.5 11.5h164q53 0 77.5 -11t43.5 -44l71 -117l72 117q18 33 42.5 44t78.5 11h164q33 0 50 -11t17 -32q0 -27 -27 -61l-178 -207q-4 -4 -20.5 -23.5t-38 -25.5t-59.5 -6h-201q-39 0 -57.5 5t-28.5 14.5t-33 35.5l-178 207q-27 35 -27 61zM342 1661v59 q0 61 39 103.5t100 42.5h62q61 0 100 -42t39 -104v-59q0 -59 -39 -102t-100 -43h-62q-59 0 -99 43t-40 102zM799 1661v59q0 61 39 103.5t100 42.5h61q61 0 100.5 -42t39.5 -104v-59q0 -59 -39 -102t-101 -43h-61q-59 0 -99 43t-40 102z" />
<glyph unicode="&#x1da;" horiz-adv-x="1249" d="M61 352v514q0 59 28 88t95 29h244q70 0 97.5 -27.5t27.5 -89.5v-491q0 -41 15.5 -60.5t49.5 -19.5q39 0 53.5 19.5t14.5 60.5v491q0 59 27.5 88t95.5 29h244q70 0 97.5 -27.5t27.5 -89.5v-798q0 -41 -15.5 -54.5t-62.5 -13.5h-258q-27 0 -40.5 5t-17.5 24l-12 51 q-55 -49 -146 -80t-198 -31q-170 0 -268.5 95.5t-98.5 287.5zM201 1778q0 20 17.5 31.5t49.5 11.5h164q53 0 78 -11.5t43 -44.5l72 -116l71 116q18 33 43 44.5t78 11.5h164q33 0 50.5 -11.5t17.5 -31.5q0 -27 -27 -62l-178 -207q-4 -4 -20.5 -23.5t-38 -25.5t-60.5 -6h-201 q-39 0 -57 5t-28.5 14.5t-32.5 35.5l-179 207q-27 35 -26 62zM233 1231v59q0 61 39 103.5t101 42.5h61q61 0 100 -42t39 -104v-59q0 -59 -38.5 -102.5t-100.5 -43.5h-61q-60 0 -100 43t-40 103zM690 1231v59q0 61 39 103.5t100 42.5h62q61 0 100 -42t39 -104v-59 q0 -59 -39 -102.5t-100 -43.5h-62q-59 0 -99 43t-40 103z" />
<glyph unicode="&#x1db;" horiz-adv-x="1466" d="M61 510v766q0 59 28 88t95 29h244q70 0 97.5 -28t27.5 -89v-772q0 -96 48 -143.5t132 -47.5t132 47.5t48 143.5v772q0 59 28 88t95 29h244q70 0 97.5 -28t27.5 -89v-766q0 -168 -84 -290t-235.5 -186.5t-352.5 -64.5t-352.5 64.5t-235.5 186.5t-84 290zM334 1657v59 q0 61 39 103.5t100 42.5h62q61 0 100 -42t39 -104v-59q0 -59 -40 -102.5t-99 -43.5h-62q-61 0 -100 43t-39 103zM467 2146q0 49 70 49h174q51 0 69.5 -16t34.5 -63l62 -166q6 -12 6 -27q0 -23 -18.5 -37t-51.5 -14h-104q-64 0 -87.5 12t-54.5 66l-80 135q-20 33 -20 61z M791 1657v59q0 61 38.5 103.5t100.5 42.5h61q61 0 100 -42t39 -104v-59q0 -59 -39.5 -102.5t-99.5 -43.5h-61q-62 0 -100.5 43t-38.5 103z" />
<glyph unicode="&#x1dc;" horiz-adv-x="1249" d="M61 352v514q0 59 28 88t95 29h244q70 0 97.5 -27.5t27.5 -89.5v-491q0 -41 15.5 -60.5t49.5 -19.5q39 0 53.5 19.5t14.5 60.5v491q0 59 27.5 88t95.5 29h244q70 0 97.5 -27.5t27.5 -89.5v-798q0 -41 -15.5 -54.5t-62.5 -13.5h-258q-27 0 -40.5 5t-17.5 24l-12 51 q-55 -49 -146 -80t-198 -31q-170 0 -268.5 95.5t-98.5 287.5zM225 1235v59q0 61 39 103.5t101 42.5h61q61 0 100 -42t39 -104v-59q0 -59 -40 -102t-99 -43h-61q-62 0 -101 43t-39 102zM358 1724q0 49 70 50h174q51 0 69.5 -16.5t35.5 -63.5l61 -166q6 -12 6 -27 q0 -23 -18.5 -37t-50.5 -14h-105q-63 0 -87 12.5t-54 65.5l-80 135q-20 33 -21 61zM682 1235v59q0 61 39 103.5t100 42.5h62q61 0 100 -42t39 -104v-59q0 -59 -40 -102t-99 -43h-62q-61 0 -100 43t-39 102z" />
<glyph unicode="&#x1e6;" horiz-adv-x="1449" d="M31 696q0 358 206.5 542.5t577.5 184.5q168 0 301 -32.5t221 -92.5q25 -18 25 -41q0 -18 -19 -51l-102 -176q-16 -29 -39 -29q-14 0 -47 17q-123 61 -270 61q-170 0 -267.5 -97t-97.5 -286q0 -195 82 -288t244 -93q29 0 64.5 5.5t58.5 11.5v186h-131q-66 0 -89.5 25.5 t-23.5 87.5v112q0 61 23.5 87t89.5 26h440q80 0 110.5 -36t30.5 -113v-480q0 -45 -11 -68.5t-44 -47.5q-197 -141 -547 -142q-373 0 -579.5 183.5t-206.5 543.5zM352 1872q0 23 19.5 34t54.5 11h182q57 0 82 -12.5t47 -44.5l86 -134l86 134q23 33 47.5 45t81.5 12h183 q35 0 54 -11.5t19 -33.5q0 -25 -30 -66l-189 -239q-29 -39 -48 -49.5t-77 -10.5h-254q-57 0 -76.5 10.5t-48.5 49.5l-188 239q-31 39 -31 66z" />
<glyph unicode="&#x1e7;" horiz-adv-x="1282" d="M31 522q0 492 628 492q164 0 309.5 -46t241.5 -116v-639q0 -166 -70.5 -293t-204.5 -197.5t-317 -70.5q-126 0 -240 21.5t-194 66.5q-31 16 -30 37q0 10 12 33l102 172q18 33 39 32q6 0 31 -8q39 -14 109.5 -23.5t121.5 -9.5q160 0 160 111v6q-33 -14 -87 -24.5 t-103 -10.5q-252 0 -380 119t-128 348zM182 1446q0 23 19.5 34t54.5 11h182q57 0 82 -12.5t47 -44.5l86 -134l86 134q23 33 47.5 45t81.5 12h183q35 0 54 -11.5t19 -33.5q0 -25 -30 -66l-189 -239q-29 -39 -48 -49.5t-77 -10.5h-254q-57 0 -76.5 10.5t-48.5 49.5l-188 239 q-31 41 -31 66zM520 543q0 -82 29 -117t94 -35q51 0 72.5 23.5t21.5 77.5v188q-23 8 -59 8q-68 0 -94.5 -5t-45 -36t-18.5 -104z" />
<glyph unicode="&#x1fa;" horiz-adv-x="1540" d="M31 43q0 18 10 45l510 1227q14 35 35 55q-35 37 -54.5 84t-19.5 100q0 109 76 186t184 77q109 0 185.5 -77t76.5 -186q0 -55 -20.5 -102t-57.5 -82q18 -16 35 -55l508 -1227q10 -27 10 -45q0 -43 -45 -43h-385q-63 0 -80 55l-49 152h-362l-47 -152q-16 -55 -80 -55h-385 q-45 0 -45 43zM575 1913q0 16 7 35l86 237q16 47 38.5 63.5t84.5 16.5h292q43 0 68 -15.5t25 -43.5q0 -25 -17 -52l-131 -221q-29 -49 -55.5 -63.5t-95.5 -14.5h-220q-82 1 -82 58zM690 530h160l-80 254zM709 1554q0 -27 18 -45t45 -18t45.5 18.5t18.5 44.5q0 27 -18.5 45.5 t-45.5 18.5t-45 -18.5t-18 -45.5z" />
<glyph unicode="&#x1fb;" horiz-adv-x="1269" d="M31 449q0 168 86 296.5t238.5 198.5t342.5 70q164 0 278 -32t222 -103v-811q0 -41 -15.5 -54.5t-62.5 -13.5h-258q-23 0 -35 6t-22 23l-33 51q-59 -55 -137 -83t-186 -28q-189 0 -303.5 126t-114.5 354zM442 1335q0 109 76 185.5t184 76.5q109 0 186 -76.5t77 -185.5 t-77 -184.5t-186 -75.5q-108 0 -184 76t-76 184zM479 1681q0 14 6 29l86 191q16 37 39 50t84 13h293q43 0 67.5 -12.5t24.5 -34.5q0 -18 -16 -41l-131 -178q-29 -39 -54.5 -50.5t-97.5 -11.5h-219q-82 0 -82 45zM520 449q0 -154 111 -154q51 0 84 28.5t33 79.5v279 q-18 8 -50 8q-84 0 -131 -62.5t-47 -178.5zM639 1335q0 -27 18.5 -45t44.5 -18q27 0 45.5 18.5t18.5 44.5q0 27 -18.5 45.5t-45.5 18.5t-45 -18.5t-18 -45.5z" />
<glyph unicode="&#x1fc;" horiz-adv-x="1794" d="M33 43q0 18 10 45l510 1227q18 43 41.5 60.5t67.5 17.5h999q66 0 89.5 -28t23.5 -89v-115q0 -61 -24 -89t-89 -28h-438v-176h254q66 0 89 -27.5t23 -88.5v-111q0 -61 -23.5 -89t-88.5 -28h-254v-176h436q66 0 89.5 -27.5t23.5 -89.5v-114q0 -61 -24 -89t-89 -28h-764 q-68 0 -95.5 28.5t-27.5 88.5v96h-182l-47 -158q-16 -55 -80 -55h-385q-45 0 -45 43zM678 530h94v322zM838 1516q0 16 6 34l86 238q16 47 38.5 63.5t84.5 16.5h293q43 0 67.5 -15.5t24.5 -44.5q0 -25 -17 -51l-131 -221q-29 -49 -55.5 -63.5t-95.5 -14.5h-219q-82 1 -82 58z " />
<glyph unicode="&#x1fd;" horiz-adv-x="1886" d="M31 301q0 166 107.5 244t324.5 78h231v12q0 35 -49 59.5t-160 24.5q-59 0 -116.5 -12.5t-102.5 -32.5q-25 -12 -39 -12q-18 0 -34 28l-80 152q-12 23 -13 37q0 23 29 39q86 51 182.5 73.5t223.5 22.5q135 0 236 -37t161 -109q57 70 149.5 108t208.5 38q279 0 422 -134.5 t143 -365.5q0 -59 -24.5 -88t-75.5 -29h-584q0 -61 59.5 -97t164.5 -36q80 0 124 13.5t105 41.5q25 12 39 13q18 0 35 -29l80 -151q12 -20 12 -37q0 -23 -29 -39q-92 -57 -185 -82t-237 -25q-274 0 -407 174q-168 -174 -445 -174q-213 0 -334.5 83t-121.5 249zM436 328 q0 -63 107 -64q82 0 116.5 31t34.5 90v12h-159q-45 0 -72 -15t-27 -54zM698 1176q0 16 7 34l86 238q16 47 38.5 63.5t83.5 16.5h293q43 0 67.5 -15.5t24.5 -44.5q0 -25 -16 -51l-131 -221q-29 -49 -55.5 -63.5t-96.5 -14.5h-219q-82 1 -82 58zM1171 627h256q0 111 -129 110 q-63 0 -95 -29.5t-32 -80.5z" />
<glyph unicode="&#x1fe;" horiz-adv-x="1544" d="M31 696q0 348 188.5 537.5t552.5 189.5q59 0 115 -6l26 66q12 27 31 41t49 14h254q45 0 45 -43q0 -18 -10 -45l-57 -137q143 -88 215.5 -245t72.5 -372q0 -348 -188 -537.5t-553 -189.5q-35 0 -96 4l-39 -94q-12 -27 -30.5 -41t-49.5 -14h-254q-45 0 -45 43q0 18 10 45 l66 158q-152 88 -227.5 246.5t-75.5 379.5zM520 696q0 -94 10 -147l218 528q-121 -8 -174.5 -102t-53.5 -279zM563 1626q0 16 6 35l86 237q16 47 39 63.5t84 16.5h293q43 0 67.5 -15t24.5 -44q0 -25 -16 -51l-131 -221q-29 -49 -55.5 -63.5t-96.5 -14.5h-219q-82 0 -82 57z M817 315q109 17 158 111t49 270q0 61 -6 111z" />
<glyph unicode="&#x1ff;" horiz-adv-x="1284" d="M31 492q0 160 71.5 277.5t210 181t328.5 63.5h29l43 104q12 27 30.5 41.5t49.5 14.5h254q45 0 45 -44q0 -18 -11 -45l-65 -159q115 -66 176 -177.5t61 -256.5q0 -236 -154.5 -375.5t-432.5 -147.5l-37 -92q-12 -27 -30.5 -41t-49.5 -14h-254q-45 0 -45 43q0 18 10 45 l51 123q-137 63 -208.5 181t-71.5 278zM498 1262q0 16 6 34l86 238q16 47 38.5 63.5t84.5 16.5h293q43 0 67.5 -15.5t24.5 -44.5q0 -25 -17 -51l-131 -221q-29 -49 -55.5 -63.5t-95.5 -14.5h-219q-82 1 -82 58zM520 492q0 -178 121 -179q123 1 123 179q0 94 -32 135t-91 41 t-90 -41t-31 -135z" />
<glyph unicode="&#x218;" horiz-adv-x="1259" d="M33 172q0 18 14 39l119 186q18 27 37 27q16 0 39 -14q74 -45 169 -71t185 -26q76 0 109.5 20.5t33.5 63.5q0 47 -45 76t-155 72q-207 80 -326 181t-119 269q0 213 148.5 320.5t400.5 107.5q176 0 300 -30.5t216 -96.5q41 -29 41 -55q0 -18 -14 -39l-119 -186 q-18 -29 -37 -29q-12 0 -39 17q-49 33 -116.5 54t-145.5 21q-72 0 -108.5 -20.5t-36.5 -65.5q0 -37 25.5 -61.5t64.5 -42t135 -55.5q154 -61 242 -118t133 -135.5t45 -199.5q0 -184 -138.5 -298t-412.5 -114q-186 0 -346 39t-258 109q-41 29 -41 55zM371 -520q0 8 4 28 l90 332q14 53 37.5 69.5t79.5 16.5h192q47 0 68.5 -12t21.5 -39q0 -25 -18 -68l-137 -321q-12 -27 -32 -40t-56 -13h-189q-61 0 -61 47z" />
<glyph unicode="&#x219;" horiz-adv-x="1116" d="M31 129q0 14 12 35l100 180q14 25 35 25q16 0 41 -13q55 -29 143.5 -54.5t153.5 -25.5q43 0 59.5 7.5t16.5 23.5t-30 28.5t-99 31.5q-20 6 -40 11t-38 11q-170 51 -242.5 117.5t-72.5 185.5q0 156 135 239t366 83q143 0 245 -23.5t200 -75.5q43 -25 43 -51q0 -16 -17 -43 l-98 -155q-16 -25 -31 -25q-6 0 -39 14q-47 23 -108 38.5t-113 15.5q-111 0 -110 -37q0 -16 35.5 -28.5t121.5 -33.5q113 -27 156 -41q92 -33 141.5 -67.5t68.5 -80.5t19 -120q0 -90 -56 -166t-172 -121t-286 -45q-294 0 -495 111q-45 25 -45 49zM328 -520q0 8 4 28l90 332 q14 53 37.5 69.5t79.5 16.5h192q47 0 68.5 -12t21.5 -39q0 -25 -18 -68l-137 -321q-12 -27 -32 -40t-56 -13h-189q-61 0 -61 47z" />
<glyph unicode="&#x21a;" horiz-adv-x="1286" d="M-10 1161v115q0 61 23.5 89t88.5 28h1082q66 0 89 -28t23 -89v-115q0 -61 -23.5 -89t-88.5 -28h-295v-927q0 -59 -27.5 -88t-97.5 -29h-244q-67 0 -95 28.5t-28 88.5v927h-295q-66 0 -89 28t-23 89zM360 -520q0 8 5 28l90 332q14 53 37.5 69.5t78.5 16.5h193 q47 0 68.5 -12t21.5 -39q0 -25 -18 -68l-138 -321q-12 -27 -31.5 -40t-56.5 -13h-188q-62 0 -62 47z" />
<glyph unicode="&#x21b;" horiz-adv-x="1030" d="M10 772v94q0 61 23.5 89t89.5 28h65v23q0 53 27 107t74 134q23 39 43 51.5t76 12.5h147q70 0 97.5 -28t27.5 -89v-211h123q66 0 89 -27.5t23 -89.5v-94q0 -61 -23.5 -89t-88.5 -28h-123v-247q0 -47 19.5 -71t62.5 -24q31 0 45 6.5t43 24.5q18 12 35 12q25 0 41 -28 l96 -166q18 -33 18 -53q0 -23 -24 -39q-76 -49 -169 -75t-224 -26q-209 0 -322 114t-113 316v256h-65q-66 0 -89.5 28t-23.5 89zM305 -520q0 8 4 28l90 332q14 53 38 69.5t79 16.5h193q47 0 68.5 -12t21.5 -39q0 -25 -19 -68l-137 -321q-12 -27 -31.5 -40t-56.5 -13h-188 q-62 0 -62 47z" />
<glyph unicode="&#x237;" horiz-adv-x="788" d="M-307 -172q0 18 18 51l103 176q20 33 43 33q14 0 41 -18q98 -74 188 -74q139 0 139 133v737q0 59 28 88t95 29h244q70 0 97.5 -27.5t27.5 -89.5v-741q0 -217 -135.5 -345t-388.5 -128q-292 0 -476 135q-25 18 -24 41z" />
<glyph unicode="&#x251;" horiz-adv-x="1269" d="M31 449q0 168 86 296.5t238.5 198.5t342.5 70q164 0 278 -32t222 -103v-811q0 -41 -15.5 -54.5t-62.5 -13.5h-258q-23 0 -35 6t-22 23l-33 51q-59 -55 -137 -83t-186 -28q-189 0 -303.5 126t-114.5 354zM520 449q0 -154 111 -154q51 0 84 28.5t33 79.5v279q-18 8 -50 8 q-84 0 -131 -62.5t-47 -178.5z" />
<glyph unicode="&#x259;" horiz-adv-x="1212" d="M31 469q0 59 24.5 88t75.5 29h590q0 61 -59.5 97t-163.5 36q-80 0 -129.5 -13.5t-106.5 -41.5q-25 -12 -39 -13q-18 0 -35 29l-79 151q-12 23 -13 37q0 23 29 39q174 106 448 107q176 0 314.5 -59.5t216.5 -175t78 -279.5q0 -258 -150.5 -394.5t-435.5 -136.5 q-279 0 -422 134.5t-143 365.5zM465 356q0 -111 129 -110q63 0 95 29.5t32 80.5h-256z" />
<glyph unicode="&#x2bb;" horiz-adv-x="567" d="M33 954q0 29 16 68l148 348q12 27 31.5 40t56.5 13h188q61 0 62 -47q0 -8 -5 -28l-100 -359q-14 -53 -37.5 -69.5t-79.5 -16.5h-192q-47 0 -67.5 12.5t-20.5 38.5z" />
<glyph unicode="&#x2bc;" horiz-adv-x="567" d="M33 950q0 8 4 29l100 358q14 53 38 69.5t79 16.5h192q47 0 68 -12t21 -39q0 -29 -17 -67l-147 -349q-12 -27 -32 -40t-56 -13h-189q-61 0 -61 47z" />
<glyph unicode="&#x2be;" d="M-199 1106v199q0 20 9.5 27t29.5 7q37 0 55.5 9.5t18.5 40.5t-18.5 40t-55.5 9q-20 0 -29.5 7t-9.5 28v198q0 14 10.5 23.5t26.5 9.5q182 0 272.5 -67.5t90.5 -247.5q0 -178 -95.5 -247t-267.5 -69q-16 0 -26.5 9.5t-10.5 23.5z" />
<glyph unicode="&#x2bf;" d="M-199 1389q0 180 90.5 247.5t272.5 67.5q16 0 26.5 -9t10.5 -24v-198q0 -20 -9.5 -27.5t-29.5 -7.5q-37 0 -55.5 -9.5t-18.5 -39.5q0 -31 18.5 -40.5t55.5 -9.5q20 0 29.5 -7t9.5 -27v-199q0 -14 -10.5 -23.5t-26.5 -9.5q-172 0 -267.5 68.5t-95.5 247.5z" />
<glyph unicode="&#x2c6;" horiz-adv-x="1003" d="M31 1169q0 27 30 66l189 240q29 39 48 49t77 10h254q57 0 76.5 -10.5t48.5 -48.5l188 -240q31 -39 31 -66q0 -23 -19.5 -34t-54.5 -11h-182q-57 0 -82 12.5t-47 45.5l-86 133l-86 -133q-23 -33 -47.5 -45.5t-81.5 -12.5h-183q-34 0 -53.5 11.5t-19.5 33.5z" />
<glyph unicode="&#x2c7;" horiz-adv-x="1003" d="M31 1528q0 23 19.5 34t53.5 11h183q57 0 81.5 -12.5t47.5 -44.5l86 -134l86 134q23 33 47 45t82 12h182q35 0 54.5 -11.5t19.5 -33.5q0 -25 -31 -66l-188 -239q-29 -39 -48.5 -49.5t-76.5 -10.5h-254q-58 0 -77 10.5t-48 49.5l-189 239q-31 41 -30 66z" />
<glyph unicode="&#x2c8;" d="M-184 1235v184q0 66 30.5 91.5t92.5 25.5h122q61 0 92 -25.5t31 -91.5v-184q0 -66 -30.5 -91.5t-92.5 -25.5h-122q-62 0 -92.5 25.5t-30.5 91.5z" />
<glyph unicode="&#x2c9;" d="M-385 1268v114q0 61 23.5 89t89.5 28h546q66 0 89.5 -27.5t23.5 -89.5v-114q0 -61 -23.5 -89t-89.5 -28h-546q-66 0 -89.5 27.5t-23.5 89.5z" />
<glyph unicode="&#x2ca;" d="M-299 1196q0 16 6 35l86 237q16 47 39 63.5t84 16.5h293q43 0 67.5 -15t24.5 -44q0 -25 -16 -51l-131 -221q-29 -49 -55.5 -63.5t-96.5 -14.5h-219q-82 0 -82 57z" />
<glyph unicode="&#x2cb;" d="M-299 1489q0 29 24.5 44t67.5 15h293q63 0 85 -16t38 -64l86 -237q8 -25 8 -35q0 -57 -84 -57h-219q-70 0 -96.5 14t-55.5 64l-131 221q-16 27 -16 51z" />
<glyph unicode="&#x2cc;" d="M-184 -188q0 66 30.5 91t92.5 25h122q61 0 92 -25.5t31 -90.5v-185q0 -66 -30.5 -91t-92.5 -25h-122q-62 0 -92.5 25.5t-30.5 90.5v185z" />
<glyph unicode="&#x2d8;" horiz-adv-x="884" d="M31 1507q0 16 9 26.5t23 10.5h265q20 0 27 -9t7 -30q0 -37 22 -55t58 -18q37 0 58.5 18t21.5 55q0 20 7.5 29.5t27.5 9.5h264q14 0 23.5 -10t9.5 -27q0 -160 -106.5 -261t-305.5 -101q-200 0 -305.5 100.5t-105.5 261.5z" />
<glyph unicode="&#x2d9;" horiz-adv-x="401" d="M31 1294v60q0 61 39 103t100 42h61q61 0 100.5 -42t39.5 -103v-60q0 -59 -39 -102t-101 -43h-61q-59 0 -99 43t-40 102z" />
<glyph unicode="&#x2da;" horiz-adv-x="583" d="M31 1368q0 109 75.5 185.5t184.5 76.5t185.5 -76.5t76.5 -185.5t-77 -184.5t-185 -75.5q-109 0 -184.5 76t-75.5 184zM227 1368q0 -27 18.5 -45t45.5 -18q26 0 44.5 18t18.5 45t-18.5 45.5t-44.5 18.5q-27 0 -45.5 -18.5t-18.5 -45.5z" />
<glyph unicode="&#x2db;" horiz-adv-x="542" d="M31 -309q0 57 29.5 116.5t95.5 135.5q14 16 23 21t28 5h237q18 0 24.5 -10t-3.5 -22t-20.5 -23.5t-18.5 -24.5q-55 -66 -72.5 -94t-17.5 -63q0 -27 13 -41.5t36 -14.5q29 0 45 9q12 4 14 4q8 0 15 -15l49 -104q4 -8 4 -12q0 -12 -25 -23q-82 -37 -235 -37 q-113 0 -167 54.5t-54 138.5z" />
<glyph unicode="&#x2dc;" horiz-adv-x="1052" d="M31 1272q0 29 30 71q70 100 130.5 144.5t148.5 44.5q61 0 106.5 -16.5t100.5 -45.5q41 -20 64.5 -29t47.5 -9q33 0 54.5 14t54.5 53q20 27 51 27q39 0 125 -64q41 -29 58.5 -52.5t17.5 -47.5q0 -27 -31 -74q-68 -100 -128 -142t-150 -42q-43 0 -80 13t-90 42 q-51 25 -79 35t-59 10q-35 0 -59.5 -14t-56.5 -53q-20 -27 -51 -27q-39 0 -125 64q-43 33 -61.5 54t-18.5 44z" />
<glyph unicode="&#x2dd;" horiz-adv-x="1200" d="M33 1196q0 18 8 35l117 237q16 35 26.5 49.5t32 22.5t64.5 8h251q43 0 70 -15t27 -44q0 -23 -21 -51l-162 -221q-27 -37 -41 -50.5t-38.5 -20.5t-71.5 -7h-178q-84 0 -84 57zM571 1196q0 18 9 35l116 237q16 35 26.5 49.5t32 22.5t64.5 8h252q43 0 69.5 -15t26.5 -44 q0 -23 -20 -51l-162 -221q-27 -37 -41 -50.5t-38.5 -20.5t-71.5 -7h-179q-84 0 -84 57z" />
<glyph unicode="&#x300;" d="M-299 1468q0 29 24.5 44.5t67.5 15.5h293q63 0 85 -16.5t38 -63.5l86 -238q8 -25 8 -34q0 -57 -84 -58h-219q-70 0 -96.5 14.5t-55.5 63.5l-131 221q-16 27 -16 51z" />
<glyph unicode="&#x301;" d="M-299 1176q0 16 6 34l86 238q16 47 39 63.5t84 16.5h293q43 0 67.5 -15.5t24.5 -44.5q0 -25 -16 -51l-131 -221q-29 -49 -55.5 -63.5t-96.5 -14.5h-219q-82 1 -82 58z" />
<glyph unicode="&#x302;" d="M-471 1169q0 27 31 66l188 240q29 39 48.5 49t76.5 10h254q57 0 76.5 -10.5t48.5 -48.5l188 -240q31 -39 31 -66q0 -23 -19.5 -34t-54.5 -11h-182q-57 0 -81.5 12.5t-47.5 45.5l-86 133l-86 -133q-23 -33 -47.5 -45.5t-81.5 -12.5h-182q-35 0 -54.5 11.5t-19.5 33.5z" />
<glyph unicode="&#x303;" d="M-496 1272q0 29 31 71q70 100 130.5 144.5t148.5 44.5q61 0 106 -16.5t100 -45.5q41 -20 65 -29t48 -9q33 0 54.5 14t54.5 53q20 27 51 27q39 0 125 -64q41 -29 58.5 -52.5t17.5 -47.5q0 -27 -31 -74q-68 -100 -128.5 -142t-150.5 -42q-43 0 -79.5 13t-90.5 42 q-51 25 -78.5 35t-58.5 10q-37 0 -60.5 -14t-56.5 -53q-20 -27 -51 -27q-39 0 -125 64q-43 33 -61.5 54t-18.5 44z" />
<glyph unicode="&#x304;" d="M-385 1247v115q0 61 23.5 89t89.5 28h546q66 0 89.5 -28t23.5 -89v-115q0 -61 -23.5 -89t-89.5 -28h-546q-66 0 -89.5 28t-23.5 89z" />
<glyph unicode="&#x306;" d="M-412 1487q0 16 9.5 26.5t23.5 10.5h264q20 0 27.5 -9.5t7.5 -29.5q0 -37 21.5 -55.5t58.5 -18.5t58.5 18.5t21.5 55.5q0 20 7 29.5t28 9.5h264q14 0 23.5 -10.5t9.5 -26.5q0 -160 -106.5 -261.5t-305.5 -101.5q-201 0 -306.5 100.5t-105.5 262.5z" />
<glyph unicode="&#x307;" d="M-170 1274v59q0 61 39 103.5t100 42.5h62q61 0 100 -42t39 -104v-59q0 -59 -39 -102.5t-100 -43.5h-62q-59 0 -99 43t-40 103z" />
<glyph unicode="&#x308;" d="M-397 1212v60q0 61 39 103t100 42h61q61 0 100.5 -42t39.5 -103v-60q0 -59 -39 -102t-101 -43h-61q-59 0 -99 43t-40 102zM59 1212v60q0 61 39 103t101 42h61q61 0 100 -42t39 -103v-60q0 -59 -38.5 -102t-100.5 -43h-61q-60 0 -100 43t-40 102z" />
<glyph unicode="&#x309;" d="M-291 1548q0 10 12 19q45 29 122 47t147 18q150 0 225.5 -58t75.5 -171q0 -96 -52.5 -153.5t-129.5 -57.5v-27q0 -47 -48 -47h-190q-47 0 -47 47v113q0 37 14.5 50t61.5 13q45 0 66.5 9.5t21.5 31.5q0 18 -13.5 26.5t-42.5 8.5q-33 0 -61.5 -9t-69.5 -28q-4 -2 -10 -2 q-10 0 -14 11l-64 145q-4 8 -4 14z" />
<glyph unicode="&#x30a;" d="M-260 1368q0 109 75.5 185.5t184.5 76.5t185.5 -76.5t76.5 -185.5t-76.5 -184.5t-185.5 -75.5t-184.5 76t-75.5 184zM-63 1368q0 -27 18 -45t45 -18t45 18t18 45t-18 45.5t-45 18.5t-45 -18.5t-18 -45.5z" />
<glyph unicode="&#x30b;" d="M-567 1196q0 18 8 35l117 237q16 35 26 49.5t32 22.5t65 8h251q43 0 70 -15t27 -44q0 -23 -21 -51l-162 -221q-27 -37 -41 -50.5t-38.5 -20.5t-71.5 -7h-178q-84 0 -84 57zM-29 1196q0 18 9 35l116 237q16 35 26.5 49.5t32 22.5t64.5 8h252q43 0 69.5 -15t26.5 -44 q0 -23 -20 -51l-162 -221q-27 -37 -41 -50.5t-38.5 -20.5t-72.5 -7h-178q-84 0 -84 57z" />
<glyph unicode="&#x30c;" d="M-471 1507q0 23 19.5 34t54.5 11h182q57 0 81.5 -12t47.5 -45l86 -133l86 133q23 33 47.5 45t81.5 12h182q35 0 54.5 -11t19.5 -34q0 -25 -31 -65l-188 -240q-29 -39 -48.5 -49t-76.5 -10h-254q-57 0 -76.5 10t-48.5 49l-188 240q-31 41 -31 65z" />
<glyph unicode="&#x31b;" d="M-317 975v311q106 0 157 13.5t71.5 48t20.5 106.5q0 49 11.5 64.5t44.5 15.5h264q41 0 53 -15.5t12 -66.5q0 -162 -54 -265.5t-193.5 -157.5t-386.5 -54z" />
<glyph unicode="&#x323;" d="M-170 -240q0 61 39 103.5t100 42.5h62q61 0 100 -42t39 -104v-59q0 -59 -39 -102t-100 -43h-62q-59 0 -99 43t-40 102v59z" />
<glyph unicode="&#x324;" d="M-397 -240q0 61 39 103.5t100 42.5h61q61 0 100.5 -42t39.5 -104v-59q0 -59 -39 -102t-101 -43h-61q-59 0 -99 43t-40 102v59zM59 -240q0 61 39 103.5t101 42.5h61q61 0 100 -42t39 -104v-59q0 -59 -38.5 -102t-100.5 -43h-61q-60 0 -100 43t-40 102v59z" />
<glyph unicode="&#x326;" d="M-250 -545q0 8 4 29l101 358q14 53 37.5 69.5t78.5 16.5h193q47 0 67.5 -12t20.5 -39q0 -29 -16 -67l-148 -349q-12 -27 -31.5 -40t-56.5 -13h-188q-62 0 -62 47z" />
<glyph unicode="&#x327;" d="M-264 -448.5q-4 6.5 2 20.5l49 129q6 14 18 14q6 0 19 -6q41 -20 84 -20q61 0 61 35q0 27 -22.5 37t-73.5 10h-37q-16 0 -21 9t1 23l55 138q6 16 15.5 22t29.5 6h250q25 0 24 -16q0 -10 -4 -16l-47 -103q68 -14 98.5 -50t30.5 -101q0 -78 -72.5 -131.5t-215.5 -53.5 q-60 0 -125.5 11.5t-96.5 25.5q-18 10 -22 16.5z" />
<glyph unicode="&#x328;" d="M-240 -309q0 57 30 116.5t95 135.5q14 16 23.5 21t28.5 5h237q18 0 24.5 -10t-3.5 -22t-20.5 -23.5t-18.5 -24.5q-55 -66 -72.5 -94t-17.5 -63q0 -27 13 -41.5t36 -14.5q29 0 45 9q12 4 14 4q8 0 14 -15l50 -104q4 -8 4 -12q0 -12 -25 -23q-82 -37 -235 -37 q-113 0 -167.5 54.5t-54.5 138.5z" />
<glyph unicode="&#x32e;" d="M-412 -113q0 16 9.5 26.5t23.5 10.5h264q20 0 27.5 -9t7.5 -30q0 -37 21.5 -55t58.5 -18t58.5 18t21.5 55q0 20 7 29.5t28 9.5h264q14 0 23.5 -10t9.5 -27q0 -160 -106.5 -261t-305.5 -101q-201 0 -306.5 100.5t-105.5 261.5z" />
<glyph unicode="&#x331;" d="M-352 -219q0 61 23.5 89t88.5 28h480q66 0 89 -28t23 -89v-74q0 -61 -23.5 -89t-88.5 -28h-480q-65 0 -88.5 28t-23.5 89v74z" />
<glyph unicode="&#x394;" horiz-adv-x="1601" d="M33 63q0 27 10 48l571 1312q12 31 27.5 41.5t46.5 10.5h230q31 0 46 -10.5t27 -41.5l568 -1312q10 -20 10 -48q0 -63 -86 -63h-1364q-86 0 -86 63zM631 350h340l-170 400z" />
<glyph unicode="&#x3a9;" horiz-adv-x="1490" d="M31 117v114q0 61 23.5 89t88.5 28h78q-84 59 -135 170t-51 236q0 307 166 488t544 181q379 0 545 -181t166 -488q0 -125 -51 -235.5t-135 -170.5h78q66 0 89 -27.5t23 -89.5v-114q0 -61 -23.5 -89t-88.5 -28h-430q-82 0 -110 23.5t-28 93.5v94q0 39 15.5 71.5t62.5 88.5 q55 68 82 152.5t27 230.5q0 166 -52.5 245.5t-169.5 79.5t-169 -79.5t-52 -245.5q0 -145 27 -230.5t82 -152.5q47 -55 62.5 -88t15.5 -72v-94q0 -70 -28 -93.5t-110 -23.5h-430q-65 0 -88.5 27.5t-23.5 89.5z" />
<glyph unicode="&#x3bc;" horiz-adv-x="1177" d="M31 -246v1112q0 59 27.5 88t95.5 29h243q70 0 97.5 -27.5t27.5 -89.5v-491q0 -41 15.5 -60.5t50.5 -19.5q39 0 53 19.5t14 60.5v491q0 59 28 88t95 29h244q70 0 97.5 -27.5t27.5 -89.5v-798q0 -41 -15.5 -54.5t-62.5 -13.5h-258q-27 0 -40 5t-17 24l-13 51 q-43 -37 -94 -58.5t-125 -21.5v-246q0 -61 -27.5 -88.5t-97.5 -27.5h-243q-68 0 -95.5 28.5t-27.5 87.5z" />
<glyph unicode="&#x3c0;" horiz-adv-x="1568" d="M10 752v114q0 61 23.5 89t89.5 28h143h836h133q66 0 89.5 -27.5t23.5 -89.5v-114q0 -61 -24 -89t-89 -28h-21v-240q0 -43 15.5 -62.5t50.5 -19.5q25 0 43 7.5t47 23.5q14 8 31 8q23 0 39 -24l102 -178q14 -23 14 -41q0 -20 -26 -39q-78 -51 -160 -76t-211 -25 q-209 0 -306 106.5t-97 323.5v236h-142v-518q0 -59 -27.5 -88t-97.5 -29h-223q-68 0 -95.5 28.5t-27.5 88.5v518h-20q-66 0 -89.5 27.5t-23.5 89.5z" />
<glyph unicode="&#xe01;" horiz-adv-x="1312" d="M31 840q0 37 45 75q90 78 250.5 134.5t332.5 56.5q582 0 582 -475v-514q0 -59 -27.5 -88t-97.5 -29h-244q-68 0 -95 28.5t-27 88.5v522q0 63 -20.5 92t-72.5 29q-66 0 -112 -27l12 -22q25 -45 25 -107v-487q0 -59 -28 -88t-97 -29h-244q-68 0 -95.5 28.5t-27.5 88.5v536 l-39 103q-20 53 -20 84z" />
<glyph unicode="&#xe02;" horiz-adv-x="1241" d="M31 809v184q0 45 17.5 63.5t64.5 18.5h370q68 0 95.5 -28.5t27.5 -88.5v-192q0 -59 -37 -98q-27 -29 -35 -57.5t-8 -86.5v-137q0 -74 74 -74q35 0 56.5 18.5t21.5 55.5v571q0 59 27.5 88t95.5 29h243q70 0 97.5 -27.5t27.5 -89.5v-550q0 -129 -67.5 -228.5t-195.5 -155 t-304 -55.5q-266 0 -414.5 102.5t-148.5 295.5v67q0 92 37 164t106 113v16h-69q-47 0 -64.5 18.5t-17.5 63.5z" />
<glyph unicode="&#xe03;" horiz-adv-x="1269" d="M31 737v291q0 47 47 47h190q47 0 47 -47v-8q35 27 77 41t102 14q84 0 130 -46t46 -130v-154q0 -100 -49 -143q-39 -33 -52.5 -63.5t-13.5 -81.5v-70q0 -74 74 -74q35 0 56.5 18.5t21.5 55.5v571q0 59 27.5 88t94.5 29h244q70 0 97.5 -27.5t27.5 -89.5v-550 q0 -129 -67.5 -228.5t-195.5 -155t-304 -55.5q-262 0 -412.5 92.5t-150.5 251.5v56q0 117 69.5 200.5t192.5 132.5v31q0 37 -27 37q-25 0 -33 -20v-15q0 -45 -43 -45h-149q-47 0 -47 47z" />
<glyph unicode="&#xe04;" horiz-adv-x="1304" d="M72 117v530q0 227 142 343t437 116q582 0 582 -459v-530q0 -59 -27.5 -88t-97.5 -29h-244q-68 0 -95.5 28.5t-27.5 88.5v516q0 72 -18 100.5t-72 28.5q-51 0 -69.5 -28.5t-18.5 -100.5v-68q23 23 64 23h26q25 0 33 -10.5t8 -45.5v-231q0 -35 -8 -45t-33 -10h-43 q-20 0 -33.5 -12.5t-13.5 -34.5v-82q0 -59 -27.5 -88t-97.5 -29h-243q-68 0 -95.5 28.5t-27.5 88.5z" />
<glyph unicode="&#xe05;" horiz-adv-x="1304" d="M72 117v682q0 147 75.5 227t251.5 80q76 0 144.5 -26.5t109.5 -71.5q39 45 107.5 71.5t144.5 26.5q176 0 252 -80t76 -227v-682q0 -59 -27.5 -88t-97.5 -29h-244q-68 0 -95.5 28.5t-27.5 88.5v596q0 25 -6 37t-26 12t-37 -25q-10 -12 -17.5 -17t-19.5 -5q-14 0 -22.5 5 t-18.5 17q-2 4 -8 11.5t-13.5 10.5t-17.5 3q-18 0 -24.5 -12.5t-6.5 -36.5v-174q16 20 48 34.5t55 14.5h26q25 0 33 -10.5t8 -45.5v-231q0 -35 -8 -45t-33 -10h-43q-20 0 -33.5 -12.5t-13.5 -34.5v-82q0 -59 -27.5 -88t-97.5 -29h-243q-68 0 -95.5 28.5t-27.5 88.5z" />
<glyph unicode="&#xe06;" horiz-adv-x="1267" d="M31 737v291q0 47 47 47h190q47 0 47 -47v-8q35 27 77 41t102 14q84 0 130 -46t46 -130v-154q0 -100 -49 -143q-39 -33 -52.5 -63.5t-13.5 -81.5v-82q0 -41 17.5 -60.5t58.5 -19.5q39 0 56.5 19.5t17.5 60.5v583q0 61 28.5 89t95.5 28h244q68 0 95.5 -28.5t27.5 -88.5 v-606q0 -195 -106.5 -289t-292.5 -94q-203 0 -328 111l-8 -35q-8 -45 -66 -45h-225q-51 0 -79 25.5t-28 76.5v267q0 117 71 200.5t196 132.5v31q0 37 -27 37q-25 0 -33 -20v-15q0 -45 -43 -45h-149q-47 0 -47 47z" />
<glyph unicode="&#xe07;" horiz-adv-x="1253" d="M12 670q0 18 11.5 28.5t35.5 18.5l306 104q31 12 49 13q18 0 29.5 -13.5t21.5 -44.5l121 -381q14 -43 29.5 -62.5t46.5 -19.5q39 0 57 57.5t18 182.5q0 111 -18.5 160t-61.5 49q-37 0 -67 -12q-16 -6 -27 -7q-27 0 -39 35l-73 189q-8 25 -9 32q0 18 25 33 q78 41 145.5 57.5t165.5 16.5q207 0 326 -145.5t119 -407.5q0 -283 -159 -433.5t-441 -150.5q-215 0 -331 84t-165 240l-104 328q-10 35 -11 49z" />
<glyph unicode="&#xe08;" horiz-adv-x="1218" d="M31 940q0 23 24 41q86 59 225.5 92t307.5 33q600 0 600 -574q0 -279 -146.5 -421t-416.5 -142q-156 0 -254.5 43t-142.5 109.5t-44 140.5v25h-49q-47 0 -64.5 18.5t-17.5 63.5v176q0 45 17.5 63.5t64.5 18.5h318q68 0 95 -29t27 -88v-145q0 -27 13.5 -39.5t36.5 -12.5 q37 0 55 47.5t18 171.5q0 121 -56 175.5t-167 54.5q-74 0 -127 -15.5t-110 -46.5q-29 -16 -48 -16q-23 0 -38 29l-103 176q-18 33 -18 51z" />
<glyph unicode="&#xe09;" horiz-adv-x="1261" d="M31 940q0 23 24 41q86 59 225.5 92t307.5 33q309 0 455.5 -125t146.5 -375v-504q0 -51 -27.5 -76.5t-79.5 -25.5h-225q-57 0 -65 45l-9 35q-53 -55 -129.5 -83t-191.5 -28q-187 0 -293.5 94.5t-106.5 288.5v152q0 59 28 88t95 29h244q70 0 97.5 -28t27.5 -89v-129 q0 -41 17.5 -60.5t56.5 -19.5t54 19.5t15 60.5v157q0 121 -56 175.5t-167 54.5q-74 0 -127 -15.5t-110 -46.5q-29 -16 -48 -16q-23 0 -38 29l-103 176q-18 33 -18 51z" />
<glyph unicode="&#xe0a;" horiz-adv-x="1226" d="M31 809v184q0 45 17.5 63.5t64.5 18.5h350q68 0 95.5 -28.5t27.5 -88.5v-192q0 -37 -4 -58.5t-23 -39.5q-25 -27 -29 -51.5t-4 -92.5v-137q0 -74 74 -74q35 0 55.5 17.5t20.5 56.5v160q0 33 -6 50t-21 30q-14 12 -19 22t-5 25v137q0 14 4 21.5t13 15.5t15 16 q16 16 21.5 39t5.5 66v82q0 33 11.5 44t39.5 11h375q33 0 42 -11.5t9 -39.5q0 -109 -30.5 -180.5t-106.5 -112.5q74 -41 104.5 -99.5t30.5 -156.5v-98q0 -129 -64.5 -228.5t-190.5 -155t-302 -55.5q-266 0 -414.5 102.5t-148.5 295.5v67q0 92 37 164t106 113v16h-69 q-47 0 -64.5 18.5t-17.5 63.5z" />
<glyph unicode="&#xe0b;" horiz-adv-x="1255" d="M31 737v291q0 47 47 47h190q47 0 47 -47v-8q35 27 72 41t88 14q84 0 126 -47t42 -131v-172q0 -45 -7 -67.5t-32 -45.5q-31 -29 -40 -56.5t-9 -78.5v-90q0 -74 74 -74q35 0 55.5 17.5t20.5 56.5v160v22q0 25 -3.5 36t-13.5 22q-10 10 -12 17t-2 16.5v13.5v137q0 23 3 30 t19 23q18 18 22.5 55t4.5 79v57q0 31 7 41t34 10h375q33 0 42 -11.5t9 -39.5q0 -109 -31 -180.5t-106 -112.5q74 -41 104.5 -99.5t30.5 -156.5v-98q0 -129 -64.5 -228.5t-190.5 -155t-302 -55.5q-262 0 -412.5 92.5t-150.5 251.5v49q0 117 69.5 204t192.5 136v31 q0 37 -27 37q-25 0 -33 -20v-15q0 -45 -43 -45h-149q-47 0 -47 47z" />
<glyph unicode="&#xe0c;" horiz-adv-x="1931" d="M31 840q0 37 45 75q90 78 246.5 134.5t328.5 56.5q309 0 436 -126t127 -349v-256q0 -41 18.5 -60.5t59.5 -19.5q76 0 76 80v583q0 61 28.5 89t96.5 28h244q68 0 95.5 -28.5t27.5 -88.5v-606q0 -193 -112 -288t-300 -95q-195 0 -320 111l-8 -35q-8 -45 -65 -45h-215 q-51 0 -79 25.5t-28 76.5v537q0 66 -17.5 93.5t-66.5 27.5q-57 0 -104 -27l12 -22q25 -45 25 -107v-256h26q47 0 62.5 -18.5t15.5 -63.5v-184q0 -45 -15.5 -63.5t-62.5 -18.5h-395q-68 0 -95.5 28.5t-27.5 88.5v536l-39 103q-20 53 -20 84z" />
<glyph unicode="&#xe0d;" horiz-adv-x="1955" d="M31 840q0 37 45 75q90 78 246.5 134.5t328.5 56.5q309 0 436 -126t127 -349v-56q0 -72 18.5 -100.5t70.5 -28.5q51 0 69.5 29t18.5 100v383q0 59 27.5 88t94.5 29h246q70 0 97.5 -27.5t27.5 -89.5v-557q0 -315 -152.5 -495t-445.5 -180q-125 0 -236.5 21.5t-191.5 66.5 q-31 16 -31 36q0 10 13 33l102 172q18 33 39 33q6 0 31 -8q55 -23 106 -35t113 -12q186 0 186 110q-18 -12 -62 -19t-79 -7q-283 0 -413 116.5t-130 352.5v53q0 66 -17.5 93.5t-66.5 27.5q-57 0 -104 -27l12 -22q25 -45 25 -107v-256h26q47 0 64.5 -18.5t17.5 -63.5v-184 q0 -45 -17.5 -63.5t-64.5 -18.5h-395q-68 0 -95.5 28.5t-27.5 88.5v536l-39 103q-20 53 -20 84z" />
<glyph unicode="&#xe0e;" horiz-adv-x="1320" d="M31 94v185q0 45 15 63t63 18h20v283l-70 113q-20 35 -20 84q0 23 9 38t36 37q90 78 245.5 134.5t327.5 56.5q313 0 452.5 -128t139.5 -347v-897q0 -61 -27.5 -89t-97.5 -28h-86q-45 0 -131 27l-41 12q-78 23 -202 22q-63 0 -131 -16t-119 -41q-16 -8 -29 -8q-23 0 -41 33 l-115 172q-12 20 -12 32q0 20 31 37q78 43 175 65.5t181 22.5q100 0 154 -16v680q0 63 -20.5 92t-71.5 29q-33 0 -55.5 -5t-49.5 -20l23 -33q23 -33 30 -60.5t7 -86.5v-426q0 -59 -28 -88t-95 -29h-389q-47 0 -62.5 18.5t-15.5 63.5z" />
<glyph unicode="&#xe0f;" horiz-adv-x="1320" d="M31 94v185q0 45 15 63t63 18h20v283l-70 113q-20 35 -20 84q0 23 9 38t36 37q90 78 245.5 134.5t327.5 56.5q313 0 452.5 -128t139.5 -347v-719q0 -86 -39 -157.5t-110.5 -113.5t-165.5 -42q-119 0 -205 28.5t-131 79.5q-57 -86 -186 -86h-148q-20 0 -30.5 9.5 t-10.5 31.5v236q0 39 39 39h129q74 0 96 24q14 16 22.5 22.5t22.5 6.5h93q25 0 41 -29q14 -27 47 -27q45 0 45 54v651q0 63 -20.5 92t-71.5 29q-33 0 -55.5 -5t-49.5 -20l23 -33q23 -33 30 -60.5t7 -86.5v-426q0 -59 -28 -88t-95 -29h-389q-47 0 -62.5 18.5t-15.5 63.5z" />
<glyph unicode="&#xe10;" horiz-adv-x="1286" d="M31 940q0 23 24 41q86 59 225.5 92t307.5 33q123 0 233 -27q131 76 226 99q45 10 65 10q51 0 68 -45l67 -182q6 -18 6 -33q0 -37 -45 -54l-82 -32q61 -129 62 -310q0 -287 -154 -428q154 -100 154 -256q0 -100 -70.5 -172.5t-185.5 -72.5q-94 0 -160.5 25.5t-122.5 78.5 q-37 -45 -94 -65.5t-121 -20.5h-192q-20 0 -30.5 9.5t-10.5 31.5v191q0 39 39 38h194q43 0 63.5 4.5t32.5 16.5q14 16 21.5 21.5t23.5 5.5h103q18 0 26.5 -5.5t20.5 -21.5q18 -27 51 -27q41 0 41 41q0 35 -35 58q-86 -14 -157 -15q-156 0 -254.5 43t-142.5 109.5t-44 140.5 v25h-49q-47 0 -64.5 18.5t-17.5 63.5v176q0 45 17.5 63.5t64.5 18.5h318q68 0 95 -29t27 -88v-145q0 -27 13.5 -39.5t36.5 -12.5q37 0 55 47.5t18 171.5q0 121 -56 175.5t-167 54.5q-74 0 -127 -15.5t-110 -46.5q-29 -16 -48 -16q-23 0 -38 29l-103 176q-18 33 -18 51z" />
<glyph unicode="&#xe11;" horiz-adv-x="1259" d="M31 737v291q0 47 47 47h190q47 0 47 -47v-8q37 29 73 42t95 13q84 0 138 -53q100 84 233 84q164 0 249 -91t85 -270v-628q0 -59 -27.5 -88t-95.5 -29h-238q-68 0 -96.5 28.5t-28.5 88.5v588q0 39 -34 38h-13v-79q0 -47 -6 -74t-24 -58q-16 -25 -22.5 -50t-6.5 -64v-301 q0 -59 -27.5 -88t-95.5 -29h-244q-67 0 -96 28.5t-29 88.5v252q0 123 54.5 204.5t171.5 128.5v31q0 37 -27 37q-25 0 -33 -20v-15q0 -45 -43 -45h-149q-47 0 -47 47z" />
<glyph unicode="&#xe12;" horiz-adv-x="1972" d="M31 492q0 289 108.5 451.5t309.5 162.5q70 0 128 -26.5t93 -71.5q39 45 107.5 71.5t144.5 26.5q176 0 254.5 -85t78.5 -235v-411q0 -41 18.5 -60.5t59.5 -19.5q76 0 76 80v583q0 61 28.5 89t96.5 28h244q68 0 95.5 -28.5t27.5 -88.5v-606q0 -193 -112 -288t-300 -95 q-104 0 -178 30t-133 81l-9 -35q-8 -45 -65 -45h-215q-51 0 -79 25.5t-28 76.5v611q0 49 -37 49q-20 0 -36 -25q-10 -12 -19.5 -17t-23.5 -5q-16 0 -26.5 5t-21.5 17q-2 4 -8 11.5t-13 10.5t-17 3q-31 0 -45.5 -64.5t-14.5 -208.5q0 -102 19.5 -160.5t56.5 -58.5q31 0 55 11 q4 2 13 2q25 0 30 -31l37 -182q2 -6 2 -19q0 -14 -9 -23.5t-34 -19.5q-57 -23 -107.5 -31t-131.5 -8q-199 0 -309.5 142.5t-110.5 380.5z" />
<glyph unicode="&#xe13;" horiz-adv-x="1931" d="M31 840q0 37 45 75q90 78 246.5 134.5t328.5 56.5q309 0 436 -126t127 -349v-256q0 -80 76 -80q41 0 59.5 19.5t18.5 60.5v583q0 59 27.5 88t95.5 29h244q70 0 97.5 -27.5t27.5 -89.5v-856q0 -51 -28 -76.5t-79 -25.5h-225q-57 0 -66 45l-8 35q-117 -111 -321 -111 q-187 0 -293.5 94.5t-106.5 288.5v287q0 66 -17.5 93.5t-66.5 27.5q-57 0 -104 -27l12 -22q25 -45 25 -107v-256h26q47 0 62.5 -18.5t15.5 -63.5v-184q0 -45 -15.5 -63.5t-62.5 -18.5h-395q-68 0 -95.5 28.5t-27.5 88.5v536l-39 103q-20 53 -20 84z" />
<glyph unicode="&#xe14;" horiz-adv-x="1347" d="M31 492q0 293 161.5 453.5t481.5 160.5q307 0 454.5 -129t147.5 -352v-508q0 -59 -27.5 -88t-97.5 -29h-244q-68 0 -95.5 28.5t-27.5 88.5v485q0 80 -26.5 120t-83.5 40q-78 0 -116 -65.5t-38 -223.5q0 -203 76 -203q31 0 55 11q4 2 13 2q25 0 30 -31l37 -182 q4 -27 -4 -38.5t-37 -23.5q-57 -20 -110.5 -29.5t-137.5 -9.5q-198 0 -304.5 141.5t-106.5 381.5z" />
<glyph unicode="&#xe15;" horiz-adv-x="1347" d="M31 492q0 287 114.5 450.5t317.5 163.5q133 0 207 -98q39 45 107.5 71.5t144.5 26.5q180 0 267 -82t87 -225v-682q0 -59 -27.5 -88t-97.5 -29h-244q-68 0 -95.5 28.5t-27.5 88.5v596q0 49 -36 49q-20 0 -37 -25q-10 -12 -19.5 -17t-23.5 -5q-16 0 -26.5 5t-20.5 17 q-2 4 -8.5 11.5t-13.5 10.5t-17 3q-61 0 -62 -273q0 -102 19.5 -160.5t56.5 -58.5q31 0 55 11q4 2 13 2q25 0 30 -31l37 -182q2 -6 2 -19q0 -14 -9 -23.5t-34 -19.5q-57 -23 -107.5 -31t-131.5 -8q-199 0 -309.5 142.5t-110.5 380.5z" />
<glyph unicode="&#xe16;" horiz-adv-x="1312" d="M31 840q0 37 45 75q90 78 250.5 134.5t332.5 56.5q582 0 582 -475v-514q0 -59 -27.5 -88t-97.5 -29h-244q-68 0 -95 28.5t-27 88.5v522q0 63 -20.5 92t-72.5 29q-66 0 -112 -27l12 -22q25 -45 25 -107v-256h26q47 0 64.5 -18.5t17.5 -63.5v-184q0 -45 -17.5 -63.5 t-64.5 -18.5h-395q-68 0 -95.5 28.5t-27.5 88.5v536l-39 103q-20 53 -20 84z" />
<glyph unicode="&#xe17;" horiz-adv-x="1300" d="M72 117v856q0 51 27.5 76.5t78.5 25.5h225q53 0 66 -45l8 -35q57 49 143.5 80t198.5 31q188 0 299 -95.5t111 -287.5v-606q0 -59 -27.5 -88t-95.5 -29h-244q-68 0 -96.5 28.5t-28.5 88.5v583q0 39 -22.5 59.5t-63.5 20.5q-43 0 -65.5 -20.5t-22.5 -59.5v-583 q0 -59 -27.5 -88t-95.5 -29h-243q-68 0 -96.5 28.5t-28.5 88.5z" />
<glyph unicode="&#xe18;" horiz-adv-x="1128" d="M31 786q0 160 134 240t384 80q297 0 487 -98q43 -25 43 -52q0 -16 -16 -43l-105 -163q-16 -25 -30 -25q-6 0 -39 14q-47 23 -122 42.5t-124 19.5q-129 0 -129 -33q0 -16 27.5 -26.5t99.5 -24.5l139 -35q127 -37 195.5 -87t95.5 -114.5t27 -156.5q0 -162 -131 -258.5 t-414 -96.5q-262 0 -389 95.5t-127 287.5v43q0 41 11 53.5t46 12.5h285q43 0 58.5 -14.5t15.5 -53.5v-37q0 -39 22.5 -59.5t59.5 -20.5q31 0 52 23t21 57q0 55 -23.5 82t-84.5 39q-166 33 -265.5 69t-151.5 93t-52 147z" />
<glyph unicode="&#xe19;" horiz-adv-x="1300" d="M72 352v606q0 59 27.5 88t95.5 29h243q70 0 97.5 -27.5t27.5 -89.5v-583q0 -39 22.5 -59.5t63.5 -20.5q43 0 65.5 20.5t22.5 59.5v583q0 59 28 88t95 29h244q70 0 97.5 -27.5t27.5 -89.5v-856q0 -51 -27.5 -76.5t-79.5 -25.5h-225q-57 0 -66 45l-8 35q-57 -49 -143 -80 t-199 -31q-188 0 -298.5 95.5t-110.5 287.5z" />
<glyph unicode="&#xe1a;" horiz-adv-x="1323" d="M72 428v530q0 59 27.5 88t95.5 29h243q70 0 97.5 -27.5t27.5 -89.5v-516q0 -70 21.5 -99.5t77.5 -29.5q57 0 77.5 29t20.5 100v516q0 59 27.5 88t95.5 29h243q70 0 97.5 -27.5t27.5 -89.5v-530q0 -459 -589 -459q-590 0 -590 459z" />
<glyph unicode="&#xe1b;" horiz-adv-x="1323" d="M72 428v530q0 59 27.5 88t95.5 29h243q70 0 97.5 -27.5t27.5 -89.5v-516q0 -70 21.5 -99.5t77.5 -29.5q57 0 77.5 29t20.5 100v875q0 59 27.5 88t95.5 29h243q70 0 97.5 -28t27.5 -89v-889q0 -459 -589 -459q-590 0 -590 459z" />
<glyph unicode="&#xe1c;" horiz-adv-x="1290" d="M72 80v878q0 59 27.5 88t95.5 29h313q47 0 64.5 -18.5t17.5 -63.5v-137q0 -45 -17.5 -63.5t-64.5 -18.5h-47v-229l92 160q12 25 31.5 35t50.5 10h16q33 0 51.5 -10.5t30.5 -34.5l92 -160v413q0 59 28 88t95 29h146q70 0 97.5 -27.5t27.5 -89.5v-878q0 -80 -82 -80h-197 q-47 0 -67.5 11.5t-38.5 43.5l-191 320l-190 -320q-18 -33 -39 -44t-68 -11h-192q-82 0 -82 80z" />
<glyph unicode="&#xe1d;" horiz-adv-x="1290" d="M72 80v878q0 59 27.5 88t95.5 29h313q47 0 64.5 -18.5t17.5 -63.5v-137q0 -45 -17.5 -63.5t-64.5 -18.5h-47v-229l92 160q12 25 31.5 35t50.5 10h16q33 0 51.5 -10.5t30.5 -34.5l92 -160v762q0 59 28 87.5t95 28.5h146q70 0 97.5 -27.5t27.5 -88.5v-1227q0 -80 -82 -80 h-197q-47 0 -67.5 11.5t-38.5 43.5l-191 320l-190 -320q-18 -33 -39 -44t-68 -11h-192q-82 0 -82 80z" />
<glyph unicode="&#xe1e;" horiz-adv-x="1398" d="M10 1026q0 49 60 49h266q43 0 60.5 -16.5t23.5 -54.5l59 -353l74 258q10 31 27.5 45.5t50.5 14.5h137q33 0 50.5 -13.5t27.5 -46.5l90 -258l43 353q4 37 22.5 54t61.5 17h266q59 0 60 -49q0 -8 -5 -29l-206 -925q-8 -41 -26.5 -56.5t-57.5 -15.5h-228q-31 0 -49 12.5 t-26 42.5l-93 342l-94 -342q-8 -31 -26.5 -43t-49.5 -12h-221q-41 0 -59.5 15.5t-26.5 56.5l-207 925q-4 20 -4 29z" />
<glyph unicode="&#xe1f;" horiz-adv-x="1396" d="M10 1026q0 49 60 49h266q43 0 60.5 -16.5t23.5 -54.5l59 -353l74 258q10 31 27.5 45.5t50.5 14.5h137q33 0 50.5 -13.5t27.5 -46.5l90 -258l92 670q4 37 22.5 54.5t61.5 17.5h266q59 0 60 -50q0 -8 -4 -28l-256 -1243q-8 -41 -26.5 -56.5t-57.5 -15.5h-228 q-31 0 -49 12.5t-26 42.5l-93 342l-94 -342q-8 -31 -26.5 -43t-49.5 -12h-221q-41 0 -59.5 15.5t-26.5 56.5l-207 925q-4 20 -4 29z" />
<glyph unicode="&#xe20;" horiz-adv-x="1320" d="M31 82v184q0 45 15 63.5t63 18.5h20v295l-70 113q-20 35 -20 84q0 23 9 38t36 37q90 78 245.5 134.5t327.5 56.5q313 0 452.5 -128t139.5 -347v-514q0 -59 -27.5 -88t-97.5 -29h-243q-68 0 -95.5 28.5t-27.5 88.5v522q0 63 -20.5 92t-71.5 29q-33 0 -55.5 -5t-49.5 -20 l23 -33q23 -33 30 -60.5t7 -86.5v-438q0 -59 -28 -88t-95 -29h-389q-48 0 -63 18.5t-15 63.5z" />
<glyph unicode="&#xe21;" horiz-adv-x="1300" d="M72 102v856q0 61 28.5 89t96.5 28h243q68 0 95.5 -28.5t27.5 -88.5v-583q0 -39 22.5 -59.5t65.5 -20.5q41 0 63.5 20.5t22.5 59.5v583q0 61 29 89t96 28h244q68 0 95.5 -28.5t27.5 -88.5v-606q0 -193 -111.5 -288t-300.5 -95q-215 0 -340 111l-8 -35q-8 -45 -66 -45h-225 q-51 0 -78.5 25.5t-27.5 76.5z" />
<glyph unicode="&#xe22;" horiz-adv-x="1292" d="M31 338q0 168 114 233q-55 45 -80.5 98.5t-25.5 131.5q0 86 45 155.5t124 109.5t177 40q92 0 160.5 -15.5t124.5 -50.5q20 -12 20 -34q0 -12 -6 -31l-49 -150q-8 -23 -23 -22q-8 0 -24 6q-20 8 -33 8q-23 0 -34 -18.5t-11 -44.5q0 -63 55 -64h39q47 0 47 -47v-162 q0 -47 -47 -47h-39q-25 0 -40 -15.5t-15 -43.5q0 -61 108 -62q63 0 92 39t29 121v485q0 59 28 88t95 29h234q70 0 97.5 -27.5t27.5 -89.5v-485q0 -231 -133.5 -367.5t-454.5 -136.5q-271 0 -436.5 96.5t-165.5 272.5z" />
<glyph unicode="&#xe23;" horiz-adv-x="1116" d="M31 129q0 14 12 35l100 180q14 25 35 25q16 0 41 -13q57 -31 139 -55.5t148 -24.5q47 0 66.5 10.5t19.5 37.5t-30 42t-113 44l-70 24q-164 59 -236.5 135t-72.5 195q0 158 137 250t364 92q143 0 245 -23.5t200 -74.5q43 -25 43 -52q0 -16 -17 -43l-98 -155 q-16 -25 -31 -25q-6 0 -39 15q-47 23 -108 38t-113 15q-111 0 -110 -43q0 -25 48 -47.5t140 -51.5l109 -38q96 -39 149 -78t74.5 -90.5t21.5 -128.5q0 -98 -56 -178t-171 -128.5t-287 -48.5q-294 0 -495 111q-45 25 -45 49z" />
<glyph unicode="&#xe24;" horiz-adv-x="1312" d="M31 840q0 37 45 75q90 78 250.5 134.5t332.5 56.5q582 0 582 -475v-834q0 -61 -27.5 -88.5t-97.5 -27.5h-244q-67 0 -94.5 28.5t-27.5 87.5v842q0 63 -20.5 92t-72.5 29q-66 0 -112 -27l12 -22q25 -45 25 -107v-256h26q47 0 64.5 -18.5t17.5 -63.5v-184 q0 -45 -17.5 -63.5t-64.5 -18.5h-395q-68 0 -95.5 28.5t-27.5 88.5v536l-39 103q-20 53 -20 84z" />
<glyph unicode="&#xe25;" horiz-adv-x="1292" d="M31 307q0 197 131 281t377 84h200v6q0 47 -51 71.5t-147 24.5q-70 0 -136.5 -13t-113.5 -36q-33 -16 -49 -16q-18 0 -37 28l-103 176q-14 29 -14 43q0 25 27 37q92 53 228 83t304 30q293 0 433.5 -121t140.5 -356v-512q0 -59 -28 -88t-97 -29h-234q-68 0 -95.5 28.5 t-27.5 88.5v243h-168q-45 0 -65.5 -10t-20.5 -37q0 -47 58 -47q18 0 59 13q4 2 12 2q25 0 31 -31l29 -184q4 -27 -4 -39.5t-37 -22.5q-104 -35 -250 -35q-166 0 -259 96.5t-93 241.5z" />
<glyph unicode="&#xe26;" horiz-adv-x="1320" d="M31 82v184q0 45 15 63.5t63 18.5h20v295l-70 113q-20 35 -20 84q0 23 9 38t36 37q90 78 245.5 134.5t327.5 56.5q313 0 452.5 -128t139.5 -347v-834q0 -61 -27.5 -88.5t-97.5 -27.5h-243q-68 0 -95.5 28.5t-27.5 87.5v842q0 63 -20.5 92t-71.5 29q-33 0 -55.5 -5 t-49.5 -20l23 -33q23 -33 30 -60.5t7 -86.5v-438q0 -59 -28 -88t-95 -29h-389q-47 0 -62.5 18.5t-15.5 63.5z" />
<glyph unicode="&#xe27;" horiz-adv-x="1163" d="M20 133q0 18 19 51l102 176q16 29 39 29q18 0 47 -16q55 -31 103.5 -45.5t105.5 -14.5q104 0 155.5 48.5t51.5 173.5q0 123 -50 175t-149 52q-117 0 -211 -62q-25 -18 -45 -18q-25 0 -41 31l-102 176q-18 33 -18 51q0 23 24 41q92 61 204 93t269 32q301 0 455 -145.5 t154 -425.5q0 -283 -157 -424.5t-460 -141.5q-164 0 -271.5 31t-199.5 92q-25 18 -25 41z" />
<glyph unicode="&#xe28;" horiz-adv-x="1318" d="M72 117v530q0 227 142 343t437 116q125 0 215 -21q127 70 213 93q45 10 66 10q51 0 67 -45l68 -182q6 -18 6 -33q0 -37 -45 -54l-53 -22q45 -76 45 -223v-512q0 -59 -27.5 -88t-97.5 -29h-244q-68 0 -95.5 28.5t-27.5 88.5v516q0 72 -18 100.5t-72 28.5 q-51 0 -69.5 -28.5t-18.5 -100.5v-68q23 23 64 23h26q25 0 33 -10.5t8 -45.5v-231q0 -35 -8 -45t-33 -10h-43q-20 0 -33.5 -12.5t-13.5 -34.5v-82q0 -59 -27.5 -88t-97.5 -29h-243q-68 0 -95.5 28.5t-27.5 88.5z" />
<glyph unicode="&#xe29;" horiz-adv-x="1337" d="M72 428v530q0 59 27.5 88t95.5 29h243q70 0 97.5 -27.5t27.5 -89.5v-516q0 -70 21.5 -99.5t77.5 -29.5q57 0 77.5 29t20.5 100v33h-29q-51 0 -71.5 27.5t-20.5 89.5v94q0 61 20.5 89t71.5 28h29v155q0 59 27.5 88t95.5 29h243q70 0 97.5 -27.5t27.5 -89.5v-155h15 q51 0 71.5 -27.5t20.5 -89.5v-94q0 -61 -20.5 -89t-71.5 -28h-15v-47q0 -459 -589 -459q-590 0 -590 459z" />
<glyph unicode="&#xe2a;" horiz-adv-x="1290" d="M31 307q0 197 131 281t377 84l200 6q0 47 -51 71.5t-147 24.5q-70 0 -136.5 -13t-113.5 -36q-33 -16 -49 -16q-18 0 -37 28l-103 176q-14 29 -14 43q0 25 27 37q92 53 228 83t304 30q113 0 189 -23q55 33 112.5 58.5t93.5 36.5q45 10 66 10q51 0 68 -45l67 -182 q6 -18 6 -31q0 -37 -45 -56l-39 -16q31 -51 43.5 -108.5t12.5 -141.5v-491q0 -59 -28 -88t-97 -29h-234q-68 0 -95.5 28.5t-27.5 88.5v243h-168q-45 0 -65.5 -10t-20.5 -37q0 -47 58 -47q18 0 59 13q4 2 12 2q25 0 31 -31l29 -184q4 -27 -4 -39.5t-37 -22.5 q-104 -35 -250 -35q-166 0 -259 96.5t-93 241.5z" />
<glyph unicode="&#xe2b;" horiz-adv-x="1269" d="M72 117v841q0 59 27.5 88t95.5 29h241q70 0 98.5 -28.5t28.5 -88.5v-176h74q39 0 54.5 19.5t15.5 62.5v94q0 59 27.5 88t94.5 29h244q70 0 97.5 -27.5t27.5 -89.5v-106q0 -76 -27.5 -132t-93.5 -93q121 -61 121 -228v-282q0 -59 -27.5 -88t-97.5 -29h-244q-68 0 -95 28.5 t-27 88.5v241q0 39 -14.5 57.5t-53.5 18.5h-76v-317q0 -59 -28.5 -88t-98.5 -29h-241q-68 0 -95.5 28.5t-27.5 88.5z" />
<glyph unicode="&#xe2c;" horiz-adv-x="1396" d="M10 1026q0 49 60 49h266q43 0 60.5 -16.5t23.5 -54.5l59 -353l74 217q10 33 27.5 46.5t50.5 13.5h137q33 0 49.5 -13.5t28.5 -46.5l90 -217l25 183l2 20q0 23 -7.5 35t-21.5 24q-18 16 -25.5 26.5t-7.5 29.5v84q0 29 13.5 43t52.5 34q37 18 48 44t16 61t7 51l9 53 q4 31 19 42.5t46 11.5h272q33 0 44.5 -12.5t7.5 -39.5l-13 -106q-20 -178 -163 -215q74 -45 73 -148q0 -49 -10 -92l-145 -708q-8 -41 -26.5 -56.5t-57.5 -15.5h-228q-31 0 -49 12.5t-26 42.5l-93 301l-94 -301q-8 -31 -26.5 -43t-49.5 -12h-221q-41 0 -59.5 15.5 t-26.5 56.5l-207 925q-4 20 -4 29z" />
<glyph unicode="&#xe2d;" horiz-adv-x="1222" d="M31 946q0 25 24 39q86 57 233.5 89t307.5 32q293 0 444.5 -139.5t151.5 -423.5q0 -283 -157.5 -428.5t-448.5 -145.5q-553 0 -553 414v145q0 59 27.5 88t95.5 29h348q47 0 64.5 -18.5t17.5 -63.5v-119q0 -45 -17.5 -63.5t-64.5 -18.5h-49q0 -27 19.5 -38t70.5 -11 q57 0 91 18.5t50 69t16 142.5q0 119 -48 169t-167 50q-63 0 -131.5 -17.5t-117.5 -39.5q-37 -16 -48 -17q-23 0 -38 29l-103 176q-18 33 -18 53z" />
<glyph unicode="&#xe2e;" horiz-adv-x="1267" d="M31 946q0 25 24 39q86 57 233.5 89t307.5 32q113 0 215 -23q137 74 217 95q45 10 66 10q51 0 67 -45l68 -182q6 -18 6 -33q0 -37 -45 -54l-62 -24q63 -127 64 -307q0 -283 -157.5 -428.5t-448.5 -145.5q-553 0 -553 414v145q0 59 27.5 88t95.5 29h348q47 0 64.5 -18.5 t17.5 -63.5v-119q0 -45 -17.5 -63.5t-64.5 -18.5h-49q0 -27 19.5 -38t70.5 -11q57 0 91 18.5t50 69t16 142.5q0 119 -48 169t-167 50q-63 0 -131.5 -17.5t-117.5 -39.5q-37 -16 -48 -17q-23 0 -38 29l-103 176q-18 33 -18 53z" />
<glyph unicode="&#xe2f;" horiz-adv-x="1218" d="M-10 748q0 96 39 178t115.5 131t187.5 49q82 0 137 -6t109 -25q25 -10 34 -19t9 -26l-3 -16l-28 -185q-2 -18 -14.5 -25t-28.5 -3q-27 8 -55 8q-47 0 -48 -64q0 -72 93 -71q76 0 118 24v260q0 59 28 88t95 29h244q70 0 97.5 -27.5t27.5 -89.5v-841q0 -59 -27.5 -88 t-97.5 -29h-244q-67 0 -95 28.5t-28 88.5v274q-31 -12 -83 -20.5t-105 -8.5q-227 0 -352 93.5t-125 292.5z" />
<glyph unicode="&#xe30;" horiz-adv-x="739" d="M31 197v161q0 66 27.5 89.5t88.5 23.5h132q61 0 88.5 -23.5t27.5 -89.5v-57q145 41 215 41q57 0 78 -21.5t21 -80.5v-115q0 -59 -22.5 -83t-90.5 -24h-391q-96 0 -135 43t-39 136zM31 725v162q0 66 27.5 89t88.5 23h132q61 0 88.5 -23.5t27.5 -88.5v-58q145 41 215 41 q57 0 78 -21.5t21 -80.5v-115q0 -59 -22.5 -82.5t-90.5 -23.5h-391q-96 0 -135 43t-39 135z" />
<glyph unicode="&#xe31;" d="M-672 1364v172q0 66 28 89.5t89 23.5h143q61 0 89 -23.5t28 -89.5v-74q78 14 199 27.5t207 13.5q66 0 89 -27.5t23 -89.5v-83q0 -61 -23.5 -89t-88.5 -28h-609q-96 0 -135 43t-39 135z" />
<glyph unicode="&#xe32;" horiz-adv-x="937" d="M14 1016q0 16 23 26q70 31 147.5 47.5t182.5 16.5q258 0 378.5 -106.5t120.5 -327.5v-570q0 -51 -27.5 -76.5t-78.5 -25.5h-279q-51 0 -78.5 25.5t-27.5 76.5v529q0 74 -24.5 102.5t-84.5 28.5q-55 0 -116 -33q-29 -14 -41 -14q-23 0 -29 24l-60 242q-6 25 -6 35z" />
<glyph unicode="&#xe33;" horiz-adv-x="937" d="M-580 1446q0 125 79 200.5t210 75.5t211 -75.5t80 -200.5t-80 -200t-211 -75t-210 75t-79 200zM-360 1446q0 -29 20.5 -47.5t48.5 -18.5q29 0 48.5 18.5t19.5 47.5t-19.5 47t-48.5 18t-49 -18t-20 -47zM14 1016q0 16 23 26q70 31 147.5 47.5t182.5 16.5 q258 0 378.5 -106.5t120.5 -327.5v-570q0 -51 -27.5 -76.5t-78.5 -25.5h-279q-51 0 -78.5 25.5t-27.5 76.5v529q0 74 -24.5 102.5t-84.5 28.5q-55 0 -116 -33q-29 -14 -41 -14q-23 0 -29 24l-60 242q-6 25 -6 35z" />
<glyph unicode="&#xe34;" d="M-1049 1303v94q0 61 24 88.5t89 27.5h752q66 0 89 -27.5t23 -88.5v-94q0 -61 -23.5 -89t-88.5 -28h-752q-65 0 -89 27.5t-24 89.5z" />
<glyph unicode="&#xe35;" d="M-1049 1303v94q0 61 24 88.5t89 27.5h487v50q0 66 28 89t89 23h144q61 0 88.5 -23.5t27.5 -88.5v-260q0 -61 -23.5 -89t-88.5 -28h-752q-65 0 -89 27.5t-24 89.5z" />
<glyph unicode="&#xe36;" d="M-1049 1303v94q0 61 24 88.5t89 27.5h406q16 76 80.5 125.5t152.5 49.5q121 0 189.5 -75t68.5 -183q0 -106 -78 -175t-196 -69h-623q-65 0 -89 27.5t-24 89.5zM-371 1430q0 -29 22.5 -51.5t51.5 -22.5q35 0 55.5 21.5t20.5 52.5q0 33 -21.5 55t-54.5 22 q-31 0 -52.5 -22.5t-21.5 -54.5z" />
<glyph unicode="&#xe37;" d="M-1049 1303v94q0 61 24 88.5t89 27.5h168v50q0 66 27.5 89t89.5 23h82q61 0 88.5 -23.5t27.5 -88.5v-50h66v50q0 66 27.5 89t89.5 23h82q61 0 88.5 -23.5t27.5 -88.5v-260q0 -61 -23.5 -89t-88.5 -28h-752q-65 0 -89 27.5t-24 89.5z" />
<glyph unicode="&#xe38;" d="M-610 -213q0 45 15 63.5t63 18.5h337q68 0 95.5 -28.5t27.5 -88.5v-309q0 -61 -24.5 -88t-91.5 -27h-156q-68 0 -92.5 27t-24.5 88v113h-71q-47 0 -62.5 18t-15.5 64v149z" />
</font>
</defs>
</svg>
