<?xml version="1.0" standalone="no"?>
<!DOCTYPE svg PUBLIC "-//W3C//DTD SVG 1.1//EN" "http://www.w3.org/Graphics/SVG/1.1/DTD/svg11.dtd" >
<svg xmlns="http://www.w3.org/2000/svg" xmlns:xlink="http://www.w3.org/1999/xlink" version="1.1">
<metadata></metadata>
<defs>
<font id="mitrlight" horiz-adv-x="0" >
<font-face units-per-em="2048" ascent="1536" descent="-512" />
<missing-glyph horiz-adv-x="860" />
<glyph unicode="fi" horiz-adv-x="1089" d="M55 897v31q0 31 13.5 43t46.5 12h108v76q0 162 103.5 263t281.5 101q186 0 295 -73q16 -12 17 -25q0 -8 -7 -18l-39 -66q-8 -14 -18 -14q-6 0 -18 6q-82 53 -205 53q-225 0 -225 -231v-72h483q33 0 47 -15.5t14 -45.5v-861q0 -31 -14 -46t-47 -15h-60q-63 0 -63 61v777 h-360v-777q0 -31 -14.5 -46t-47.5 -15h-61q-62 0 -62 61v777h-108q-33 0 -46.5 13t-13.5 46z" />
<glyph unicode="fl" horiz-adv-x="1122" d="M55 897v31q0 31 13.5 43t46.5 12h108v76q0 164 105.5 264t289.5 100q98 0 190.5 -23.5t147.5 -64.5q16 -12 22.5 -27.5t6.5 -37.5v-1209q0 -31 -14.5 -46t-46.5 -15h-60q-63 0 -63 61v777h-393v-777q0 -31 -14.5 -46t-47.5 -15h-61q-62 0 -62 61v777h-108q-33 0 -46.5 13 t-13.5 46zM406 983h399v260q-76 39 -180 39q-111 0 -165 -55.5t-54 -171.5v-72z" />
<glyph unicode="&#xe24;&#xe45;" horiz-adv-x="1787" d="M96 870q0 23 17 37q227 199 520 199q199 0 317 -74q141 74 320 74q193 0 287 -90t94 -277v-1001q0 -57 -60 -57h-67q-59 0 -60 57v1003q0 119 -44 170.5t-163 51.5t-194 -37q68 -96 67 -242v-942q0 -31 -14 -46t-47 -15h-61q-64 0 -64 61v934q0 143 -75.5 214t-237.5 71 q-102 0 -190.5 -31t-151.5 -84l35 -76q16 -37 23 -64.5t7 -72.5v-424q0 -33 9.5 -43t42.5 -10h77q27 0 37 -11.5t10 -35.5v-60q0 -27 -11 -38t-38 -11h-182q-80 0 -105.5 30.5t-25.5 106.5v553l-55 127q-16 33 -17 53z" />
<glyph unicode="&#xe26;&#xe45;" horiz-adv-x="1837" d="M72 49v60q0 25 10 36t37 11h78q33 0 42 10t9 43v479l-86 129q-18 29 -19 51q0 23 21 43q211 195 516 195q199 0 319 -74q141 74 320 74q193 0 287 -90t94 -277v-1001q0 -57 -60 -57h-67q-59 0 -60 57v1003q0 119 -44 170.5t-162 51.5q-111 0 -195 -37q68 -96 68 -242 v-942q0 -31 -14.5 -46t-47.5 -15h-61q-64 0 -64 61v934q0 143 -75.5 214t-237.5 71q-102 0 -187 -31t-149 -84l53 -82q23 -33 30 -60.5t7 -80.5v-486q0 -76 -25.5 -106.5t-105.5 -30.5h-182q-27 0 -38 11.5t-11 37.5z" />
<glyph unicode=" "  horiz-adv-x="860" />
<glyph unicode="&#x09;" horiz-adv-x="860" />
<glyph unicode="&#xa0;" horiz-adv-x="860" />
<glyph unicode="!" horiz-adv-x="417" d="M96 76v41q0 37 24.5 56.5t67.5 19.5h41q45 0 69 -20.5t24 -55.5v-41q0 -35 -24 -55.5t-69 -20.5h-41q-43 0 -67.5 20.5t-24.5 55.5zM117 1331q0 33 13 47.5t46 14.5h68q33 0 46 -14.5t13 -47.5l-12 -872q0 -29 -22.5 -44.5t-59.5 -15.5t-59.5 15.5t-22.5 44.5z" />
<glyph unicode="&#x22;" horiz-adv-x="679" d="M96 1374q-2 31 12.5 42t51.5 11h33q37 0 51 -11t12 -42l-12 -307q-2 -29 -15.5 -41t-46.5 -12h-24q-27 0 -38 12t-14 41zM426 1374q-2 31 12.5 42t50.5 11h33q37 0 51.5 -11t12.5 -42l-13 -307q-2 -29 -15 -41t-46 -12h-25q-26 0 -37.5 12t-13.5 41z" />
<glyph unicode="#" horiz-adv-x="1607" d="M96 420v33q0 37 11.5 48t46.5 11h194l144 346h-244q-35 0 -46.5 11.5t-11.5 43.5v33q0 37 11.5 48.5t46.5 11.5h301l147 360q6 14 14.5 20.5t28.5 6.5h119q14 0 19.5 -9.5t-0.5 -25.5l-144 -352h406l145 360q6 14 14.5 20.5t28.5 6.5h119q14 0 19 -9.5t-1 -25.5 l-141 -352h131q35 0 46 -11.5t11 -48.5v-33q0 -33 -11 -44t-44 -11h-192l-140 -346h250q35 0 46.5 -11.5t11.5 -47.5v-33q0 -33 -11.5 -44t-46.5 -11h-307l-139 -338q-6 -14 -14.5 -20.5t-28.5 -6.5h-119q-14 0 -19.5 9t1.5 26l133 330h-404l-137 -338q-6 -14 -14.5 -20.5 t-28.5 -6.5h-119q-14 0 -19 9t1 26l131 330h-137q-35 0 -46.5 11t-11.5 44zM535 512h403l141 346h-403z" />
<glyph unicode="$" horiz-adv-x="1189" d="M98 104q0 6 6 19l50 80q8 14 18 14t21 -8q82 -45 186 -70.5t213 -25.5q174 0 245.5 52t71.5 179q0 82 -36.5 132t-106.5 83t-209 78q-129 43 -216 89t-144.5 125t-57.5 198q0 168 105.5 261t283.5 105v111q0 31 14.5 46t47.5 15h53q63 0 64 -61v-107q207 -16 329 -98 q20 -14 21 -27q0 -8 -6 -18l-45 -74q-10 -16 -19 -16q-6 0 -20 10q-63 41 -146.5 62.5t-202.5 21.5q-147 0 -221.5 -54.5t-74.5 -178.5q0 -78 34.5 -125.5t97 -77t189.5 -72.5l45 -16q147 -53 229 -100.5t129.5 -122t47.5 -195.5q0 -154 -98.5 -248t-288.5 -115v-104 q0 -61 -64 -61h-53q-33 0 -47.5 15t-14.5 46v102q-115 6 -229.5 33t-179.5 72q-20 12 -21 26z" />
<glyph unicode="%" horiz-adv-x="1521" d="M96 1122q0 86 40 155t109.5 107.5t151.5 38.5t151.5 -38.5t109.5 -107.5t40 -155q0 -88 -40 -156.5t-109.5 -106.5t-151.5 -38t-151.5 38t-109.5 106.5t-40 156.5zM203 20q0 10 6 19l909 1327q16 27 43 27h131q25 0 25 -21q0 -8 -6 -18l-912 -1329q-12 -14 -18 -19.5 t-21 -5.5h-133q-24 0 -24 20zM221 1122q0 -78 50.5 -127t125.5 -49q76 0 126 49t50 127t-50 127t-126 49t-126 -49t-50 -127zM823 270q0 88 40 157t109.5 106.5t151.5 37.5t152 -37.5t109.5 -106.5t39.5 -157q0 -86 -39.5 -154.5t-109.5 -107.5t-152 -39t-151.5 39 t-109.5 107.5t-40 154.5zM948 270q0 -78 50.5 -127t125.5 -49q76 0 126 49.5t50 126.5q0 78 -50 127t-126 49t-126 -49t-50 -127z" />
<glyph unicode="&#x26;" horiz-adv-x="1488" d="M98 387q0 121 56.5 219.5t164.5 138.5q-76 41 -119.5 120t-43.5 173q0 190 143 287.5t367 97.5q150 0 249 -32.5t175 -90.5q16 -12 16 -24q0 -4 -8 -21l-47 -69q-12 -16 -21 -17q-10 0 -20 9q-61 47 -136 71.5t-194 24.5q-164 0 -254 -57.5t-90 -178.5q0 -135 80 -179 t237 -44h701q33 0 46 -13.5t13 -45.5v-33q0 -33 -13.5 -45t-45.5 -12h-99v-117q0 -258 -143 -419t-442 -161q-287 0 -429.5 115t-142.5 303zM279 397q0 -285 393 -284q213 0 310 109.5t97 324.5v119h-508q-141 0 -216.5 -67t-75.5 -202z" />
<glyph unicode="'" horiz-adv-x="360" d="M96 1374q-2 31 12.5 42t51.5 11h43q37 0 51 -11t12 -42l-12 -307q-2 -29 -15.5 -41t-45.5 -12h-35q-27 0 -38 12t-14 41z" />
<glyph unicode="(" horiz-adv-x="700" d="M96 647q0 207 52.5 390.5t151.5 318.5t237 196q35 14 55 15q49 0 49 -60q0 -39 -10 -55t-43 -39q-152 -100 -230.5 -303t-78.5 -463t78.5 -462.5t230.5 -303.5q33 -23 43 -39t10 -55q0 -59 -49 -59q-18 0 -55 14q-138 61 -237 196.5t-151.5 318.5t-52.5 390z" />
<glyph unicode=")" horiz-adv-x="700" d="M59 -213q0 39 10.5 55.5t43.5 38.5q154 100 231.5 302t77.5 464t-78 464t-231 302q-33 23 -43.5 39t-10.5 55q0 59 50 60q20 0 55 -15q137 -61 236.5 -196t151.5 -318.5t52 -390.5t-52 -390t-151.5 -318.5t-236.5 -196.5q-35 -14 -55 -14q-49 0 -50 59z" />
<glyph unicode="*" horiz-adv-x="858" d="M100 1212l37 66q8 12 13.5 14t17.5 -2l186 -84v195q0 25 9.5 35t33.5 10h64q25 0 33 -10.5t8 -34.5v-197l184 82l16 4q10 0 19 -14l37 -66q4 -8 4 -12q0 -14 -21 -24l-206 -91l167 -180q10 -8 11 -22q0 -12 -11 -21l-57 -49q-12 -8 -18 -8q-10 0 -27 16l-172 189 l-178 -193q-8 -10 -19 -10q-12 0 -20 8l-55 49q-12 12 -13 23q0 10 11 20l168 180l-207 91q-27 12 -15 36z" />
<glyph unicode="+" horiz-adv-x="968" d="M96 575v64q0 43 43 43h262v236q0 43 43 43h78q43 0 43 -43v-236h264q43 0 43 -43v-64q0 -43 -43 -43h-264v-233q0 -43 -43 -43h-78q-43 0 -43 43v233h-262q-43 0 -43 43z" />
<glyph unicode="," horiz-adv-x="483" d="M96 -221l4 18l113 344q8 25 19.5 33t39.5 8h78q37 0 37 -24q0 -10 -6 -27l-148 -346q-12 -29 -51 -29h-57q-29 0 -29 23z" />
<glyph unicode="-" horiz-adv-x="968" d="M96 575v64q0 43 43 43h690q43 0 43 -43v-64q0 -43 -43 -43h-690q-43 0 -43 43z" />
<glyph unicode="." horiz-adv-x="376" d="M96 80v31q0 35 21.5 57t54.5 22h33q33 0 54.5 -22.5t21.5 -56.5v-31q0 -33 -21.5 -56.5t-54.5 -23.5h-33q-33 0 -54.5 23.5t-21.5 56.5z" />
<glyph unicode="/" horiz-adv-x="935" d="M98 18q0 4 4 21l545 1327q10 27 39 27h131q23 0 23 -21l-4 -18l-545 -1327q-10 -27 -41 -27h-129q-23 0 -23 18z" />
<glyph unicode="0" horiz-adv-x="1513" d="M96 696q0 350 168 538.5t494 188.5q324 0 491.5 -188t167.5 -539q0 -350 -168 -538.5t-491 -188.5q-326 0 -494 188.5t-168 538.5zM279 696q0 -264 114 -401l643 907q-109 78 -278 78q-240 0 -359.5 -147.5t-119.5 -436.5zM481 184q109 -72 277 -71q237 0 357 147.5 t120 435.5q0 256 -109 398z" />
<glyph unicode="1" horiz-adv-x="940" d="M98 1151q0 20 25 35l319 192q20 14 54 15h41q61 0 61 -62v-1181h225q33 0 47.5 -13.5t14.5 -44.5v-39q0 -31 -14.5 -42t-47.5 -11h-637q-32 0 -46.5 11.5t-14.5 41.5v39q0 31 14.5 44.5t46.5 13.5h226v1032l-207 -125q-16 -10 -31 -10q-18 0 -31 20l-37 57q-8 14 -8 27z " />
<glyph unicode="2" horiz-adv-x="1175" d="M98 59v66q0 133 107.5 267t310.5 241q152 80 228.5 134t112.5 115.5t36 151.5q0 123 -86 184.5t-236 61.5q-102 0 -194 -24.5t-154 -63.5q-10 -8 -20 -8q-12 0 -21 16l-43 76q-6 12 -6 20q0 14 17 25q68 47 184.5 74.5t253.5 27.5q217 0 353 -102t136 -287 q0 -162 -102.5 -271.5t-317.5 -217.5q-178 -92 -274 -191.5t-96 -203.5h719q33 0 46 -13.5t13 -46.5v-35q0 -31 -13.5 -43t-45.5 -12h-850q-58 0 -58 59z" />
<glyph unicode="3" horiz-adv-x="1206" d="M98 96q0 8 6 21l46 76q8 16 18 16t20 -8q152 -88 375 -88q188 0 276.5 75.5t88.5 206.5q0 252 -301 252h-176q-33 0 -47.5 13.5t-14.5 46.5v32q0 31 14.5 43.5t47.5 12.5h180q125 0 189.5 69.5t64.5 171.5q0 123 -86 183.5t-246 60.5q-102 0 -188 -22.5t-148 -59.5 q-14 -8 -22 -8q-10 0 -19 16l-41 70q-8 16 -8 22q0 10 16 23q70 47 183.5 74.5t248.5 27.5q227 0 359.5 -104.5t132.5 -278.5q0 -100 -52 -186t-145 -129q121 -41 180.5 -127t59.5 -207q0 -123 -60.5 -218t-179 -149.5t-286.5 -54.5q-303 1 -469 103q-16 10 -17 24z" />
<glyph unicode="4" horiz-adv-x="1271" d="M55 358v50q0 20 5.5 34.5t19.5 30.5l733 891q14 16 26.5 22.5t32.5 6.5h56q33 0 47 -15.5t14 -46.5v-866h166q33 0 47.5 -13.5t14.5 -45.5v-35q0 -31 -14.5 -43.5t-47.5 -12.5h-166v-256q0 -31 -14 -45t-47 -14h-64q-33 0 -47 14.5t-14 44.5v256h-701q-47 0 -47 43z M262 465h563v686z" />
<glyph unicode="5" horiz-adv-x="1251" d="M98 100q0 8 6 21l46 76q8 14 18 14t20 -8q63 -39 165 -64.5t220 -25.5q197 0 297.5 83t100.5 248q0 186 -86 261t-285 75q-182 0 -309 -61q-27 -10 -51 -10q-43 0 -71 25.5t-26 68.5l35 532q2 29 15.5 43.5t46.5 14.5h790q33 0 47.5 -12.5t14.5 -43.5v-34 q0 -33 -14.5 -46.5t-47.5 -13.5h-688l-25 -373q131 47 316 48q522 0 522 -474q0 -143 -70.5 -250.5t-201.5 -166t-310 -58.5q-137 0 -263 30t-195 77q-16 10 -17 24z" />
<glyph unicode="6" horiz-adv-x="1308" d="M96 600q0 303 86 486.5t221.5 260t298.5 76.5q233 0 375 -98q16 -10 17 -25q0 -8 -7 -20l-40 -70q-8 -18 -21 -18q-6 0 -20 10q-59 41 -130 59.5t-174 18.5q-182 0 -285.5 -115.5t-135.5 -347.5q70 80 172 118t245 38q147 0 264 -58.5t183.5 -166t66.5 -248.5 q0 -260 -149.5 -395.5t-415.5 -135.5q-246 0 -398.5 149.5t-152.5 481.5zM283 492q0 -199 100 -289t264 -90q383 0 383 387q0 160 -103.5 250t-269.5 90q-90 0 -176 -37t-142 -115t-56 -196z" />
<glyph unicode="7" horiz-adv-x="1208" d="M76 1298v43q0 31 11 41.5t42 10.5h938q35 0 50.5 -13.5t15.5 -44.5q0 -23 -14.5 -54.5t-34 -65t-27.5 -50.5l-602 -1145q-6 -12 -15.5 -16t-27.5 -4h-136q-22 0 -22 18q0 12 6 21l637 1204h-768q-31 0 -42 11.5t-11 43.5z" />
<glyph unicode="8" horiz-adv-x="1298" d="M96 379q0 127 68.5 219t185.5 127q-213 88 -213 303q0 190 132 292.5t380 102.5t380 -102t132 -293q0 -215 -213 -303q117 -35 185.5 -127t68.5 -219q0 -195 -146.5 -302.5t-406.5 -107.5t-406.5 107.5t-146.5 302.5zM279 379q0 -266 370 -266q371 0 371 266 q0 272 -371 272t-370 -272zM322 1028q0 -125 82.5 -179t244.5 -54t245 54t83 179q0 133 -81 192.5t-247 59.5t-246.5 -59.5t-80.5 -192.5z" />
<glyph unicode="9" horiz-adv-x="1296" d="M96 887q0 268 147.5 402t418.5 134q248 0 393 -154.5t145 -475.5q0 -446 -166 -635t-428 -189q-119 0 -219 27t-166 72q-16 12 -16 22q0 6 8 23l43 73q8 14 18 15q10 0 21 -8q129 -80 305 -80q381 0 422 462q-143 -160 -406 -159q-156 0 -273.5 58t-182 164.5 t-64.5 248.5zM279 889q0 -168 97 -253t279 -85q86 0 168 37t135.5 111.5t53.5 179.5q0 199 -93.5 300t-256.5 101q-188 0 -285.5 -94t-97.5 -297z" />
<glyph unicode=":" horiz-adv-x="393" d="M96 86v41q0 37 22.5 61.5t59.5 24.5h37q37 0 59.5 -24.5t22.5 -61.5v-41q0 -35 -23.5 -60.5t-58.5 -25.5h-37q-37 0 -59.5 24.5t-22.5 61.5zM96 883v41q0 37 22.5 61.5t59.5 24.5h37q37 0 59.5 -24.5t22.5 -61.5v-41q0 -35 -23.5 -60.5t-58.5 -25.5h-37q-37 0 -59.5 24.5 t-22.5 61.5z" />
<glyph unicode=";" horiz-adv-x="491" d="M96 -221l4 18l113 344q8 25 19.5 33t39.5 8h78q37 0 37 -24q0 -10 -6 -27l-148 -346q-12 -29 -51 -29h-57q-29 0 -29 23zM195 883v41q0 37 22.5 61.5t58.5 24.5h37q37 0 59.5 -24.5t22.5 -61.5v-41q0 -35 -23.5 -60.5t-58.5 -25.5h-37q-36 0 -58.5 24.5t-22.5 61.5z" />
<glyph unicode="&#x3c;" horiz-adv-x="1175" d="M96 532v58q0 18 8.5 28.5t26.5 20.5l909 420q12 4 15 4q10 0 17 -8t7 -21v-100q0 -23 -7 -33t-28 -18l-718 -322l718 -321q20 -8 27.5 -18.5t7.5 -33.5v-102q0 -16 -11 -24.5t-28 -0.5l-909 420q-18 10 -26.5 21.5t-8.5 29.5z" />
<glyph unicode="=" horiz-adv-x="942" d="M96 410v32q0 31 13.5 45.5t46.5 14.5h628q33 0 47.5 -14.5t14.5 -45.5v-32q0 -31 -14.5 -43.5t-47.5 -12.5h-628q-33 0 -46.5 12.5t-13.5 43.5zM96 748v32q0 31 13.5 45.5t46.5 14.5h628q33 0 47.5 -14.5t14.5 -45.5v-32q0 -31 -14.5 -43.5t-47.5 -12.5h-628 q-33 0 -46.5 12.5t-13.5 43.5z" />
<glyph unicode="&#x3e;" horiz-adv-x="1175" d="M96 86v96q0 23 8.5 33t26.5 18l723 328l-723 328q-18 8 -26.5 18.5t-8.5 32.5v94q0 16 11.5 24.5t27.5 0.5l909 -420q18 -10 26.5 -20.5t8.5 -28.5v-58q0 -18 -8 -29t-27 -22l-909 -420q-12 -4 -14 -4q-10 0 -17.5 8.5t-7.5 20.5z" />
<glyph unicode="?" horiz-adv-x="1110" d="M98 1292q0 14 17 25q72 49 184.5 77.5t249.5 28.5q209 0 337 -99t128 -275q0 -127 -59.5 -206t-194.5 -153q-84 -45 -127 -84t-60.5 -87t-17.5 -124v-35q0 -31 -14.5 -45t-46.5 -14h-64q-61 0 -61 59v41q0 135 57 224.5t182 158.5q94 51 140.5 86t63.5 75t17 104 q0 111 -78.5 171t-215.5 60q-201 0 -347 -90q-14 -10 -20 -10q-8 0 -18 16l-46 76q-6 12 -6 20zM348 76v37q0 35 22.5 56t61.5 21h60q39 0 61 -21.5t22 -55.5v-37q0 -33 -23.5 -54.5t-59.5 -21.5h-60q-37 0 -60.5 21.5t-23.5 54.5z" />
<glyph unicode="@" horiz-adv-x="1890" d="M96 616q0 418 238.5 632t656.5 214q389 0 596 -198.5t207 -548.5q0 -238 -99.5 -369t-262.5 -131q-82 0 -134.5 42t-70.5 116q-57 -76 -147.5 -116t-202.5 -40q-180 0 -288 102.5t-108 286.5q0 227 134.5 358.5t367.5 131.5q100 0 194.5 -32t155.5 -81v-512 q0 -68 23.5 -98.5t79.5 -30.5q94 0 147 99.5t53 275.5q0 295 -170 453.5t-477 158.5q-342 0 -538.5 -175t-196.5 -538q0 -217 89 -366.5t241.5 -223t343.5 -73.5q104 0 200.5 24.5t153.5 67.5q10 6 14 6q8 0 15 -12l39 -84q4 -12 4 -14q0 -10 -15 -19q-72 -49 -181 -76.5 t-228 -27.5q-246 0 -434.5 95t-294 275.5t-105.5 427.5zM635 616q0 -135 66.5 -198.5t207.5 -63.5q107 0 190 61.5t83 162.5v327q-86 47 -207 47q-158 0 -249 -89t-91 -247z" />
<glyph unicode="A" horiz-adv-x="1488" d="M98 27q0 4 4 20l551 1303q12 27 21.5 35t32.5 8h75q23 0 32 -8.5t22 -34.5l550 -1303l5 -20q0 -27 -31 -27h-109q-25 0 -34 6t-17 25l-139 334h-633l-139 -334q-8 -18 -17.5 -24.5t-33.5 -6.5h-109q-31 0 -31 27zM481 510h525l-263 631z" />
<glyph unicode="B" horiz-adv-x="1333" d="M137 61v1270q0 61 62 62h581q201 0 307.5 -100.5t106.5 -268.5q0 -100 -52 -180t-147 -119q242 -76 242 -330q0 -111 -49 -201t-149.5 -142t-243.5 -52h-596q-62 0 -62 61zM324 150h469q135 0 198.5 68.5t63.5 176.5q0 125 -78 188.5t-217 63.5h-436v-497zM324 795h440 q119 0 183.5 60t64.5 169q0 117 -58.5 168t-191.5 51h-438v-448z" />
<glyph unicode="C" horiz-adv-x="1384" d="M96 696q0 346 184.5 536.5t524.5 190.5q131 0 245.5 -26.5t192.5 -77.5q16 -10 17 -23q0 -8 -7 -20l-43 -72q-8 -16 -18 -16t-21 8q-61 37 -151 60.5t-201 23.5q-252 0 -396 -144.5t-144 -439.5q0 -299 147 -441t397 -142q123 0 213 21.5t162 64.5q10 8 23 8q10 0 18 -14 l45 -78q6 -8 6 -17q0 -6 -5 -11t-15 -11q-160 -106 -463 -107q-340 0 -525.5 190.5t-185.5 536.5z" />
<glyph unicode="D" horiz-adv-x="1392" d="M137 61v1270q0 61 62 62h389q342 0 525 -165t183 -532t-183 -531.5t-525 -164.5h-389q-62 0 -62 61zM324 150h278q252 0 382 124.5t130 421.5t-130 422t-382 125h-278v-1093z" />
<glyph unicode="E" horiz-adv-x="1185" d="M137 61v1270q0 61 62 62h852q33 0 46 -12.5t13 -43.5v-34q0 -33 -13.5 -46.5t-45.5 -13.5h-727v-471h546q33 0 47.5 -13.5t14.5 -43.5v-33q0 -31 -14.5 -45t-47.5 -14h-546v-473h727q33 0 46 -13.5t13 -46.5v-35q0 -31 -13.5 -43t-45.5 -12h-852q-62 0 -62 61z" />
<glyph unicode="F" horiz-adv-x="1165" d="M137 61v1270q0 61 62 62h852q33 0 46 -12.5t13 -43.5v-34q0 -33 -13.5 -46.5t-45.5 -13.5h-727v-471h546q33 0 47.5 -12t14.5 -43v-35q0 -33 -14.5 -46t-47.5 -13h-546v-562q0 -31 -14.5 -46t-47.5 -15h-63q-62 0 -62 61z" />
<glyph unicode="G" horiz-adv-x="1429" d="M96 696q0 346 185.5 536.5t525.5 190.5q131 0 246.5 -26.5t193.5 -77.5q16 -10 17 -23q0 -8 -7 -20l-43 -72q-8 -16 -18 -16t-20 8q-61 37 -151.5 60.5t-201.5 23.5q-252 0 -398 -144.5t-146 -439.5t145 -438t391 -143q96 0 188.5 16t151.5 45v445h-317q-33 0 -46.5 14 t-13.5 45v35q0 31 13.5 43t46.5 12h430q35 0 50 -16.5t15 -51.5v-561q0 -27 -4 -39t-20 -20q-201 -113 -502 -113q-340 0 -525.5 190.5t-185.5 536.5z" />
<glyph unicode="H" horiz-adv-x="1421" d="M137 61v1270q0 61 62 62h63q33 0 47.5 -15.5t14.5 -46.5v-553h774v553q0 61 63 62h62q33 0 47 -15.5t14 -46.5v-1270q0 -31 -14.5 -46t-46.5 -15h-62q-63 0 -63 61v568h-774v-568q0 -31 -14.5 -46t-47.5 -15h-63q-62 0 -62 61z" />
<glyph unicode="I" horiz-adv-x="460" d="M137 61v1270q0 61 62 62h63q33 0 47.5 -15.5t14.5 -46.5v-1270q0 -31 -14.5 -46t-47.5 -15h-63q-62 0 -62 61z" />
<glyph unicode="J" horiz-adv-x="972" d="M57 82q0 8 6 20l46 74q8 16 20 17q10 0 21 -9q51 -33 125.5 -52t154.5 -19q119 0 174 63.5t55 194.5v960q0 61 64 62h61q33 0 47.5 -15.5t14.5 -46.5v-958q0 -184 -103.5 -294t-312.5 -110q-198 0 -356 90q-16 10 -17 23z" />
<glyph unicode="K" horiz-adv-x="1273" d="M137 61v1270q0 61 62 62h63q33 0 47.5 -15.5t14.5 -46.5v-1270q0 -31 -14.5 -46t-47.5 -15h-63q-62 0 -62 61zM410 698q0 27 8 44.5t26 37.5l527 592q12 14 21 17.5t36 3.5h127q10 0 16.5 -6.5t6.5 -16.5t-11 -24l-577 -648l588 -651q10 -14 10 -24t-6 -16.5t-17 -6.5 h-135q-18 0 -28.5 4t-20.5 16l-537 596q-18 23 -26 39.5t-8 42.5z" />
<glyph unicode="L" horiz-adv-x="1116" d="M137 61v1270q0 61 62 62h63q33 0 47.5 -15.5t14.5 -46.5v-1181h677q33 0 46.5 -13.5t13.5 -46.5v-35q0 -31 -13.5 -43t-46.5 -12h-802q-62 0 -62 61z" />
<glyph unicode="M" horiz-adv-x="1613" d="M137 61v1270q0 61 64 62h69q27 0 41.5 -6.5t24.5 -28.5l471 -1069l473 1069q10 23 24.5 29t41.5 6h69q33 0 47.5 -15.5t14.5 -46.5v-1270q0 -31 -14.5 -46t-47.5 -15h-53q-33 0 -47.5 15.5t-14.5 45.5v990l-428 -949q-10 -23 -24 -34t-41 -11t-41 11.5t-25 33.5l-426 949 v-990q0 -61 -63 -61h-53q-62 0 -62 61z" />
<glyph unicode="N" horiz-adv-x="1427" d="M137 61v1270q0 61 64 62h61q25 0 38 -7.5t28 -27.5l776 -1067v1040q0 61 61 62h64q33 0 47 -15.5t14 -46.5v-1270q0 -31 -14 -46t-47 -15h-64q-23 0 -36 7t-27 28l-778 1065v-1039q0 -31 -14.5 -46t-47.5 -15h-63q-62 0 -62 61z" />
<glyph unicode="O" horiz-adv-x="1566" d="M96 696q0 344 180.5 535.5t507.5 191.5q326 0 506 -191.5t180 -535.5t-180 -535.5t-506 -191.5q-327 0 -507.5 191.5t-180.5 535.5zM279 696q0 -285 132 -434t373 -149q240 0 372 149.5t132 433.5q0 285 -132 434.5t-372 149.5q-242 0 -373.5 -149.5t-131.5 -434.5z" />
<glyph unicode="P" horiz-adv-x="1255" d="M137 61v1270q0 61 62 62h536q231 0 348 -119t117 -334t-116.5 -333t-350.5 -118h-409v-428q0 -31 -14.5 -46t-47.5 -15h-63q-62 0 -62 61zM324 639h409q143 0 213 74.5t70 226.5q0 154 -69.5 228.5t-213.5 74.5h-409v-604z" />
<glyph unicode="Q" horiz-adv-x="1566" d="M96 696q0 344 180.5 535.5t507.5 191.5q326 0 506 -191.5t180 -535.5q0 -328 -163.5 -516t-462.5 -207q0 -109 69.5 -159t186.5 -50q119 0 215 62q12 6 18 6q8 0 17 -12l45 -72q4 -6 4 -16q0 -12 -17 -23q-68 -41 -138 -60.5t-159 -19.5q-186 0 -292.5 93.5t-106.5 252.5 q-283 27 -436.5 215.5t-153.5 505.5zM279 696q0 -285 132 -434t373 -149q240 0 372 149.5t132 433.5q0 285 -132 434.5t-372 149.5q-242 0 -373.5 -149.5t-131.5 -434.5z" />
<glyph unicode="R" horiz-adv-x="1296" d="M137 61v1270q0 61 62 62h549q213 0 332.5 -106.5t119.5 -313.5q0 -143 -73.5 -244.5t-211.5 -148.5l240 -537q4 -12 4 -18q0 -25 -31 -25h-108q-23 0 -34 7t-19 30l-228 520h-415v-496q0 -31 -14.5 -46t-47.5 -15h-63q-62 0 -62 61zM324 705h368q168 0 246 62t78 206 q0 141 -68.5 205.5t-214.5 64.5h-409v-538z" />
<glyph unicode="S" horiz-adv-x="1189" d="M100 109q0 6 6 18l48 78q8 14 18 14t21 -8q74 -47 177 -72.5t214 -25.5q162 0 243.5 54t81.5 177q0 78 -32.5 125t-100 81t-219.5 89q-133 49 -217 93t-142.5 121t-58.5 196q0 174 134.5 274t344.5 100q258 0 418 -102q20 -14 21 -27q0 -8 -6 -18l-47 -78 q-10 -16 -19 -16q-6 0 -20 10q-131 88 -347 88q-137 0 -216.5 -57.5t-79.5 -175.5q0 -74 28.5 -117t81.5 -71t172 -73l84 -32q147 -57 229 -105.5t129.5 -122t47.5 -188.5q0 -172 -129 -270.5t-365 -98.5q-133 0 -266 30t-213 83q-20 12 -21 27z" />
<glyph unicode="T" horiz-adv-x="1175" d="M55 1298v35q0 31 13.5 45.5t46.5 14.5h944q33 0 47 -14.5t14 -45.5v-35q0 -31 -14 -43t-47 -12h-379v-1182q0 -31 -14.5 -46t-47.5 -15h-61q-63 0 -63 61v1182h-379q-33 0 -46.5 12.5t-13.5 42.5z" />
<glyph unicode="U" horiz-adv-x="1466" d="M127 487v844q0 61 61 62h64q33 0 47 -15.5t14 -46.5v-852q0 -170 111 -268t309 -98q199 0 309.5 98t110.5 268v852q0 31 14.5 46.5t46.5 15.5h62q63 0 63 -62v-844q0 -158 -76.5 -275.5t-214 -180t-315.5 -62.5t-315 62.5t-214 180.5t-77 275z" />
<glyph unicode="V" horiz-adv-x="1478" d="M98 1364q0 29 31 29h107q27 0 38 -9.5t19 -29.5l446 -1088l447 1088q8 20 20.5 29.5t36.5 9.5h109q31 0 30 -29q0 -6 -4 -18l-547 -1303q-12 -27 -21 -35t-34 -8h-74q-22 0 -31 8t-22 35l-547 1303q-4 12 -4 18z" />
<glyph unicode="W" horiz-adv-x="1810" d="M98 1364q0 29 33 29h107q27 0 37 -8.5t14 -30.5l246 -1039l286 936q6 20 16.5 27.5t30.5 7.5h72q20 0 30.5 -7t16.5 -28l289 -936l244 1039q4 20 15 29.5t38 9.5h106q33 0 33 -28q0 -7 -2 -15l-332 -1307q-6 -25 -18 -34t-35 -9h-74q-25 0 -36 9t-19 34l-291 961 l-291 -961q-8 -25 -20 -34t-35 -9h-74q-24 0 -36.5 9t-18.5 34l-330 1307q-2 6 -2 14z" />
<glyph unicode="X" horiz-adv-x="1423" d="M96 25q0 8 10 22l500 664l-477 635q-10 14 -10 26q0 20 24 21h127q20 0 29.5 -4.5t17.5 -16.5l394 -522l395 522q8 12 17.5 16.5t29.5 4.5h127q25 0 25 -21q0 -12 -11 -26l-479 -635l502 -664q10 -14 10 -22q0 -10 -8 -17.5t-21 -7.5h-127q-18 0 -25 4t-18 16l-417 551 l-416 -551q-10 -12 -17.5 -16t-25.5 -4h-127q-12 0 -20.5 7t-8.5 18z" />
<glyph unicode="Y" horiz-adv-x="1421" d="M96 1368q0 25 33 25h109q25 0 33 -5.5t16 -19.5l424 -733l424 733q8 14 16 19.5t33 5.5h108q33 0 33 -25q0 -10 -6 -22l-514 -885v-400q0 -61 -64 -61h-61q-64 0 -64 61v402l-514 883q-6 12 -6 22z" />
<glyph unicode="Z" horiz-adv-x="1292" d="M96 57q0 25 9.5 46.5t31.5 52.5l807 1087h-754q-33 0 -48 14.5t-15 45.5v34q0 31 15.5 43.5t47.5 12.5h947q31 0 43 -13.5t12 -44.5q0 -29 -7 -46t-34 -52l-805 -1087h789q33 0 47 -13.5t14 -46.5v-35q0 -31 -14.5 -43t-46.5 -12h-985q-31 0 -42.5 13.5t-11.5 43.5z" />
<glyph unicode="[" horiz-adv-x="583" d="M96 -82v1557q0 61 58 61h295q33 0 46 -12.5t13 -42.5v-35q0 -33 -13.5 -46.5t-45.5 -13.5h-166v-1380h166q33 0 46 -13t13 -46v-35q0 -31 -13.5 -43t-45.5 -12h-295q-58 0 -58 61z" />
<glyph unicode="\" horiz-adv-x="948" d="M98 1405q0 18 23 18h129q18 0 26.5 -6t14.5 -20l557 -1358q4 -16 4 -21q0 -18 -23 -18h-131q-16 0 -24 6t-15 21l-557 1357q-4 8 -4 21z" />
<glyph unicode="]" horiz-adv-x="583" d="M76 -53q0 33 13 46t46 13h166v1380h-166q-33 0 -46 13.5t-13 46.5v35q0 31 13 43t46 12h295q57 0 57 -61v-1557q0 -61 -57 -61h-295q-33 0 -46 12t-13 43v35z" />
<glyph unicode="^" horiz-adv-x="1232" d="M96 719q0 12 8 22l422 684q16 27 28.5 37.5t37.5 10.5h49q25 0 37 -10.5t29 -37.5l421 -684q8 -10 9 -22q0 -25 -29 -25h-104q-25 0 -35.5 5.5t-20.5 23.5l-332 559l-331 -559q-10 -18 -20.5 -23.5t-35.5 -5.5h-104q-29 0 -29 25z" />
<glyph unicode="_" horiz-adv-x="1128" d="M96 -74q0 43 43 43h850q43 0 43 -43v-63q0 -43 -43 -43h-850q-43 0 -43 43v63z" />
<glyph unicode="`" horiz-adv-x="501" d="M96 1503q0 10 9.5 17.5t25.5 7.5h119q23 0 31 -6t14 -23l106 -289l5 -20q0 -25 -33 -25h-78q-23 0 -33 7.5t-20 27.5l-138 279q-8 20 -8 24z" />
<glyph unicode="a" horiz-adv-x="1257" d="M96 430q0 174 73 306t210 205t321 73q129 0 238 -34t182 -85v-844q0 -27 -12 -39t-41 -12h-63q-23 0 -33 10t-15 33l-10 90q-66 -86 -164 -125t-239 -39q-205 0 -326 120t-121 341zM279 440q0 -170 82.5 -249.5t250.5 -79.5q82 0 158 32.5t123 95t47 144.5v440 q-102 51 -244 51q-188 0 -302.5 -115.5t-114.5 -318.5z" />
<glyph unicode="b" horiz-adv-x="1259" d="M137 98v1233q0 61 62 62h61q33 0 47.5 -15.5t14.5 -46.5v-432q63 57 158 86t210 29q225 0 349 -126t124 -356q0 -268 -142 -415.5t-425 -147.5q-133 0 -259 37t-200 92zM322 174q43 -29 117.5 -46t150.5 -17q198 0 293.5 102t95.5 309q0 180 -79 265t-261 85 q-123 0 -220 -60t-97 -177v-461z" />
<glyph unicode="c" horiz-adv-x="1161" d="M96 487q0 156 68.5 275t195.5 185.5t295 66.5q125 0 212 -22.5t165 -78.5q16 -12 17 -24q0 -4 -9 -21l-41 -69q-8 -18 -18 -19q-6 0 -20 11q-61 43 -133 63t-169 20q-180 0 -280 -103t-100 -284q0 -193 100 -284.5t299 -91.5q98 0 167.5 21.5t129.5 62.5q14 10 20 10 q10 0 19 -19l43 -71q8 -16 8 -19q0 -12 -18 -24q-78 -51 -170.5 -77t-212.5 -26q-267 0 -417.5 134.5t-150.5 383.5z" />
<glyph unicode="d" horiz-adv-x="1259" d="M96 494q0 154 60.5 271.5t171 183t258.5 65.5q246 0 352 -115v432q0 31 14.5 46.5t46.5 15.5h60q63 0 63 -62v-1233q-74 -55 -198.5 -92t-259.5 -37q-287 0 -427.5 130t-140.5 395zM279 483q0 -199 96 -285.5t293 -86.5q172 0 270 63v461q0 117 -86 177t-217 60 q-178 0 -267 -103t-89 -286z" />
<glyph unicode="e" horiz-adv-x="1228" d="M96 473q0 266 138.5 403.5t392.5 137.5q252 0 379 -132t127 -393q0 -55 -54 -55h-805q0 -162 106.5 -246t295.5 -84q178 0 307 80q12 6 18 6q12 0 19 -14l39 -67q4 -6 4 -17q0 -14 -16 -24q-82 -51 -175.5 -75t-214.5 -24q-153 0 -280 53.5t-204 167t-77 283.5zM274 559 h687q0 154 -84 239t-250 85q-170 0 -261.5 -88t-91.5 -236z" />
<glyph unicode="f" horiz-adv-x="862" d="M55 897v31q0 31 13.5 43t46.5 12h108v98q0 160 84 251t254 91q172 0 268 -73q16 -12 17 -25q0 -8 -6 -18l-39 -66q-8 -14 -19 -14q-6 0 -18 6q-47 29 -85 41t-89 12q-98 0 -139 -50t-41 -155v-98h292q33 0 46.5 -12.5t13.5 -42.5v-31q0 -33 -13.5 -46t-46.5 -13h-292 v-777q0 -31 -14.5 -46t-47.5 -15h-63q-62 0 -62 61v777h-108q-33 0 -46.5 13t-13.5 46z" />
<glyph unicode="g" horiz-adv-x="1259" d="M96 467q0 260 151.5 403.5t432.5 143.5q125 0 247 -34t195 -83v-737q0 -246 -115.5 -377t-353.5 -131q-118 0 -224.5 20.5t-162.5 53.5q-37 23 -22 45l45 75q8 16 18 17q6 0 19 -6q55 -29 140 -47.5t173 -18.5q158 0 228.5 79t70.5 265q-68 -80 -150.5 -114.5 t-212.5 -34.5q-221 0 -350 127t-129 354zM279 481q0 -350 346 -350q135 0 224 72.5t89 195.5v424q-45 23 -116.5 36t-147.5 13q-188 0 -291.5 -97t-103.5 -294z" />
<glyph unicode="h" horiz-adv-x="1212" d="M137 61v1280q0 29 9.5 40.5t37.5 11.5h92q29 0 38.5 -11.5t9.5 -40.5v-479q70 78 164 115t231 37q168 0 267 -87t99 -263v-603q0 -31 -14 -46t-47 -15h-61q-63 0 -64 61v592q0 119 -59.5 169t-177.5 50q-80 0 -159 -31.5t-129 -90t-50 -129.5v-560q0 -31 -14.5 -46 t-47.5 -15h-61q-64 0 -64 61z" />
<glyph unicode="i" horiz-adv-x="499" d="M137 1270v41q0 35 22.5 58.5t61.5 23.5h58q39 0 61 -23.5t22 -58.5v-41q0 -35 -22.5 -58.5t-60.5 -23.5h-58q-39 0 -61.5 23.5t-22.5 58.5zM158 61v861q0 31 14 46t47 15h62q63 0 63 -61v-861q0 -61 -63 -61h-62q-33 0 -47 15.5t-14 45.5z" />
<glyph unicode="j" horiz-adv-x="581" d="M-231 -240q0 6 6 19l43 71q8 16 20 17q10 0 21 -8q49 -33 94 -48.5t104 -15.5q106 0 143.5 47t37.5 156v924q0 61 63 61h61q63 0 64 -61v-930q0 -162 -85 -251t-259 -89q-86 0 -164 20.5t-133 61.5q-16 12 -16 26zM219 1270v41q0 33 22.5 57.5t59.5 24.5h59 q39 0 61.5 -23.5t22.5 -58.5v-41q0 -35 -22.5 -58.5t-61.5 -23.5h-59q-37 0 -59.5 24.5t-22.5 57.5z" />
<glyph unicode="k" horiz-adv-x="1114" d="M137 61v1270q0 61 62 62h63q33 0 47.5 -15.5t14.5 -46.5v-1270q0 -31 -14.5 -46t-47.5 -15h-63q-62 0 -62 61zM397 518q0 29 8.5 47.5t26.5 34.5l381 363q14 14 23.5 17t33.5 3h127q10 0 16.5 -7t6.5 -18q0 -14 -10 -22l-439 -418l453 -471q10 -14 10 -24t-6 -16.5 t-16 -6.5h-135q-19 0 -29 4t-21 16l-395 416q-18 18 -26.5 37t-8.5 45z" />
<glyph unicode="l" horiz-adv-x="460" d="M137 61v1270q0 61 62 62h63q33 0 47.5 -15.5t14.5 -46.5v-1270q0 -31 -14.5 -46t-47.5 -15h-63q-62 0 -62 61z" />
<glyph unicode="m" horiz-adv-x="1650" d="M137 61v871q0 29 9.5 40t37.5 11h64q23 0 32 -10t11 -33l2 -98q59 82 139 127t193 45q90 0 159.5 -45t94.5 -129q53 82 139 128t199 46q139 0 223 -85t84 -255v-613q0 -61 -64 -61h-53q-33 0 -47 15.5t-14 45.5v603q0 113 -46.5 160.5t-138.5 47.5q-104 0 -173.5 -68.5 t-69.5 -176.5v-566q0 -61 -62 -61h-51q-33 0 -47.5 15.5t-14.5 45.5v617q0 100 -43 147t-131 47q-109 0 -181.5 -71.5t-72.5 -184.5v-555q0 -31 -14 -46t-47 -15h-53q-64 0 -64 61z" />
<glyph unicode="n" horiz-adv-x="1212" d="M137 61v871q0 29 9.5 40t37.5 11h68q45 0 45 -43v-94q145 168 422 168q168 0 267 -87t99 -263v-603q0 -31 -14 -46t-47 -15h-61q-63 0 -64 61v592q0 121 -56.5 170t-180.5 49q-84 0 -163 -31.5t-127 -89t-48 -130.5v-560q0 -31 -14.5 -46t-47.5 -15h-61q-64 0 -64 61z " />
<glyph unicode="o" horiz-adv-x="1269" d="M96 492q0 242 139.5 382t399.5 140q258 0 398.5 -140.5t140.5 -381.5q0 -242 -140.5 -382.5t-398.5 -140.5q-260 0 -399.5 140.5t-139.5 382.5zM279 492q0 -182 91 -280.5t265 -98.5q172 0 263 97t91 282q0 182 -90 279t-264 97t-265 -97t-91 -279z" />
<glyph unicode="p" horiz-adv-x="1259" d="M137 -352v1249q74 49 198 83t245 34q583 0 583 -520q0 -246 -129 -385.5t-352 -139.5q-119 0 -207 36t-153 112v-469q0 -31 -14.5 -46.5t-47.5 -15.5h-61q-62 1 -62 62zM319 381q0 -82 44.5 -143.5t117 -94t154.5 -32.5q174 0 259 100t85 291q0 199 -99.5 284.5 t-304.5 85.5q-164 0 -256 -49v-442z" />
<glyph unicode="q" horiz-adv-x="1259" d="M96 463q0 264 151.5 407.5t432.5 143.5q125 0 247 -34t195 -83v-1249q0 -61 -63 -62h-60q-32 0 -46.5 15.5t-14.5 46.5v469q-66 -76 -155 -112t-208 -36q-221 0 -350 132t-129 362zM279 473q0 -362 346 -362q82 0 153.5 32.5t115.5 94t44 143.5v442q-92 49 -256 49 q-193 0 -298 -99t-105 -300z" />
<glyph unicode="r" horiz-adv-x="806" d="M137 61v871q0 29 9.5 40t37.5 11h68q23 0 32 -10t11 -33l2 -82q55 74 138 115t192 41q76 0 110 -23q18 -12 13 -30l-23 -91q-6 -25 -31 -14q-41 18 -102 18q-117 0 -193.5 -65.5t-76.5 -181.5v-566q0 -31 -14.5 -46t-47.5 -15h-61q-64 0 -64 61z" />
<glyph unicode="s" horiz-adv-x="1052" d="M98 94q0 6 6 19l43 73q10 16 19 17q2 0 18 -8q63 -41 151.5 -65t174.5 -24q135 0 198.5 32t63.5 108q0 49 -25.5 78.5t-84 53t-185.5 60.5q-117 35 -186.5 70t-110.5 91t-41 142q0 135 109.5 204t288.5 69q115 0 213 -25.5t165 -70.5q20 -12 21 -27q0 -6 -6 -19l-41 -67 q-8 -14 -17 -14q-10 0 -20 8q-121 78 -299 78q-123 0 -178.5 -31t-55.5 -109q0 -49 28 -78.5t75 -49t145 -48.5l80 -24q119 -37 185.5 -76t95 -90.5t28.5 -128.5q0 -123 -106.5 -198t-310.5 -75q-115 0 -228.5 24.5t-191.5 76.5q-20 12 -21 24z" />
<glyph unicode="t" horiz-adv-x="911" d="M55 887v43q0 31 10.5 42t43.5 11h133v143q0 39 11 70t40 86q10 16 18 22.5t27 6.5h41q27 0 38 -13.5t11 -40.5v-274h281q33 0 43 -11t10 -42v-43q0 -31 -10.5 -40t-42.5 -9h-281v-521q0 -109 38 -156.5t130 -47.5q51 0 90 13t82 42q12 6 18 6q10 0 19 -14l43 -70 q6 -12 6 -20q0 -14 -16 -25q-109 -76 -273 -76t-243.5 91.5t-79.5 250.5v527h-133q-33 0 -43.5 9t-10.5 40z" />
<glyph unicode="u" horiz-adv-x="1196" d="M127 336v586q0 61 61 61h64q33 0 47 -15.5t14 -45.5v-584q0 -119 62.5 -173t185.5 -54q131 0 221 71.5t90 184.5v555q0 61 64 61h61q33 0 47.5 -15.5t14.5 -45.5v-871q0 -29 -9.5 -40t-35.5 -11h-68q-23 0 -31 10t-10 33l-6 98q-70 -84 -165 -128t-232 -44 q-168 0 -271.5 93.5t-103.5 273.5z" />
<glyph unicode="v" horiz-adv-x="1226" d="M98 954q0 29 31 29h104q25 0 36.5 -9t19.5 -30l323 -723l324 723q8 20 20.5 29.5t36.5 9.5h105q31 0 30 -29q0 -12 -4 -18l-419 -893q-10 -25 -22.5 -34t-37.5 -9h-63q-25 0 -36 9t-24 34l-420 893q-4 6 -4 18z" />
<glyph unicode="w" horiz-adv-x="1601" d="M98 956q0 27 31 27h100q25 0 33 -7t14 -28l213 -706l234 618q8 20 17.5 28.5t27.5 8.5h68q20 0 28 -8t17 -29l231 -618l213 706q6 20 14.5 27.5t32.5 7.5h103q18 0 25 -10t1 -29l-287 -905q-8 -23 -18 -31t-31 -8h-78q-20 0 -29 8t-18 31l-239 643l-240 -643 q-8 -23 -17 -31t-30 -8h-78q-20 0 -30.5 8t-18.5 31l-287 905q-2 4 -2 12z" />
<glyph unicode="x" horiz-adv-x="1208" d="M96 25q0 8 10 22l392 455l-373 434q-10 10 -10 25q0 23 24 22h127q20 0 28.5 -4t18.5 -16l289 -336l293 336q10 12 18.5 16t28.5 4h127q25 0 25 -22q0 -14 -11 -25l-374 -434l393 -455q10 -14 10 -22q0 -10 -8 -17.5t-21 -7.5h-127q-18 0 -24 4t-19 16l-311 357 l-307 -357q-12 -12 -18.5 -16t-24.5 -4h-127q-12 0 -20.5 7t-8.5 18z" />
<glyph unicode="y" horiz-adv-x="1206" d="M100 -221q0 6 6 16l46 76q8 14 18 14t20 -8q35 -29 71 -42t87 -13q68 0 109 48t88 167l-422 899q-6 12 -6 22q0 25 28 25h109q27 0 36 -6t19 -27l326 -729l323 729q10 20 19.5 26.5t36.5 6.5h108q29 0 29 -25q0 -10 -6 -22l-387 -827q-84 -178 -134.5 -262.5t-112.5 -125 t-161 -40.5q-71 0 -132.5 21.5t-102.5 55.5q-14 12 -15 21z" />
<glyph unicode="z" horiz-adv-x="1134" d="M98 53q0 39 8.5 57.5t36.5 49.5l637 674h-592q-33 0 -48 14t-15 45v35q0 31 15.5 43t47.5 12h785q27 0 37 -13.5t10 -39.5q0 -35 -8 -55.5t-37 -51.5l-623 -673h625q33 0 47 -13.5t14 -46.5v-35q0 -31 -14 -43t-47 -12h-832q-26 0 -36.5 13.5t-10.5 39.5z" />
<glyph unicode="{" horiz-adv-x="755" d="M55 680v31q0 33 13.5 46t46.5 13h172v705q0 31 14 46t47 15h270q33 0 47.5 -12.5t14.5 -42.5v-31q0 -33 -14.5 -46t-47.5 -13h-147v-1389h147q33 0 47.5 -13.5t14.5 -45.5v-31q0 -31 -14.5 -43t-47.5 -12h-270q-33 0 -47 15t-14 46v707h-172q-33 0 -46.5 12t-13.5 43z " />
<glyph unicode="|" horiz-adv-x="378" d="M96 -123v1639q0 61 62 61h63q33 0 47.5 -15.5t14.5 -45.5v-1639q0 -31 -14.5 -46t-47.5 -15h-63q-62 0 -62 61z" />
<glyph unicode="}" horiz-adv-x="755" d="M76 -57q0 33 13 46t46 13h150v1389h-150q-33 0 -46 13t-13 46v31q0 31 13 43t46 12h273q33 0 47 -15.5t14 -45.5v-705h170q33 0 47 -13.5t14 -45.5v-31q0 -31 -14 -43t-47 -12h-170v-707q0 -31 -14.5 -46t-46.5 -15h-273q-33 0 -46 12t-13 43v31z" />
<glyph unicode="~" horiz-adv-x="1196" d="M98 592q0 23 27 55q51 66 111.5 101.5t144.5 35.5q63 0 117.5 -22.5t126.5 -63.5q57 -35 98 -52t84 -17q49 0 80 19.5t65 58.5q31 35 60 34q25 0 59 -28q27 -20 27 -41q0 -23 -27 -56q-51 -66 -110.5 -101.5t-141.5 -35.5q-63 0 -117.5 22.5t-123.5 63.5 q-66 35 -106 52.5t-83 17.5q-49 0 -78.5 -19.5t-66.5 -58.5q-33 -33 -60 -33t-59 27q-27 20 -27 41z" />
<glyph unicode="&#xa1;" horiz-adv-x="417" d="M96 1212v41q0 35 24.5 55.5t67.5 20.5h41q45 0 69 -20.5t24 -55.5v-41q0 -35 -24 -55t-69 -20h-41q-43 0 -67.5 19.5t-24.5 55.5zM117 -2l10 872q0 29 22.5 44.5t59.5 15.5t59.5 -15.5t22.5 -44.5l12 -872q0 -33 -13.5 -47t-45.5 -14h-68q-33 0 -46 14t-13 47z" />
<glyph unicode="&#xa2;" horiz-adv-x="1161" d="M96 487q0 143 58.5 257t166 182.5t250.5 81.5v125q0 61 64 61h53q33 0 47.5 -15.5t14.5 -45.5v-125q174 -16 282 -95q16 -12 17 -24q0 -4 -9 -21l-41 -69q-8 -16 -18 -17q-10 0 -20 9q-63 41 -133 62t-169 21q-176 0 -278 -104t-102 -283q0 -188 104 -282t295 -94 q176 0 297 84q14 10 20 10q10 0 19 -19l43 -71q8 -16 8 -19q0 -12 -18 -24q-119 -80 -297 -97v-125q0 -31 -14.5 -46t-47.5 -15h-53q-64 0 -64 61v127q-225 18 -350 149.5t-125 360.5z" />
<glyph unicode="&#xa3;" horiz-adv-x="1167" d="M96 59v31q0 31 13.5 43t46.5 12q55 0 90 53.5t35 143.5v350h-109q-33 0 -46 13.5t-13 46.5v30q0 31 13 43.5t46 12.5h109v221q0 104 50 187t142 130t215 47q193 0 289 -73q16 -12 16 -25q0 -8 -6 -18l-39 -66q-8 -14 -18 -14q-6 0 -19 6q-41 25 -96 39t-110 14 q-106 0 -172 -56t-66 -171v-221h342q33 0 46 -12.5t13 -43.5v-30q0 -33 -13 -46.5t-46 -13.5h-342v-319q0 -82 -15.5 -135.5t-56.5 -92.5h615q33 0 47 -12t14 -43v-31q0 -31 -14.5 -45t-46.5 -14h-854q-33 0 -46.5 14.5t-13.5 44.5z" />
<glyph unicode="&#xa4;" horiz-adv-x="1085" d="M96 276q0 18 21 39l84 84q-74 104 -74 228q0 121 74 227l-84 82q-20 20 -21 37q0 16 17 33l45 43q18 18 37 18q16 0 36 -20l93 -86q100 70 221 69q119 0 219 -69l88 86q18 18 37 18q20 0 39 -18l43 -41q16 -16 16 -33q0 -16 -20 -37l-82 -82q76 -98 76 -227 q0 -127 -76 -230l82 -82q20 -20 20 -36t-16 -33l-43 -41q-18 -18 -39 -19q-18 0 -37 19l-88 86q-94 -68 -219 -68q-127 0 -221 70l-93 -88q-18 -18 -36 -19q-18 0 -37 19l-45 41q-16 14 -17 30zM285 627q0 -70 34.5 -130.5t95 -95t130.5 -34.5q69 0 128.5 34.5t94.5 95 t35 130.5t-35 129t-94.5 94t-128.5 35q-109 0 -184.5 -76t-75.5 -182z" />
<glyph unicode="&#xa5;" horiz-adv-x="1421" d="M96 1368q0 25 33 25h109q25 0 33 -5.5t16 -19.5l424 -733l424 733q8 14 16 19.5t33 5.5h108q33 0 33 -25q0 -10 -6 -22l-438 -754h174q33 0 46 -12.5t13 -42.5v-27q0 -31 -13.5 -41t-45.5 -10h-250v-127h250q33 0 46 -12.5t13 -43.5v-26q0 -31 -13.5 -42t-45.5 -11h-250 v-136q0 -61 -64 -61h-61q-64 0 -64 61v136h-249q-33 0 -46.5 11t-13.5 42v26q0 31 13.5 43.5t46.5 12.5h249v127h-249q-33 0 -46.5 10t-13.5 41v27q0 31 13.5 43t46.5 12h174l-439 754q-6 12 -6 22z" />
<glyph unicode="&#xa6;" horiz-adv-x="378" d="M96 268q0 61 62 62h63q33 0 47.5 -15.5t14.5 -46.5v-655q0 -31 -14.5 -46.5t-47.5 -15.5h-63q-62 1 -62 62v655zM96 778v656q0 61 62 61h63q33 0 47.5 -15.5t14.5 -45.5v-656q0 -31 -14.5 -46t-47.5 -15h-63q-62 0 -62 61z" />
<glyph unicode="&#xa7;" horiz-adv-x="1189" d="M98 -184q0 8 6 18l46 74q8 14 18 14t20 -8q84 -49 174.5 -69.5t221.5 -20.5q160 0 242.5 52t82.5 171q0 82 -39 131t-110.5 82t-216.5 82q-184 61 -294 150.5t-110 246.5q0 94 45 150q-45 72 -45 170q0 176 125 270t336 94q133 0 245.5 -29.5t188.5 -78.5q29 -18 15 -43 l-45 -74q-8 -14 -19 -14q-10 0 -20 8q-68 39 -159 63.5t-188 24.5q-154 0 -225 -52t-71 -175q0 -74 31.5 -118t87 -71.5t171.5 -70.5l80 -31q143 -55 222 -99.5t128.5 -121t49.5 -201.5q0 -74 -37 -127q39 -66 39 -170q0 -172 -127 -267t-371 -95q-152 0 -260.5 23.5 t-214.5 80.5q-23 12 -23 31zM297 743q0 -70 28.5 -112.5t83 -72.5t158.5 -71l76 -28q109 -39 174.5 -68t114.5 -65q4 16 4 34q-4 102 -61.5 155.5t-198.5 100.5l-94 31q-98 35 -163 63.5t-116 69.5q-6 -14 -6 -37z" />
<glyph unicode="&#xa8;" horiz-adv-x="794" d="M96 1241v33q0 35 23.5 60.5t58.5 25.5h35q35 0 58.5 -25.5t23.5 -60.5v-33q0 -37 -22.5 -61.5t-59.5 -24.5h-35q-35 0 -58.5 25.5t-23.5 60.5zM500 1241v33q0 37 22.5 61.5t59.5 24.5h34q35 0 58.5 -25.5t23.5 -60.5v-33q0 -37 -22.5 -61.5t-59.5 -24.5h-34 q-37 0 -59.5 24.5t-22.5 61.5z" />
<glyph unicode="&#xa9;" horiz-adv-x="1654" d="M96 696q0 197 98.5 364t267.5 265t365 98q197 0 366 -98t267.5 -265t98.5 -364t-98.5 -363.5t-267.5 -265t-366 -98.5q-196 0 -365 98.5t-267.5 265.5t-98.5 363zM225 696q0 -168 79 -306t217 -218t306 -80t306.5 80t217.5 218t79 306t-79 306.5t-217.5 218t-306.5 79.5 t-306 -79.5t-217 -218t-79 -306.5zM332 692q0 152 59.5 266.5t169 177t250.5 62.5q121 0 207 -21.5t153 -74.5q14 -14 15 -23q0 -6 -6 -16l-31 -57q-6 -12 -14 -13q-6 0 -19 6q-57 39 -124.5 59.5t-166.5 20.5q-164 0 -256 -102.5t-92 -284.5q0 -190 94.5 -283.5 t272.5 -93.5q90 0 157.5 21.5t124.5 60.5q12 6 19 6q10 0 16 -12l31 -57q6 -8 6 -19q0 -8 -14 -20q-143 -98 -353 -98q-235 0 -367 128t-132 367z" />
<glyph unicode="&#xaa;" horiz-adv-x="774" d="M96 944q0 94 65.5 145.5t180.5 51.5h213v28q0 84 -39 121t-125 37q-51 0 -89 -10t-83 -31q-8 -4 -12 -2t-10 8l-35 60q-2 2 -2 8q0 10 20 20q92 43 217 43q147 0 214 -65.5t67 -202.5v-356q0 -27 -31 -27h-51q-27 0 -31 27l-8 55q-37 -47 -97.5 -73.5t-135.5 -26.5 q-103 0 -165.5 49t-62.5 141zM213 948q0 -102 135 -102q86 0 146.5 49t60.5 125v31h-197q-74 0 -109.5 -25t-35.5 -78z" />
<glyph unicode="&#xab;" horiz-adv-x="1275" d="M96 555v25q0 14 9.5 26t17.5 21.5t12 13.5l381 403q23 25 41 25q14 0 31 -16l53 -54q18 -14 18 -30t-20 -37l-348 -365l348 -364q20 -20 20 -37q0 -14 -18 -31l-53 -53q-15 -14 -31 -14q-20 0 -41 22l-381 404q-4 4 -16.5 17t-17.5 23.5t-5 20.5zM616 555v25q0 14 9.5 26 t17.5 21.5t12 13.5l381 403q23 25 41 25q14 0 31 -16l53 -54q18 -18 19 -32q0 -14 -21 -35l-348 -365l348 -364q20 -20 21 -37q0 -14 -19 -31l-53 -53q-15 -14 -31 -14q-20 0 -41 22l-381 404q-4 4 -16 17t-17.5 23.5t-5.5 20.5z" />
<glyph unicode="&#xac;" horiz-adv-x="968" d="M96 590v33q0 33 13.5 46t46.5 13h655q33 0 47 -13.5t14 -45.5v-312q0 -31 -15 -45t-46 -14h-43q-31 0 -45 13.5t-14 45.5v221h-553q-33 0 -46.5 12.5t-13.5 45.5z" />
<glyph unicode="&#xad;" horiz-adv-x="968" d="M96 590v33q0 33 13.5 46t46.5 13h655q33 0 47 -13.5t14 -45.5v-33q0 -31 -14 -44.5t-47 -13.5h-655q-33 0 -46.5 12.5t-13.5 45.5z" />
<glyph unicode="&#xae;" horiz-adv-x="1654" d="M96 696q0 197 98.5 364t267.5 265t365 98q197 0 366 -98t267.5 -265t98.5 -364t-98.5 -363.5t-267.5 -265t-366 -98.5q-196 0 -365 98.5t-267.5 265.5t-98.5 363zM225 696q0 -168 79 -306t217 -218t306 -80t306.5 80t217.5 218t79 306t-79 306.5t-217.5 218t-306.5 79.5 t-306 -79.5t-217 -218t-79 -306.5zM504 279v845q0 47 51 47h373q147 0 224 -72.5t77 -213.5q0 -109 -54.5 -179.5t-175.5 -95.5l162 -344q6 -12 6 -20q0 -16 -22 -17h-86q-14 0 -21.5 4.5t-13.5 18.5l-158 344h-219v-317q0 -49 -49 -50h-43q-51 1 -51 50zM643 713h258 q109 0 151 41t42 131q0 94 -40 132t-143 38h-268v-342z" />
<glyph unicode="&#xaf;" horiz-adv-x="878" d="M96 1288v33q0 33 13.5 46t46.5 13h565q33 0 47 -13t14 -46v-33q0 -31 -14 -44t-47 -13h-565q-33 0 -46.5 12t-13.5 45z" />
<glyph unicode="&#xb0;" horiz-adv-x="679" d="M96 1200q0 117 66.5 179.5t177.5 62.5q113 0 178.5 -62.5t65.5 -179.5t-65.5 -179.5t-178.5 -62.5q-111 0 -177.5 62.5t-66.5 179.5zM209 1200q0 -66 36 -100.5t95 -34.5t95 35t36 100q0 66 -36 100.5t-95 34.5t-95 -34.5t-36 -100.5z" />
<glyph unicode="&#xb1;" horiz-adv-x="935" d="M80 43v63q0 43 43 44h690q43 0 43 -44v-63q0 -43 -43 -43h-690q-43 0 -43 43zM80 678v63q0 43 43 43h262v220q0 43 43 43h78q43 0 43 -43v-220h264q43 0 43 -43v-63q0 -43 -43 -43h-264v-217q0 -43 -43 -43h-78q-43 0 -43 43v217h-262q-43 0 -43 43z" />
<glyph unicode="&#xb2;" horiz-adv-x="794" d="M98 621v77q0 76 61.5 135.5t192.5 133.5q82 43 123 74.5t54.5 62.5t13.5 78q0 55 -43 88t-123 33q-109 0 -197 -50q-16 -8 -24 2l-35 74l-4 12q0 8 10 15q41 29 118 48t152 19q137 0 216 -64.5t79 -168.5q0 -94 -50 -156.5t-175 -134.5q-109 -61 -155 -99t-50 -85h404 q18 0 25 -8.5t7 -28.5v-60q0 -18 -8 -25t-24 -7h-535q-33 0 -33 35z" />
<glyph unicode="&#xb3;" horiz-adv-x="798" d="M97 649q-1 4 3 15l35 71q6 12 23 4q106 -51 198 -51q104 0 148.5 32t44.5 103q0 70 -35 99.5t-113 29.5h-94q-20 0 -28.5 7.5t-8.5 27.5v53q0 18 8.5 25.5t28.5 7.5h99q117 0 116 123q0 55 -36.5 83t-120.5 28q-51 0 -93.5 -12.5t-99.5 -39.5q-16 -8 -22 5l-35 71 q-4 10 -4 14.5t8 10.5q39 29 111.5 48t148.5 19q143 0 221 -61.5t78 -163.5q0 -66 -25.5 -110t-85.5 -74q72 -25 103.5 -72t31.5 -121q0 -115 -81.5 -182.5t-249.5 -67.5q-70 0 -148 19.5t-117 48.5q-8 6 -9 10z" />
<glyph unicode="&#xb4;" horiz-adv-x="501" d="M96 1190q0 4 4 20l103 279q8 23 19 31t40 8h103q39 0 38 -25q0 -12 -6 -24l-137 -279q-10 -20 -22.5 -27.5t-38.5 -7.5h-70q-33 0 -33 25z" />
<glyph unicode="&#xb5;" horiz-adv-x="1378" d="M76 889v37q0 31 13 44t46 13h936q33 0 46 -13.5t13 -43.5v-37q0 -31 -13 -43t-46 -12h-98v-590q0 -72 24.5 -101.5t77.5 -29.5q41 0 72 10t67 35q4 2 9.5 5t9.5 3q6 0 18 -19l45 -71q6 -8 7 -17q0 -12 -23 -28q-35 -25 -96.5 -43.5t-114.5 -18.5q-143 0 -209.5 71 t-66.5 210v584h-375v-773q0 -61 -64 -61h-55q-63 0 -63 61v773h-101q-33 0 -46 12t-13 43z" />
<glyph unicode="&#xb6;" horiz-adv-x="1509" d="M96 965q0 225 123 326.5t393 101.5h758q43 0 43 -43v-64q0 -43 -43 -43h-160v-1386q0 -61 -63 -62h-62q-61 0 -61 62v1386h-266v-1386q0 -61 -64 -62h-59q-64 1 -64 62v714q-240 0 -357.5 93.5t-117.5 300.5z" />
<glyph unicode="&#xb7;" horiz-adv-x="376" d="M96 639v31q0 35 21.5 57.5t54.5 22.5h33q33 0 54.5 -22.5t21.5 -57.5v-31q0 -33 -21.5 -56.5t-54.5 -23.5h-33q-33 0 -54.5 23.5t-21.5 56.5z" />
<glyph unicode="&#xb8;" horiz-adv-x="577" d="M98.5 -432.5q-4.5 6.5 1.5 20.5l23 54q6 16 18 16q2 0 19 -8q37 -23 98 -23q47 0 66.5 15.5t19.5 52.5q0 45 -30.5 59.5t-102.5 14.5h-29q-16 0 -21 9t1 23l55 140q6 16 15.5 22t29.5 6h92q25 0 25 -16q0 -10 -4 -16l-47 -103q72 -4 112.5 -42t40.5 -109q0 -78 -55 -121 t-154 -43q-41 0 -83 9t-68 23q-18 10 -22.5 16.5z" />
<glyph unicode="&#xb9;" horiz-adv-x="770" d="M98 1200q0 14 23 31l248 149q18 12 43 13h41q51 0 51 -52v-630h162q27 0 38 -11.5t11 -37.5v-29q0 -27 -11.5 -37t-37.5 -10h-482q-26 0 -38.5 10t-12.5 37v29q0 49 51 49h166v514l-164 -99q-16 -10 -26 -10q-14 0 -31 23l-25 39q-6 12 -6 22z" />
<glyph unicode="&#xba;" horiz-adv-x="845" d="M96 1087q0 158 86 247t242 89q154 0 240 -89t86 -247t-86 -245.5t-240 -87.5q-156 0 -242 88t-86 245zM223 1087q0 -113 52.5 -173t148.5 -60q94 0 146.5 60.5t52.5 172.5q0 115 -52.5 174.5t-146.5 59.5q-96 0 -148.5 -59.5t-52.5 -174.5z" />
<glyph unicode="&#xbb;" horiz-adv-x="1275" d="M96 166q0 16 21 37l348 364l-348 365q-20 20 -21 37q0 16 19 30l53 54q16 16 31 16q18 0 41 -25l381 -403q4 -4 16 -17.5t17 -23.5t5 -20v-25q0 -14 -6 -24.5t-17 -21.5l-15 -15l-381 -404q-20 -23 -41 -22q-16 0 -31 14l-53 53q-18 16 -19 31zM616 166q0 16 21 37 l348 364l-348 365q-20 20 -21 37q0 16 19 30l53 54q16 16 31 16q20 0 41 -25l381 -403q4 -4 16 -17.5t17.5 -23.5t5.5 -20v-25q0 -14 -6.5 -24.5t-17.5 -21.5l-15 -15l-381 -404q-20 -23 -41 -22q-16 0 -31 14l-53 53q-18 16 -19 31z" />
<glyph unicode="&#xbc;" horiz-adv-x="1638" d="M98 1200q0 14 23 31l248 149q18 12 43 13h41q51 0 51 -52v-630h162q27 0 38 -11.5t11 -37.5v-29q0 -27 -11.5 -37t-37.5 -10h-482q-26 0 -38.5 10t-12.5 37v29q0 49 51 49h166v514l-164 -99q-16 -10 -26 -10q-14 0 -31 23l-25 39q-6 12 -6 22zM348 20q0 10 6 19l885 1327 q16 27 43 27h119q25 0 24 -21q0 -8 -6 -18l-887 -1329q-8 -14 -22 -19.5t-37 -5.5h-100q-25 0 -25 20zM846 209v45q0 31 22 57l371 469q12 14 20.5 20.5t24.5 6.5h88q37 0 37 -35v-467h88q27 0 39 -11t12 -38v-27q0 -27 -11 -36t-40 -9h-88v-135q0 -49 -53 -49h-51 q-54 0 -54 49v135h-377q-16 0 -22 5.5t-6 19.5zM1030 305h236v307z" />
<glyph unicode="&#xbd;" horiz-adv-x="1794" d="M98 1200q0 14 23 31l248 149q18 12 43 13h41q51 0 51 -52v-630h162q27 0 38 -11.5t11 -37.5v-29q0 -27 -11.5 -37t-37.5 -10h-482q-26 0 -38.5 10t-12.5 37v29q0 49 51 49h166v514l-164 -99q-16 -10 -26 -10q-14 0 -31 23l-25 39q-6 12 -6 22zM348 20q0 10 6 19l885 1327 q16 27 43 27h119q25 0 24 -21q0 -8 -6 -18l-887 -1329q-8 -14 -22 -19.5t-37 -5.5h-100q-25 0 -25 20zM1036 35v78q0 76 62.5 137t191.5 131q84 45 124 76.5t53.5 62.5t13.5 76q0 55 -43 88t-123 33q-109 0 -197 -49q-20 -10 -24 2l-35 73l-4 13q0 8 10 14q41 29 118 48.5 t152 19.5q137 0 216 -64.5t79 -169.5q0 -94 -50 -156.5t-175 -134.5q-109 -61 -155 -99t-50 -85h404q18 0 25 -8t7 -29v-59q0 -18 -8 -25.5t-24 -7.5h-535q-33 0 -33 35z" />
<glyph unicode="&#xbe;" horiz-adv-x="1634" d="M148.5 649q-1.5 4 3.5 15l34 71q6 12 23 4q106 -51 199 -51q104 0 148 32t44 103q0 70 -35 99.5t-112 29.5h-95q-20 0 -28 7.5t-8 27.5v53q0 18 8 25.5t28 7.5h99q117 0 116 123q0 55 -36.5 83t-120.5 28q-51 0 -93 -12.5t-100 -39.5q-16 -8 -22 5l-35 71q-4 10 -4 14.5 t8 10.5q39 29 111.5 48t148.5 19q143 0 221 -61.5t78 -163.5q0 -66 -25.5 -110t-85.5 -74q72 -25 104 -72t32 -121q0 -115 -82 -182.5t-250 -67.5q-70 0 -147.5 19.5t-116.5 48.5q-8 6 -9.5 10zM348 20q0 10 6 19l885 1327q16 27 43 27h119q25 0 24 -21q0 -8 -6 -18 l-887 -1329q-8 -14 -22 -19.5t-37 -5.5h-100q-25 0 -25 20zM846 209v45q0 31 22 57l371 469q12 14 20.5 20.5t24.5 6.5h88q37 0 37 -35v-467h88q27 0 39 -11t12 -38v-27q0 -27 -11 -36t-40 -9h-88v-135q0 -49 -53 -49h-51q-54 0 -54 49v135h-377q-16 0 -22 5.5t-6 19.5z M1030 305h236v307z" />
<glyph unicode="&#xbf;" horiz-adv-x="1110" d="M96 281q0 127 59.5 205.5t194.5 152.5q84 45 127 84t60.5 87t17.5 124v35q0 31 14.5 45t46.5 14h64q61 0 61 -59v-41q0 -135 -57 -224.5t-182 -158.5q-94 -51 -140.5 -86t-63.5 -75t-17 -103q0 -111 78.5 -171.5t215.5 -60.5q201 0 347 90q14 10 20 11q8 0 19 -17l45 -76 q6 -12 6 -20q0 -14 -17 -25q-72 -49 -184.5 -77.5t-249.5 -28.5q-209 0 -337 99t-128 276zM535 1217v36q0 33 23.5 54.5t59.5 21.5h60q37 0 60.5 -21.5t23.5 -54.5v-36q0 -35 -22.5 -56.5t-61.5 -21.5h-60q-38 0 -60.5 21.5t-22.5 56.5z" />
<glyph unicode="&#xc0;" horiz-adv-x="1488" d="M98 27q0 4 4 20l551 1303q12 27 21.5 35t32.5 8h75q23 0 32 -8.5t22 -34.5l550 -1303l5 -20q0 -27 -31 -27h-109q-25 0 -34 6t-17 25l-139 334h-633l-139 -334q-8 -18 -17.5 -24.5t-33.5 -6.5h-109q-31 0 -31 27zM481 510h525l-263 631zM522 1843q0 25 39 25h103 q31 0 41 -7.5t18 -31.5l102 -279q4 -16 4 -20q0 -25 -32 -25h-70q-27 0 -39 7.5t-22 27.5l-138 279q-6 12 -6 24z" />
<glyph unicode="&#xc1;" horiz-adv-x="1488" d="M98 27q0 4 4 20l551 1303q12 27 21.5 35t32.5 8h75q23 0 32 -8.5t22 -34.5l550 -1303l5 -20q0 -27 -31 -27h-109q-25 0 -34 6t-17 25l-139 334h-633l-139 -334q-8 -18 -17.5 -24.5t-33.5 -6.5h-109q-31 0 -31 27zM481 510h525l-263 631zM684 1530q0 4 4 20l100 279 q8 23 19.5 31t40.5 8h104q39 0 39 -25q0 -4 -8 -24l-135 -279q-10 -20 -23.5 -27.5t-40.5 -7.5h-69q-31 0 -31 25z" />
<glyph unicode="&#xc2;" horiz-adv-x="1488" d="M98 27q0 4 4 20l551 1303q12 27 21.5 35t32.5 8h75q23 0 32 -8.5t22 -34.5l550 -1303l5 -20q0 -27 -31 -27h-109q-25 0 -34 6t-17 25l-139 334h-633l-139 -334q-8 -18 -17.5 -24.5t-33.5 -6.5h-109q-31 0 -31 27zM416 1524q0 12 8 22l221 305q18 25 28.5 32t35.5 7h69 q25 0 35 -7t29 -32l221 -305q8 -10 8 -22t-10 -20.5t-27 -8.5h-67q-29 0 -41.5 8t-26.5 31l-156 227l-155 -227q-14 -23 -26.5 -31t-41.5 -8h-67q-17 0 -27 8t-10 21zM481 510h525l-263 631z" />
<glyph unicode="&#xc3;" horiz-adv-x="1488" d="M98 27q0 4 4 20l551 1303q12 27 21.5 35t32.5 8h75q23 0 32 -8.5t22 -34.5l550 -1303l5 -20q0 -27 -31 -27h-109q-25 0 -34 6t-17 25l-139 334h-633l-139 -334q-8 -18 -17.5 -24.5t-33.5 -6.5h-109q-31 0 -31 27zM311 1608q0 18 21 43q43 51 90 80.5t113 29.5 q59 0 108 -15t111 -44q47 -25 85 -37t79 -12q43 0 70.5 16.5t62.5 61.5q16 23 36 22q20 0 52 -24q35 -27 35 -52q0 -14 -17 -41q-47 -70 -100 -100.5t-139 -30.5q-50 0 -96 15.5t-113 44.5q-55 25 -93 38t-73 13q-41 0 -63.5 -13.5t-57.5 -52.5q-14 -16 -33 -16 q-25 0 -55 31q-23 23 -23 43zM481 510h525l-263 631z" />
<glyph unicode="&#xc4;" horiz-adv-x="1488" d="M98 27q0 4 4 20l551 1303q12 27 21.5 35t32.5 8h75q23 0 32 -8.5t22 -34.5l550 -1303l5 -20q0 -27 -31 -27h-109q-25 0 -34 6t-17 25l-139 334h-633l-139 -334q-8 -18 -17.5 -24.5t-33.5 -6.5h-109q-31 0 -31 27zM453 1577v33q0 37 22.5 61.5t59.5 24.5h34 q35 0 58.5 -25.5t23.5 -60.5v-33q0 -37 -22.5 -61.5t-59.5 -24.5h-34q-37 0 -59.5 24.5t-22.5 61.5zM481 510h525l-263 631zM838 1577v33q0 35 23.5 60.5t58.5 25.5h34q37 0 59.5 -24.5t22.5 -61.5v-33q0 -37 -22.5 -61.5t-59.5 -24.5h-34q-35 0 -58.5 25.5t-23.5 60.5z" />
<glyph unicode="&#xc5;" horiz-adv-x="1488" d="M98 27q0 4 4 20l543 1282q-61 29 -97 84t-36 125q0 96 67.5 165t163.5 69t165 -69t69 -165q0 -68 -36 -124t-97 -85l542 -1282q5 -16 5 -20q0 -27 -31 -27h-109q-25 0 -34 6t-17 25l-139 334h-633l-139 -334q-8 -18 -17.5 -24.5t-33.5 -6.5h-109q-31 0 -31 27zM481 510 h525l-263 631zM618 1538q0 -51 37 -88t88 -37q53 0 89 37t36 88q0 53 -35.5 89t-89.5 36q-51 0 -88 -36t-37 -89z" />
<glyph unicode="&#xc6;" horiz-adv-x="1826" d="M98 29q0 6 4 18l551 1303q10 25 20.5 34t33.5 9h983q33 0 47 -12.5t14 -43.5v-34q0 -33 -14.5 -46.5t-46.5 -13.5h-643v-471h464q33 0 46.5 -12t13.5 -45v-33q0 -31 -13.5 -45t-46.5 -14h-464v-473h643q33 0 47 -13.5t14 -46.5v-35q0 -31 -14.5 -43t-46.5 -12h-760 q-63 0 -64 61v304h-438l-135 -326q-8 -23 -25.5 -31t-50.5 -8h-88q-31 0 -31 29zM477 510h389v733h-82z" />
<glyph unicode="&#xc7;" horiz-adv-x="1384" d="M96 696q0 346 184.5 536.5t524.5 190.5q131 0 245.5 -26.5t192.5 -77.5q16 -10 17 -23q0 -8 -7 -20l-43 -72q-8 -16 -18 -16t-21 8q-61 37 -151 60.5t-201 23.5q-252 0 -396 -144.5t-144 -439.5q0 -299 147 -441t397 -142q123 0 213 21.5t162 64.5q10 8 23 8q10 0 18 -14 l45 -78q6 -9 6 -17q0 -6 -5 -11t-15 -11q-139 -92 -383 -105q0 -2 -4 -10l-47 -102q74 -4 113.5 -41t39.5 -111q0 -78 -55 -121t-156 -43q-43 0 -83 9.5t-66 23.5q-16 10 -20.5 18.5t-0.5 18.5l23 53q6 16 18 17q2 0 19 -9q41 -23 96 -22q47 0 66.5 15.5t19.5 51.5 q0 45 -31 59.5t-100 14.5h-29q-16 0 -21 9.5t1 23.5l55 139l2 6q-303 23 -467 211.5t-164 513.5z" />
<glyph unicode="&#xc8;" horiz-adv-x="1185" d="M137 61v1270q0 61 62 62h852q33 0 46 -12.5t13 -43.5v-34q0 -33 -13.5 -46.5t-45.5 -13.5h-727v-471h546q33 0 47.5 -13.5t14.5 -43.5v-33q0 -31 -14.5 -45t-47.5 -14h-546v-473h727q33 0 46 -13.5t13 -46.5v-35q0 -31 -13.5 -43t-45.5 -12h-852q-62 0 -62 61zM420 1892 q0 25 39 25h102q31 0 41 -7t19 -32l102 -279q4 -16 4 -20q0 -25 -33 -25h-69q-27 0 -39.5 7.5t-22.5 27.5l-137 279q-6 12 -6 24z" />
<glyph unicode="&#xc9;" horiz-adv-x="1185" d="M137 61v1270q0 61 62 62h852q33 0 46 -12.5t13 -43.5v-34q0 -33 -13.5 -46.5t-45.5 -13.5h-727v-471h546q33 0 47.5 -13.5t14.5 -43.5v-33q0 -31 -14.5 -45t-47.5 -14h-546v-473h727q33 0 46 -13.5t13 -46.5v-35q0 -31 -13.5 -43t-45.5 -12h-852q-62 0 -62 61zM524 1579 q0 4 4 20l101 279q8 23 19 31t40 8h105q39 0 38 -25q0 -4 -8 -24l-135 -279q-10 -20 -23.5 -27.5t-39.5 -7.5h-70q-31 0 -31 25z" />
<glyph unicode="&#xca;" horiz-adv-x="1185" d="M137 61v1270q0 61 62 62h852q33 0 46 -12.5t13 -43.5v-34q0 -33 -13.5 -46.5t-45.5 -13.5h-727v-471h546q33 0 47.5 -13.5t14.5 -43.5v-33q0 -31 -14.5 -45t-47.5 -14h-546v-473h727q33 0 46 -13.5t13 -46.5v-35q0 -31 -13.5 -43t-45.5 -12h-852q-62 0 -62 61zM289 1573 q0 12 8 22l221 306q18 25 28.5 31.5t35.5 6.5h69q25 0 35 -7t29 -31l221 -306q8 -10 8 -22t-10 -20.5t-27 -8.5h-67q-29 0 -41.5 8.5t-26.5 30.5l-156 227l-155 -227q-14 -23 -26.5 -31t-41.5 -8h-67q-17 0 -27 8.5t-10 20.5z" />
<glyph unicode="&#xcb;" horiz-adv-x="1185" d="M137 61v1270q0 61 62 62h852q33 0 46 -12.5t13 -43.5v-34q0 -33 -13.5 -46.5t-45.5 -13.5h-727v-471h546q33 0 47.5 -13.5t14.5 -43.5v-33q0 -31 -14.5 -45t-47.5 -14h-546v-473h727q33 0 46 -13.5t13 -46.5v-35q0 -31 -13.5 -43t-45.5 -12h-852q-62 0 -62 61zM326 1626 v33q0 37 22.5 61.5t59.5 24.5h34q35 0 58.5 -25.5t23.5 -60.5v-33q0 -37 -22.5 -61.5t-59.5 -24.5h-34q-37 0 -59.5 24.5t-22.5 61.5zM711 1626v33q0 35 23.5 60.5t58.5 25.5h34q37 0 59.5 -24.5t22.5 -61.5v-33q0 -37 -22.5 -61.5t-59.5 -24.5h-34q-35 0 -58.5 25.5 t-23.5 60.5z" />
<glyph unicode="&#xcc;" horiz-adv-x="454" d="M-4 1892q0 25 39 25h102q31 0 41 -7t19 -32l102 -279q4 -16 4 -20q0 -25 -33 -25h-69q-27 0 -39 7.5t-23 27.5l-137 279q-6 12 -6 24zM135 61v1270q0 61 62 62h63q33 0 47.5 -15.5t14.5 -46.5v-1270q0 -31 -14.5 -46t-47.5 -15h-63q-62 0 -62 61z" />
<glyph unicode="&#xcd;" horiz-adv-x="477" d="M145 61v1270q0 61 62 62h63q33 0 47.5 -15.5t14.5 -46.5v-1270q0 -31 -14.5 -46t-47.5 -15h-63q-62 0 -62 61zM162 1579q0 4 4 20l100 279q8 23 19.5 31t40.5 8h104q39 0 39 -25q0 -4 -8 -24l-135 -279q-10 -20 -23.5 -27.5t-40.5 -7.5h-69q-31 0 -31 25z" />
<glyph unicode="&#xce;" horiz-adv-x="454" d="M-100 1587q0 12 8 23l221 305q18 25 28.5 32t35.5 7h69q25 0 35 -7.5t29 -31.5l221 -305q8 -10 8 -23q0 -12 -10 -20t-27 -8h-67q-29 0 -41.5 8t-26.5 30l-156 228l-155 -228q-14 -23 -26.5 -30.5t-41.5 -7.5h-67q-17 0 -27 8t-10 20zM135 61v1270q0 61 62 62h63 q33 0 47.5 -15.5t14.5 -46.5v-1270q0 -31 -14.5 -46t-47.5 -15h-63q-62 0 -62 61z" />
<glyph unicode="&#xcf;" horiz-adv-x="438" d="M-72 1571v33q0 37 22.5 61.5t59.5 24.5h35q35 0 58.5 -26t23.5 -60v-33q0 -37 -22.5 -61.5t-59.5 -24.5h-35q-37 0 -59.5 24.5t-22.5 61.5zM125 61v1270q0 61 61 62h64q33 0 47 -15.5t14 -46.5v-1270q0 -31 -14 -46t-47 -15h-64q-61 0 -61 61zM313 1571v33 q0 35 23.5 60.5t58.5 25.5h35q37 0 59.5 -25t22.5 -61v-33q0 -37 -22.5 -61.5t-59.5 -24.5h-35q-35 0 -58.5 25.5t-23.5 60.5z" />
<glyph unicode="&#xd0;" horiz-adv-x="1490" d="M55 674v43q0 33 11.5 44t39.5 11h130v559q0 31 14 46.5t47 15.5h389q342 0 525.5 -165t183.5 -532t-184.5 -531.5t-524.5 -164.5h-389q-33 0 -47 15.5t-14 45.5v562h-130q-29 0 -40 10t-11 41zM422 150h278q252 0 381 124.5t129 421.5t-129 422t-381 125h-278v-471h358 q29 0 40 -11t11 -44v-43q0 -31 -11 -41t-40 -10h-358v-473z" />
<glyph unicode="&#xd1;" horiz-adv-x="1427" d="M137 61v1270q0 61 64 62h61q25 0 38 -7.5t28 -27.5l776 -1067v1040q0 61 61 62h64q33 0 47 -15.5t14 -46.5v-1270q0 -31 -14 -46t-47 -15h-64q-23 0 -36 7t-27 28l-778 1065v-1039q0 -31 -14.5 -46t-47.5 -15h-63q-62 0 -62 61zM307 1677q0 18 21 43q43 51 90 81t112 30 q59 0 108.5 -15.5t111.5 -43.5q49 -25 85.5 -37.5t77.5 -12.5q43 0 71 16.5t63 61.5q16 23 36 23t52 -25q35 -27 34 -51q0 -14 -16 -41q-47 -70 -100.5 -100.5t-139.5 -30.5q-49 0 -95 15.5t-113 43.5q-55 25 -93.5 38.5t-72.5 13.5q-41 0 -63.5 -13.5t-57.5 -52.5 q-14 -16 -33 -16q-25 0 -55 30q-23 23 -23 43z" />
<glyph unicode="&#xd2;" horiz-adv-x="1566" d="M96 696q0 344 180.5 535.5t507.5 191.5q326 0 506 -191.5t180 -535.5t-180 -535.5t-506 -191.5q-327 0 -507.5 191.5t-180.5 535.5zM279 696q0 -285 132 -434t373 -149q240 0 372 149.5t132 433.5q0 285 -132 434.5t-372 149.5q-242 0 -373.5 -149.5t-131.5 -434.5z M584 1892q0 25 39 25h102q31 0 41 -7t18 -32l103 -279q4 -16 4 -20q0 -25 -33 -25h-70q-26 0 -38.5 7.5t-22.5 27.5l-137 279q-6 12 -6 24z" />
<glyph unicode="&#xd3;" horiz-adv-x="1566" d="M96 696q0 344 180.5 535.5t507.5 191.5q326 0 506 -191.5t180 -535.5t-180 -535.5t-506 -191.5q-327 0 -507.5 191.5t-180.5 535.5zM279 696q0 -285 132 -434t373 -149q240 0 372 149.5t132 433.5q0 285 -132 434.5t-372 149.5q-242 0 -373.5 -149.5t-131.5 -434.5z M705 1579q0 4 4 20l100 279q8 23 19.5 31t39.5 8h105q39 0 39 -25q0 -4 -8 -24l-136 -279q-10 -20 -23.5 -27.5t-39.5 -7.5h-70q-30 0 -30 25z" />
<glyph unicode="&#xd4;" horiz-adv-x="1566" d="M96 696q0 344 180.5 535.5t507.5 191.5q326 0 506 -191.5t180 -535.5t-180 -535.5t-506 -191.5q-327 0 -507.5 191.5t-180.5 535.5zM279 696q0 -285 132 -434t373 -149q240 0 372 149.5t132 433.5q0 285 -132 434.5t-372 149.5q-242 0 -373.5 -149.5t-131.5 -434.5z M455 1573q0 12 8 22l221 306q18 25 28.5 31.5t35.5 6.5h69q25 0 35 -7t29 -31l221 -306q8 -10 8 -22t-10 -20.5t-27 -8.5h-67q-29 0 -41.5 8.5t-26.5 30.5l-156 227l-155 -227q-14 -23 -26.5 -31t-41.5 -8h-67q-17 0 -27 8.5t-10 20.5z" />
<glyph unicode="&#xd5;" horiz-adv-x="1566" d="M96 696q0 344 180.5 535.5t507.5 191.5q326 0 506 -191.5t180 -535.5t-180 -535.5t-506 -191.5q-327 0 -507.5 191.5t-180.5 535.5zM279 696q0 -285 132 -434t373 -149q240 0 372 149.5t132 433.5q0 285 -132 434.5t-372 149.5q-242 0 -373.5 -149.5t-131.5 -434.5z M348 1657q0 18 21 43q43 51 90 80.5t112 29.5q59 0 108.5 -15t111.5 -44q47 -25 84.5 -37t78.5 -12q43 0 71 16.5t62 61.5q16 23 37 22q20 0 52 -24q35 -27 34 -52q0 -14 -16 -40q-47 -70 -100.5 -101t-139.5 -31q-49 0 -95 15.5t-114 44.5q-55 25 -93 38t-72 13 q-41 0 -63.5 -13.5t-57.5 -52.5q-14 -16 -33 -16q-25 0 -55 31q-23 23 -23 43z" />
<glyph unicode="&#xd6;" horiz-adv-x="1566" d="M96 696q0 344 180.5 535.5t507.5 191.5q326 0 506 -191.5t180 -535.5t-180 -535.5t-506 -191.5q-327 0 -507.5 191.5t-180.5 535.5zM279 696q0 -285 132 -434t373 -149q240 0 372 149.5t132 433.5q0 285 -132 434.5t-372 149.5q-242 0 -373.5 -149.5t-131.5 -434.5z M489 1626v33q0 37 23 61.5t59 24.5h35q35 0 58.5 -25.5t23.5 -60.5v-33q0 -37 -22.5 -61.5t-59.5 -24.5h-35q-36 0 -59 24.5t-23 61.5zM874 1626v33q0 35 24 60.5t58 25.5h35q37 0 59.5 -24.5t22.5 -61.5v-33q0 -37 -22.5 -61.5t-59.5 -24.5h-35q-34 0 -58 25.5t-24 60.5z " />
<glyph unicode="&#xd7;" horiz-adv-x="794" d="M176 391q0 16 14 31l185 186l-185 185q-14 14 -14 30t14 31l46 45q16 16 30 16q16 0 29 -16l186 -186l187 186q16 16 28 16q14 0 31 -16l45 -45q16 -16 16 -31q0 -14 -16 -30l-184 -185l184 -186q16 -16 16 -31q0 -14 -16 -31l-45 -43q-14 -14 -31 -14q-14 0 -28 14 l-187 185l-186 -185q-12 -14 -29 -14q-16 0 -30 14l-46 43q-14 14 -14 31z" />
<glyph unicode="&#xd8;" horiz-adv-x="1566" d="M96 696q0 344 180.5 535.5t507.5 191.5q98 0 185 -18l43 106q10 27 39 27h131q23 0 22 -20l-4 -19l-63 -151q161 -84 247 -250t86 -402q0 -344 -180 -535.5t-506 -191.5q-106 0 -202 23l-58 -142q-10 -27 -41 -26h-129q-23 0 -22 18q0 4 4 21l78 190q-154 86 -236 250 t-82 393zM279 696q0 -174 50 -298t146 -195l436 1065q-57 12 -127 12q-242 0 -373.5 -149.5t-131.5 -434.5zM639 129q72 -16 145 -16q240 0 372 149.5t132 433.5q0 180 -54 307t-157 197z" />
<glyph unicode="&#xd9;" horiz-adv-x="1466" d="M127 487v844q0 61 61 62h64q33 0 47 -15.5t14 -46.5v-852q0 -170 111 -268t309 -98q199 0 309.5 98t110.5 268v852q0 31 14.5 46.5t46.5 15.5h62q63 0 63 -62v-844q0 -158 -76.5 -275.5t-214 -180t-315.5 -62.5t-315 62.5t-214 180.5t-77 275zM545 1892q0 25 39 25h102 q31 0 41 -7t18 -32l103 -279q4 -16 4 -20q0 -25 -33 -25h-69q-27 0 -39.5 7.5t-22.5 27.5l-137 279q-6 12 -6 24z" />
<glyph unicode="&#xda;" horiz-adv-x="1466" d="M127 487v844q0 61 61 62h64q33 0 47 -15.5t14 -46.5v-852q0 -170 111 -268t309 -98q199 0 309.5 98t110.5 268v852q0 31 14.5 46.5t46.5 15.5h62q63 0 63 -62v-844q0 -158 -76.5 -275.5t-214 -180t-315.5 -62.5t-315 62.5t-214 180.5t-77 275zM614 1579q0 4 4 20l101 279 q8 23 19.5 31t39.5 8h105q39 0 39 -25q0 -4 -9 -24l-135 -279q-10 -20 -23.5 -27.5t-39.5 -7.5h-70q-31 0 -31 25z" />
<glyph unicode="&#xdb;" horiz-adv-x="1466" d="M127 487v844q0 61 61 62h64q33 0 47 -15.5t14 -46.5v-852q0 -170 111 -268t309 -98q199 0 309.5 98t110.5 268v852q0 31 14.5 46.5t46.5 15.5h62q63 0 63 -62v-844q0 -158 -76.5 -275.5t-214 -180t-315.5 -62.5t-315 62.5t-214 180.5t-77 275zM406 1573q0 12 8 22 l221 306q18 25 28.5 31.5t34.5 6.5h70q25 0 35 -7t28 -31l222 -306q8 -10 8 -22t-10.5 -20.5t-26.5 -8.5h-68q-29 0 -41 8.5t-26 30.5l-156 227l-155 -227q-14 -23 -26.5 -31t-41.5 -8h-68q-16 0 -26 8.5t-10 20.5z" />
<glyph unicode="&#xdc;" horiz-adv-x="1466" d="M127 487v844q0 61 61 62h64q33 0 47 -15.5t14 -46.5v-852q0 -170 111 -268t309 -98q199 0 309.5 98t110.5 268v852q0 31 14.5 46.5t46.5 15.5h62q63 0 63 -62v-844q0 -158 -76.5 -275.5t-214 -180t-315.5 -62.5t-315 62.5t-214 180.5t-77 275zM442 1626v33 q0 37 22.5 61.5t59.5 24.5h35q35 0 58.5 -25.5t23.5 -60.5v-33q0 -37 -22.5 -61.5t-59.5 -24.5h-35q-37 0 -59.5 24.5t-22.5 61.5zM827 1626v33q0 35 23.5 60.5t58.5 25.5h35q37 0 59.5 -24.5t22.5 -61.5v-33q0 -37 -22.5 -61.5t-59.5 -24.5h-35q-35 0 -58.5 25.5 t-23.5 60.5z" />
<glyph unicode="&#xdd;" horiz-adv-x="1421" d="M96 1368q0 25 33 25h109q25 0 33 -5.5t16 -19.5l424 -733l424 733q8 14 16 19.5t33 5.5h108q33 0 33 -25q0 -10 -6 -22l-514 -885v-400q0 -61 -64 -61h-61q-64 0 -64 61v402l-514 883q-6 12 -6 22zM623 1579q0 4 4 20l100 279q8 23 19.5 31t39.5 8h105q39 0 39 -25 q0 -4 -8 -24l-136 -279q-10 -20 -23 -27.5t-40 -7.5h-70q-30 0 -30 25z" />
<glyph unicode="&#xde;" horiz-adv-x="1296" d="M137 61v1270q0 61 62 62h63q33 0 47.5 -15.5t14.5 -46.5v-182h411q231 0 348 -119t117 -334t-116.5 -332.5t-350.5 -117.5h-409v-185q0 -31 -14.5 -46t-47.5 -15h-63q-62 0 -62 61zM324 395h409q143 0 213 75t70 226q0 152 -69.5 226.5t-213.5 74.5h-409v-602z" />
<glyph unicode="&#xdf;" horiz-adv-x="1323" d="M127 61v914q0 139 59.5 252.5t183.5 180.5t306 67q270 0 389 -112t119 -298q0 -106 -52.5 -195.5t-146.5 -128.5q133 -43 187.5 -131t54.5 -229q0 -190 -119 -301t-328 -111q-197 0 -342 92q-18 12 -18 25q0 6 8 23l45 73q8 14 19 15q6 0 16 -7q109 -76 264 -75 q141 0 206.5 64.5t65.5 201.5q0 139 -60 212t-198 73h-200q-57 0 -58 51v45q0 27 12.5 37t43.5 10h170q125 0 186 58.5t61 185.5q0 141 -75.5 209.5t-257.5 68.5q-174 0 -264.5 -95t-90.5 -253v-922q0 -61 -63 -61h-53q-39 0 -54.5 13.5t-15.5 47.5z" />
<glyph unicode="&#xe0;" horiz-adv-x="1257" d="M96 430q0 174 73 306t210 205t321 73q129 0 238 -34t182 -85v-844q0 -27 -12 -39t-41 -12h-63q-23 0 -33 10t-15 33l-10 90q-66 -86 -164 -125t-239 -39q-205 0 -326 120t-121 341zM279 440q0 -170 82.5 -249.5t250.5 -79.5q82 0 158 32.5t123 95t47 144.5v440 q-102 51 -244 51q-188 0 -302.5 -115.5t-114.5 -318.5zM516 1475q0 25 39 24h102q31 0 41.5 -7t18.5 -32l102 -278q4 -16 4 -21q0 -25 -32 -24h-70q-27 0 -39 7t-23 27l-137 279q-6 12 -6 25z" />
<glyph unicode="&#xe1;" horiz-adv-x="1257" d="M96 430q0 174 73 306t210 205t321 73q129 0 238 -34t182 -85v-844q0 -27 -12 -39t-41 -12h-63q-23 0 -33 10t-15 33l-10 90q-66 -86 -164 -125t-239 -39q-205 0 -326 120t-121 341zM279 440q0 -170 82.5 -249.5t250.5 -79.5q82 0 158 32.5t123 95t47 144.5v440 q-102 51 -244 51q-188 0 -302.5 -115.5t-114.5 -318.5zM582 1161q0 4 4 21l100 278q8 23 19.5 31t39.5 8h105q39 0 39 -24q0 -4 -8 -25l-136 -279q-10 -20 -23 -27t-40 -7h-70q-30 -1 -30 24z" />
<glyph unicode="&#xe2;" horiz-adv-x="1257" d="M96 430q0 174 73 306t210 205t321 73q129 0 238 -34t182 -85v-844q0 -27 -12 -39t-41 -12h-63q-23 0 -33 10t-15 33l-10 90q-66 -86 -164 -125t-239 -39q-205 0 -326 120t-121 341zM279 440q0 -170 82.5 -249.5t250.5 -79.5q82 0 158 32.5t123 95t47 144.5v440 q-102 51 -244 51q-188 0 -302.5 -115.5t-114.5 -318.5zM336 1135q0 12 8 22l221 305q18 25 28.5 32t35.5 7h69q25 0 35 -7t29 -32l221 -305q8 -10 8 -22t-10 -20.5t-27 -8.5h-67q-29 0 -41 8t-27 31l-155 227l-156 -227q-14 -23 -26.5 -31t-41.5 -8h-67q-17 0 -27 8t-10 21z " />
<glyph unicode="&#xe3;" horiz-adv-x="1263" d="M96 430q0 174 73 306t210 205t321 73q129 0 238 -34t182 -85v-844q0 -27 -12 -39t-41 -12h-63q-23 0 -33 10t-15 33l-10 90q-66 -86 -164 -125t-239 -39q-205 0 -326 120t-121 341zM268 1206q0 18 21 43q43 51 90 81t113 30q59 0 108 -15.5t111 -44.5q47 -25 85 -37 t78 -12q43 0 71 16.5t63 61.5q16 23 36 23t52 -25q35 -27 34 -51q0 -14 -16 -41q-47 -70 -100 -100.5t-140 -30.5q-49 0 -95 15.5t-113 43.5q-55 25 -93 38t-73 13q-41 0 -63.5 -13t-57.5 -52q-14 -16 -33 -16q-25 0 -55 30q-23 23 -23 43zM279 440q0 -170 82.5 -249.5 t250.5 -79.5q82 0 158 32.5t123 95t47 144.5v440q-102 51 -244 51q-188 0 -302.5 -115.5t-114.5 -318.5z" />
<glyph unicode="&#xe4;" horiz-adv-x="1257" d="M96 430q0 174 73 306t210 205t321 73q129 0 238 -34t182 -85v-844q0 -27 -12 -39t-41 -12h-63q-23 0 -33 10t-15 33l-10 90q-66 -86 -164 -125t-239 -39q-205 0 -326 120t-121 341zM279 440q0 -170 82.5 -249.5t250.5 -79.5q82 0 158 32.5t123 95t47 144.5v440 q-102 51 -244 51q-188 0 -302.5 -115.5t-114.5 -318.5zM406 1237v33q0 37 22.5 61.5t58.5 24.5h35q35 0 58.5 -25.5t23.5 -60.5v-33q0 -37 -22.5 -61.5t-59.5 -24.5h-35q-36 0 -58.5 24.5t-22.5 61.5zM791 1237v33q0 35 23.5 60.5t57.5 25.5h35q37 0 59.5 -24.5t22.5 -61.5 v-33q0 -37 -22.5 -61.5t-59.5 -24.5h-35q-34 0 -57.5 25.5t-23.5 60.5z" />
<glyph unicode="&#xe5;" horiz-adv-x="1257" d="M96 430q0 174 73 306t210 205t321 73q129 0 238 -34t182 -85v-844q0 -27 -12 -39t-41 -12h-63q-23 0 -33 10t-15 33l-10 90q-66 -86 -164 -125t-239 -39q-205 0 -326 120t-121 341zM279 440q0 -170 82.5 -249.5t250.5 -79.5q82 0 158 32.5t123 95t47 144.5v440 q-102 51 -244 51q-188 0 -302.5 -115.5t-114.5 -318.5zM467 1311q0 96 67.5 164.5t163.5 68.5t165 -68.5t69 -164.5t-68.5 -164t-165.5 -68q-96 0 -163.5 67.5t-67.5 164.5zM573 1311q0 -51 37 -88t88 -37q54 0 89.5 37t35.5 88q0 53 -35.5 89t-89.5 36q-51 0 -88 -36 t-37 -89z" />
<glyph unicode="&#xe6;" horiz-adv-x="1970" d="M96 264q0 160 108.5 237t297.5 77h348v51q0 254 -295 254q-88 0 -149.5 -16.5t-137.5 -49.5q-12 -6 -22 -6q-14 0 -25 25l-31 61q-4 12 -4 16q0 14 19 23q68 35 166 56.5t194 21.5q160 0 251 -51.5t138 -153.5q55 102 162 153.5t252 51.5q252 0 379 -132t127 -393 q0 -55 -53 -55h-787q0 -158 100.5 -244t282.5 -86q186 0 307 80q12 6 19 6q10 0 18 -14l37 -67q6 -8 6 -19q0 -12 -16 -22q-156 -98 -385 -99q-156 0 -274.5 55.5t-176.5 168.5q-66 -111 -192.5 -167.5t-282.5 -56.5q-172 0 -276.5 74t-104.5 221zM262 270q0 -84 57.5 -125 t176.5 -41q166 0 260 70t94 207v70h-354q-115 0 -174.5 -43t-59.5 -138zM1034 559h668q0 324 -334 324t-334 -324z" />
<glyph unicode="&#xe7;" horiz-adv-x="1161" d="M96 487q0 156 68.5 275t195.5 185.5t295 66.5q125 0 212 -22.5t165 -78.5q16 -12 17 -24q0 -4 -9 -21l-41 -69q-8 -18 -18 -19q-6 0 -20 11q-61 43 -133 63t-169 20q-180 0 -280 -103t-100 -284q0 -193 100 -284.5t299 -91.5q98 0 167.5 21.5t129.5 62.5q14 10 20 10 q10 0 19 -19l43 -71q8 -17 8 -19q0 -12 -18 -24q-127 -84 -297 -99l-5 -10l-47 -102q74 -4 114 -41t40 -111q0 -78 -55.5 -121t-155.5 -43q-43 0 -83 9.5t-66 23.5q-16 10 -20.5 18.5t-0.5 18.5l23 53q6 16 18 17q2 0 18 -9q41 -23 97 -22q47 0 66.5 15.5t19.5 51.5 q0 45 -31 59.5t-100 14.5h-29q-16 0 -21.5 9.5t0.5 23.5l56 139l2 4q-233 18 -363.5 151.5t-130.5 364.5z" />
<glyph unicode="&#xe8;" horiz-adv-x="1228" d="M96 473q0 266 138.5 403.5t392.5 137.5q252 0 379 -132t127 -393q0 -55 -54 -55h-805q0 -162 106.5 -246t295.5 -84q178 0 307 80q12 6 18 6q12 0 19 -14l39 -67q4 -6 4 -17q0 -14 -16 -24q-82 -51 -175.5 -75t-214.5 -24q-153 0 -280 53.5t-204 167t-77 283.5zM274 559 h687q0 154 -84 239t-250 85q-170 0 -261.5 -88t-91.5 -236zM438 1475q0 25 39 24h103q31 0 41 -7t18 -32l102 -278q4 -16 4 -21q0 -25 -32 -24h-70q-27 0 -39 7t-22 27l-138 279q-6 12 -6 25z" />
<glyph unicode="&#xe9;" horiz-adv-x="1228" d="M96 473q0 266 138.5 403.5t392.5 137.5q252 0 379 -132t127 -393q0 -55 -54 -55h-805q0 -162 106.5 -246t295.5 -84q178 0 307 80q12 6 18 6q12 0 19 -14l39 -67q4 -6 4 -17q0 -14 -16 -24q-82 -51 -175.5 -75t-214.5 -24q-153 0 -280 53.5t-204 167t-77 283.5zM274 559 h687q0 154 -84 239t-250 85q-170 0 -261.5 -88t-91.5 -236zM530 1161q0 4 5 21l100 278q8 23 19.5 31t39.5 8h105q39 0 39 -24q0 -4 -9 -25l-135 -279q-10 -20 -23.5 -27t-39.5 -7h-70q-31 -1 -31 24z" />
<glyph unicode="&#xea;" horiz-adv-x="1228" d="M96 473q0 266 138.5 403.5t392.5 137.5q252 0 379 -132t127 -393q0 -55 -54 -55h-805q0 -162 106.5 -246t295.5 -84q178 0 307 80q12 6 18 6q12 0 19 -14l39 -67q4 -6 4 -17q0 -14 -16 -24q-82 -51 -175.5 -75t-214.5 -24q-153 0 -280 53.5t-204 167t-77 283.5zM274 559 h687q0 154 -84 239t-250 85q-170 0 -261.5 -88t-91.5 -236zM309 1155q0 12 8 23l222 305q18 25 28.5 32t34.5 7h70q25 0 35 -7.5t28 -31.5l221 -305q8 -10 9 -23q0 -12 -10.5 -20.5t-26.5 -8.5h-68q-29 0 -41 8.5t-26 30.5l-156 228l-156 -228q-14 -23 -26.5 -31t-40.5 -8 h-68q-16 0 -26.5 8.5t-10.5 20.5z" />
<glyph unicode="&#xeb;" horiz-adv-x="1228" d="M96 473q0 266 138.5 403.5t392.5 137.5q252 0 379 -132t127 -393q0 -55 -54 -55h-805q0 -162 106.5 -246t295.5 -84q178 0 307 80q12 6 18 6q12 0 19 -14l39 -67q4 -6 4 -17q0 -14 -16 -24q-82 -51 -175.5 -75t-214.5 -24q-153 0 -280 53.5t-204 167t-77 283.5zM274 559 h687q0 154 -84 239t-250 85q-170 0 -261.5 -88t-91.5 -236zM338 1204v33q0 37 22.5 61.5t59.5 24.5h35q35 0 58.5 -25.5t23.5 -60.5v-33q0 -37 -22.5 -61.5t-59.5 -24.5h-35q-37 0 -59.5 24.5t-22.5 61.5zM723 1204v33q0 35 23.5 60.5t58.5 25.5h35q37 0 59.5 -24.5 t22.5 -61.5v-33q0 -37 -22.5 -61.5t-59.5 -24.5h-35q-35 0 -58.5 25.5t-23.5 60.5z" />
<glyph unicode="&#xec;" horiz-adv-x="458" d="M6 1475q0 25 39 24h102q31 0 41.5 -7t18.5 -32l102 -278q4 -16 4 -21q0 -25 -32 -24h-70q-27 0 -39 7t-22 27l-138 279q-6 12 -6 25zM133 61v861q0 61 62 61h63q33 0 47 -15.5t14 -45.5v-861q0 -31 -14 -46t-47 -15h-63q-62 0 -62 61z" />
<glyph unicode="&#xed;" horiz-adv-x="458" d="M145 61v861q0 61 62 61h63q33 0 47.5 -15.5t14.5 -45.5v-861q0 -31 -14.5 -46t-47.5 -15h-63q-62 0 -62 61zM147 1161q0 4 5 21l100 278q8 23 19.5 31t39.5 8h105q39 0 39 -24q0 -4 -9 -25l-135 -279q-10 -20 -23.5 -27t-39.5 -7h-70q-31 -1 -31 24z" />
<glyph unicode="&#xee;" horiz-adv-x="454" d="M-102 1126q0 12 8 23l221 305q18 25 28.5 32t34.5 7h70q25 0 35 -7t29 -32l221 -305q8 -10 8 -23q0 -12 -10.5 -20t-26.5 -8h-67q-29 0 -41.5 8t-26.5 31l-156 227l-155 -227q-14 -23 -26.5 -31t-41.5 -8h-68q-16 0 -26 8t-10 20zM131 61v861q0 61 62 61h63 q33 0 47 -15.5t14 -45.5v-861q0 -31 -14 -46t-47 -15h-63q-62 0 -62 61z" />
<glyph unicode="&#xef;" horiz-adv-x="438" d="M-74 1188v33q0 37 22.5 61.5t59.5 24.5h35q35 0 58.5 -26t23.5 -60v-33q0 -37 -22.5 -61.5t-59.5 -24.5h-35q-37 0 -59.5 24.5t-22.5 61.5zM127 61v861q0 61 61 61h64q33 0 47 -15.5t14 -45.5v-861q0 -31 -14 -46t-47 -15h-64q-61 0 -61 61zM311 1188v33q0 35 23.5 60.5 t58.5 25.5h35q37 0 59.5 -25t22.5 -61v-33q0 -37 -22.5 -61.5t-59.5 -24.5h-35q-35 0 -58.5 25.5t-23.5 60.5z" />
<glyph unicode="&#xf0;" horiz-adv-x="1386" d="M96 365q0 186 74 323t212 211t327 74q145 0 232 -43t153 -139q10 82 10 137q0 164 -72 254l-82 -115q-8 -10 -14 -15t-16 -5h-99q-14 0 -17 8t3 18l127 178q-68 31 -170 31q-80 0 -143.5 -16.5t-131.5 -51.5q-16 -8 -20 -8q-10 0 -16 17l-31 73q-4 12 -4 15q0 16 22 28 q145 84 359 84q129 0 225 -45l86 121q8 10 14 15.5t17 5.5h98q14 0 17.5 -8.5t-3.5 -18.5l-129 -182q144 -134 144 -406q0 -129 -37 -305q-70 -332 -254 -481.5t-432 -149.5q-217 0 -333 102.5t-116 293.5zM281 369q0 -129 75.5 -192.5t218.5 -63.5q162 0 287 108.5 t166 302.5q6 35 6 64q0 80 -45 138t-117.5 87t-150.5 29q-211 0 -325.5 -119t-114.5 -354z" />
<glyph unicode="&#xf1;" horiz-adv-x="1220" d="M137 61v871q0 29 9.5 40t37.5 11h68q45 0 45 -43v-94q145 168 422 168q168 0 267 -87t99 -263v-603q0 -31 -14 -46t-47 -15h-61q-63 0 -64 61v592q0 121 -56.5 170t-180.5 49q-84 0 -163 -31.5t-127 -89t-48 -130.5v-560q0 -31 -14.5 -46t-47.5 -15h-61q-64 0 -64 61z M168 1227q0 18 20 43q43 51 90.5 80.5t112.5 29.5q59 0 108.5 -15t110.5 -44q49 -25 86 -37t78 -12q43 0 70.5 16.5t62.5 61.5q16 23 37 22q20 0 51 -24q35 -27 35 -52q0 -14 -16 -41q-47 -70 -100.5 -100.5t-139.5 -30.5q-49 0 -95 15.5t-114 44.5q-55 25 -93 38t-73 13 q-41 0 -63.5 -13.5t-56.5 -52.5q-14 -16 -33 -16q-25 0 -56 31q-23 23 -22 43z" />
<glyph unicode="&#xf2;" horiz-adv-x="1269" d="M96 492q0 242 139.5 382t399.5 140q258 0 398.5 -140.5t140.5 -381.5q0 -242 -140.5 -382.5t-398.5 -140.5q-260 0 -399.5 140.5t-139.5 382.5zM279 492q0 -182 91 -280.5t265 -98.5q172 0 263 97t91 282q0 182 -90 279t-264 97t-265 -97t-91 -279zM424 1434q0 25 39 24 h102q31 0 41 -7t19 -32l102 -278q4 -16 4 -21q0 -25 -33 -24h-69q-27 0 -39 7t-23 27l-137 279q-6 12 -6 25z" />
<glyph unicode="&#xf3;" horiz-adv-x="1269" d="M96 492q0 242 139.5 382t399.5 140q258 0 398.5 -140.5t140.5 -381.5q0 -242 -140.5 -382.5t-398.5 -140.5q-260 0 -399.5 140.5t-139.5 382.5zM279 492q0 -182 91 -280.5t265 -98.5q172 0 263 97t91 282q0 182 -90 279t-264 97t-265 -97t-91 -279zM528 1120q0 4 4 21 l101 278q8 23 19.5 31t39.5 8h105q39 0 39 -24q0 -4 -9 -25l-135 -279q-10 -20 -23.5 -27t-39.5 -7h-70q-31 -1 -31 24z" />
<glyph unicode="&#xf4;" horiz-adv-x="1269" d="M96 492q0 242 139.5 382t399.5 140q258 0 398.5 -140.5t140.5 -381.5q0 -242 -140.5 -382.5t-398.5 -140.5q-260 0 -399.5 140.5t-139.5 382.5zM279 492q0 -182 91 -280.5t265 -98.5q172 0 263 97t91 282q0 182 -90 279t-264 97t-265 -97t-91 -279zM307 1114q0 12 8 23 l222 305q18 25 28 32t35 7h70q25 0 35 -7.5t28 -31.5l221 -305q8 -10 9 -23q0 -12 -10.5 -20.5t-26.5 -8.5h-68q-29 0 -41 8.5t-26 30.5l-156 228l-156 -228q-14 -23 -26.5 -31t-40.5 -8h-68q-16 0 -26.5 8.5t-10.5 20.5z" />
<glyph unicode="&#xf5;" horiz-adv-x="1269" d="M96 492q0 242 139.5 382t399.5 140q258 0 398.5 -140.5t140.5 -381.5q0 -242 -140.5 -382.5t-398.5 -140.5q-260 0 -399.5 140.5t-139.5 382.5zM199 1223q0 18 20 43q43 51 90 80.5t113 29.5q59 0 108.5 -15t110.5 -44q49 -25 86 -37t78 -12q43 0 70.5 16t62.5 62 q16 23 37 22q20 0 51 -25q35 -27 35 -51q0 -14 -17 -41q-47 -70 -100 -100.5t-139 -30.5q-49 0 -95 15.5t-114 44.5q-55 25 -93 38t-73 13q-41 0 -63.5 -13.5t-57.5 -52.5q-14 -16 -33 -16q-25 0 -55 31q-23 23 -22 43zM279 492q0 -182 91 -280.5t265 -98.5q172 0 263 97 t91 282q0 182 -90 279t-264 97t-265 -97t-91 -279z" />
<glyph unicode="&#xf6;" horiz-adv-x="1269" d="M96 492q0 242 139.5 382t399.5 140q258 0 398.5 -140.5t140.5 -381.5q0 -242 -140.5 -382.5t-398.5 -140.5q-260 0 -399.5 140.5t-139.5 382.5zM279 492q0 -182 91 -280.5t265 -98.5q172 0 263 97t91 282q0 182 -90 279t-264 97t-265 -97t-91 -279zM342 1217v32 q0 37 22.5 61.5t59.5 24.5h35q35 0 58.5 -25.5t23.5 -60.5v-32q0 -37 -22.5 -62t-59.5 -25h-35q-37 0 -59.5 25t-22.5 62zM727 1217v32q0 35 23.5 60.5t58.5 25.5h35q37 0 59.5 -24.5t22.5 -61.5v-32q0 -37 -22.5 -62t-59.5 -25h-35q-35 0 -58.5 26t-23.5 61z" />
<glyph unicode="&#xf7;" horiz-adv-x="968" d="M96 575v64q0 43 43 43h690q43 0 43 -43v-64q0 -43 -43 -43h-690q-43 0 -43 43zM389 322v32q0 33 21.5 55.5t54.5 22.5h33q33 0 54 -22.5t21 -55.5v-32q0 -33 -20.5 -56.5t-54.5 -23.5h-33q-33 0 -54.5 23.5t-21.5 56.5zM389 862v33q0 33 21.5 55.5t54.5 22.5h33 q33 0 54 -22.5t21 -55.5v-33q0 -33 -20.5 -56.5t-54.5 -23.5h-33q-33 0 -54.5 23.5t-21.5 56.5z" />
<glyph unicode="&#xf8;" horiz-adv-x="1269" d="M96 492q0 242 139.5 382t399.5 140q61 0 108 -8l58 141q10 27 39 27h131q23 0 22 -21l-4 -18l-74 -179q127 -63 193 -182t66 -282q0 -242 -140.5 -382.5t-398.5 -140.5q-70 0 -119 8l-53 -127q-10 -27 -41 -26h-129q-23 0 -23 18q0 4 4 21l70 170q-123 63 -185.5 180 t-62.5 279zM279 492q-1 -218 124 -312l283 686q-16 2 -51 2q-174 0 -265 -97t-91 -279zM571 117q41 -4 64 -4q172 0 263 97t91 282q0 225 -133 317z" />
<glyph unicode="&#xf9;" horiz-adv-x="1196" d="M127 336v586q0 61 61 61h64q33 0 47 -15.5t14 -45.5v-584q0 -119 62.5 -173t185.5 -54q131 0 221 71.5t90 184.5v555q0 61 64 61h61q33 0 47.5 -15.5t14.5 -45.5v-871q0 -29 -9.5 -40t-35.5 -11h-68q-23 0 -31 10t-10 33l-6 98q-70 -84 -165 -128t-232 -44 q-168 0 -271.5 93.5t-103.5 273.5zM393 1434q0 25 39 24h103q31 0 41 -7t18 -32l102 -278q4 -16 4 -21q0 -25 -32 -24h-70q-27 0 -39 7t-22 27l-138 279q-6 12 -6 25z" />
<glyph unicode="&#xfa;" horiz-adv-x="1196" d="M127 336v586q0 61 61 61h64q33 0 47 -15.5t14 -45.5v-584q0 -119 62.5 -173t185.5 -54q131 0 221 71.5t90 184.5v555q0 61 64 61h61q33 0 47.5 -15.5t14.5 -45.5v-871q0 -29 -9.5 -40t-35.5 -11h-68q-23 0 -31 10t-10 33l-6 98q-70 -84 -165 -128t-232 -44 q-168 0 -271.5 93.5t-103.5 273.5zM496 1120q0 4 4 21l100 278q8 23 19.5 31t39.5 8h105q39 0 39 -24q0 -4 -8 -25l-136 -279q-10 -20 -23 -27t-40 -7h-70q-30 -1 -30 24z" />
<glyph unicode="&#xfb;" horiz-adv-x="1196" d="M127 336v586q0 61 61 61h64q33 0 47 -15.5t14 -45.5v-584q0 -119 62.5 -173t185.5 -54q131 0 221 71.5t90 184.5v555q0 61 64 61h61q33 0 47.5 -15.5t14.5 -45.5v-871q0 -29 -9.5 -40t-35.5 -11h-68q-23 0 -31 10t-10 33l-6 98q-70 -84 -165 -128t-232 -44 q-168 0 -271.5 93.5t-103.5 273.5zM264 1114q0 12 8 23l222 305q18 25 28 32t35 7h70q25 0 35 -7.5t28 -31.5l221 -305q8 -10 9 -23q0 -12 -10.5 -20.5t-26.5 -8.5h-68q-29 0 -41 8.5t-26 30.5l-156 228l-156 -228q-14 -23 -26.5 -31t-40.5 -8h-68q-16 0 -26.5 8.5 t-10.5 20.5z" />
<glyph unicode="&#xfc;" horiz-adv-x="1196" d="M127 336v586q0 61 61 61h64q33 0 47 -15.5t14 -45.5v-584q0 -119 62.5 -173t185.5 -54q131 0 221 71.5t90 184.5v555q0 61 64 61h61q33 0 47.5 -15.5t14.5 -45.5v-871q0 -29 -9.5 -40t-35.5 -11h-68q-23 0 -31 10t-10 33l-6 98q-70 -84 -165 -128t-232 -44 q-168 0 -271.5 93.5t-103.5 273.5zM297 1188v33q0 37 22.5 61.5t59.5 24.5h35q35 0 58.5 -26t23.5 -60v-33q0 -37 -22.5 -61.5t-59.5 -24.5h-35q-37 0 -59.5 24.5t-22.5 61.5zM682 1188v33q0 35 23.5 60.5t58.5 25.5h35q37 0 59.5 -25t22.5 -61v-33q0 -37 -22.5 -61.5 t-59.5 -24.5h-35q-35 0 -58.5 25.5t-23.5 60.5z" />
<glyph unicode="&#xfd;" horiz-adv-x="1206" d="M100 -221q0 6 6 16l46 76q8 14 18 14t20 -8q35 -29 71 -42t87 -13q68 0 109 48t88 167l-422 899q-6 12 -6 22q0 25 28 25h109q27 0 36 -6t19 -27l326 -729l323 729q10 20 19.5 26.5t36.5 6.5h108q29 0 29 -25q0 -10 -6 -22l-387 -827q-84 -178 -134.5 -262.5t-112.5 -125 t-161 -40.5q-71 0 -132.5 21.5t-102.5 55.5q-14 12 -15 21zM526 1149q0 4 4 20l101 279q8 23 19.5 31t39.5 8h105q39 0 39 -25q0 -4 -9 -24l-135 -279q-10 -20 -23.5 -27.5t-39.5 -7.5h-70q-31 0 -31 25z" />
<glyph unicode="&#xfe;" horiz-adv-x="1259" d="M137 -352v1714q0 61 62 61h61q33 0 47.5 -15t14.5 -46v-393q129 45 268 45q283 0 428 -131t145 -391q0 -244 -129 -383.5t-352 -139.5q-246 0 -360 129v-450q0 -31 -14.5 -46.5t-47.5 -15.5h-61q-62 1 -62 62zM322 381q0 -82 44 -143.5t115.5 -94t153.5 -32.5 q174 0 259 100t85 291q0 199 -99.5 284.5t-304.5 85.5q-76 0 -143 -13t-110 -36v-442z" />
<glyph unicode="&#xff;" horiz-adv-x="1206" d="M100 -221q0 6 6 16l46 76q8 14 18 14t20 -8q35 -29 71 -42t87 -13q68 0 109 48t88 167l-422 899q-6 12 -6 22q0 25 28 25h109q27 0 36 -6t19 -27l326 -729l323 729q10 20 19.5 26.5t36.5 6.5h108q29 0 29 -25q0 -10 -6 -22l-387 -827q-84 -178 -134.5 -262.5t-112.5 -125 t-161 -40.5q-71 0 -132.5 21.5t-102.5 55.5q-14 12 -15 21zM303 1217v32q0 37 22.5 61.5t59.5 24.5h35q35 0 58.5 -25.5t23.5 -60.5v-32q0 -37 -22.5 -62t-59.5 -25h-35q-37 0 -59.5 25t-22.5 62zM688 1217v32q0 35 23.5 60.5t58.5 25.5h35q37 0 59.5 -24.5t22.5 -61.5v-32 q0 -37 -22.5 -62t-59.5 -25h-35q-35 0 -58.5 26t-23.5 61z" />
<glyph unicode="&#x100;" horiz-adv-x="1488" d="M98 27q0 4 4 20l551 1303q12 27 21.5 35t32.5 8h75q23 0 32 -8.5t22 -34.5l550 -1303l5 -20q0 -27 -31 -27h-109q-25 0 -34 6t-17 25l-139 334h-633l-139 -334q-8 -18 -17.5 -24.5t-33.5 -6.5h-109q-31 0 -31 27zM403 1673v33q0 33 13.5 46t46.5 13h565q33 0 46 -13 t13 -46v-33q0 -33 -13 -45t-46 -12h-565q-33 0 -46.5 12t-13.5 45zM481 510h525l-263 631z" />
<glyph unicode="&#x101;" horiz-adv-x="1257" d="M96 430q0 174 73 306t210 205t321 73q129 0 238 -34t182 -85v-844q0 -27 -12 -39t-41 -12h-63q-23 0 -33 10t-15 33l-10 90q-66 -86 -164 -125t-239 -39q-205 0 -326 120t-121 341zM279 440q0 -170 82.5 -249.5t250.5 -79.5q82 0 158 32.5t123 95t47 144.5v440 q-102 51 -244 51q-188 0 -302.5 -115.5t-114.5 -318.5zM356 1235v33q0 33 13.5 46t46.5 13h565q33 0 46 -13.5t13 -45.5v-33q0 -33 -13 -45t-46 -12h-565q-33 0 -46.5 12t-13.5 45z" />
<glyph unicode="&#x102;" horiz-adv-x="1488" d="M98 27q0 4 4 20l551 1303q12 27 21.5 35t32.5 8h75q23 0 32 -8.5t22 -34.5l550 -1303l5 -20q0 -27 -31 -27h-109q-25 0 -34 6t-17 25l-139 334h-633l-139 -334q-8 -18 -17.5 -24.5t-33.5 -6.5h-109q-31 0 -31 27zM430 1884q0 16 9.5 26.5t23.5 10.5h92q20 0 27.5 -9 t7.5 -30q0 -86 32.5 -133t120.5 -47t121 47t33 133q0 20 7 29.5t28 9.5h92q14 0 23.5 -10t9.5 -27q0 -147 -80 -235t-234 -88q-155 0 -234 88t-79 235zM481 510h525l-263 631z" />
<glyph unicode="&#x103;" horiz-adv-x="1257" d="M96 430q0 174 73 306t210 205t321 73q129 0 238 -34t182 -85v-844q0 -27 -12 -39t-41 -12h-63q-23 0 -33 10t-15 33l-10 90q-66 -86 -164 -125t-239 -39q-205 0 -326 120t-121 341zM279 440q0 -170 82.5 -249.5t250.5 -79.5q82 0 158 32.5t123 95t47 144.5v440 q-102 51 -244 51q-188 0 -302.5 -115.5t-114.5 -318.5zM379 1450q0 16 9 26.5t24 10.5h92q20 0 27.5 -9.5t7.5 -29.5q0 -86 32.5 -133t120.5 -47t121 47t33 133q0 20 7 29.5t28 9.5h92q14 0 23.5 -10.5t9.5 -26.5q0 -147 -80 -235.5t-234 -88.5q-155 0 -234 88.5t-79 235.5z " />
<glyph unicode="&#x104;" horiz-adv-x="1488" d="M98 27q0 4 4 20l551 1303q12 27 21.5 35t32.5 8h75q23 0 32 -8.5t22 -34.5l550 -1303q5 -16 5 -20q0 -27 -31 -27h-12v-4q0 -8 -7 -16q-70 -84 -94 -132.5t-24 -93.5q0 -55 49 -55q29 0 45 8q12 4 14 4q8 0 15 -14l26 -55q2 -4 2 -13q0 -12 -22 -22q-39 -20 -125 -21 q-80 0 -122 42t-42 106q0 57 29.5 116.5t95.5 135.5q20 20 26 22q-8 4 -14 23l-139 334h-633l-139 -334q-8 -18 -17.5 -24.5t-33.5 -6.5h-109q-31 0 -31 27zM481 510h525l-263 631z" />
<glyph unicode="&#x105;" horiz-adv-x="1261" d="M96 430q0 174 73 306t210 205t321 73q129 0 238 -34t182 -85v-844q0 -35 -22 -47l-6 -8q-70 -84 -94.5 -132t-24.5 -93q0 -55 49 -56q29 0 45 9q12 4 14 4q8 0 15 -15l26 -55q2 -4 2 -12q0 -12 -22 -23q-39 -20 -125 -20q-80 0 -122 42t-42 105q0 57 29.5 116.5 t95.5 135.5q12 16 23 21l-5 20l-10 90q-66 -86 -164 -125t-239 -39q-205 0 -326 120t-121 341zM279 440q0 -170 82.5 -249.5t250.5 -79.5q82 0 158 32.5t123 95t47 144.5v440q-102 51 -244 51q-188 0 -302.5 -115.5t-114.5 -318.5z" />
<glyph unicode="&#x106;" horiz-adv-x="1384" d="M96 696q0 346 184.5 536.5t524.5 190.5q131 0 245.5 -26.5t192.5 -77.5q16 -10 17 -23q0 -8 -7 -20l-43 -72q-8 -16 -18 -16t-21 8q-61 37 -151 60.5t-201 23.5q-252 0 -396 -144.5t-144 -439.5q0 -299 147 -441t397 -142q123 0 213 21.5t162 64.5q10 8 23 8q10 0 18 -14 l45 -78q6 -8 6 -17q0 -6 -5 -11t-15 -11q-160 -106 -463 -107q-340 0 -525.5 190.5t-185.5 536.5zM690 1579q0 4 4 20l101 279q8 23 19 31t40 8h104q39 0 39 -25q0 -4 -8 -24l-135 -279q-10 -20 -23.5 -27.5t-39.5 -7.5h-70q-31 0 -31 25z" />
<glyph unicode="&#x107;" horiz-adv-x="1161" d="M96 487q0 156 68.5 275t195.5 185.5t295 66.5q125 0 212 -22.5t165 -78.5q16 -12 17 -24q0 -4 -9 -21l-41 -69q-8 -18 -18 -19q-6 0 -20 11q-61 43 -133 63t-169 20q-180 0 -280 -103t-100 -284q0 -193 100 -284.5t299 -91.5q98 0 167.5 21.5t129.5 62.5q14 10 20 10 q10 0 19 -19l43 -71q8 -16 8 -19q0 -12 -18 -24q-78 -51 -170.5 -77t-212.5 -26q-267 0 -417.5 134.5t-150.5 383.5zM520 1141q0 4 4 20l101 279q8 23 19 31t40 8h104q39 0 39 -25q0 -4 -8 -24l-135 -279q-10 -20 -23.5 -27.5t-39.5 -7.5h-70q-31 0 -31 25z" />
<glyph unicode="&#x108;" horiz-adv-x="1384" d="M96 696q0 346 184.5 536.5t524.5 190.5q131 0 245.5 -26.5t192.5 -77.5q16 -10 17 -23q0 -8 -7 -20l-43 -72q-8 -16 -18 -16t-21 8q-61 37 -151 60.5t-201 23.5q-252 0 -396 -144.5t-144 -439.5q0 -299 147 -441t397 -142q123 0 213 21.5t162 64.5q10 8 23 8q10 0 18 -14 l45 -78q6 -8 6 -17q0 -6 -5 -11t-15 -11q-160 -106 -463 -107q-340 0 -525.5 190.5t-185.5 536.5zM465 1548q0 12 8 23l221 305q18 25 28.5 32t35.5 7h69q25 0 35 -7t29 -32l221 -305q8 -10 8 -23q0 -12 -10 -20t-27 -8h-67q-29 0 -41 8t-27 31l-155 227l-156 -227 q-14 -23 -26.5 -31t-41.5 -8h-67q-17 0 -27 8t-10 20z" />
<glyph unicode="&#x109;" horiz-adv-x="1167" d="M96 487q0 156 68.5 275t195.5 185.5t295 66.5q125 0 212 -22.5t165 -78.5q16 -12 17 -24q0 -4 -9 -21l-41 -69q-8 -18 -18 -19q-6 0 -20 11q-61 43 -133 63t-169 20q-180 0 -280 -103t-100 -284q0 -193 100 -284.5t299 -91.5q98 0 167.5 21.5t129.5 62.5q14 10 20 10 q10 0 19 -19l43 -71q8 -16 8 -19q0 -12 -18 -24q-78 -51 -170.5 -77t-212.5 -26q-267 0 -417.5 134.5t-150.5 383.5zM326 1135q0 12 8 22l221 305q18 25 28.5 32t34.5 7h70q25 0 35 -7t29 -32l221 -305q8 -10 8 -22t-10 -20.5t-27 -8.5h-67q-29 0 -41.5 8t-26.5 31l-156 227 l-155 -227q-14 -23 -26.5 -31t-41.5 -8h-68q-16 0 -26 8t-10 21z" />
<glyph unicode="&#x10a;" horiz-adv-x="1384" d="M96 696q0 346 184.5 536.5t524.5 190.5q131 0 245.5 -26.5t192.5 -77.5q16 -10 17 -23q0 -8 -7 -20l-43 -72q-8 -16 -18 -16t-21 8q-61 37 -151 60.5t-201 23.5q-252 0 -396 -144.5t-144 -439.5q0 -299 147 -441t397 -142q123 0 213 21.5t162 64.5q10 8 23 8q10 0 18 -14 l45 -78q6 -8 6 -17q0 -6 -5 -11t-15 -11q-160 -106 -463 -107q-340 0 -525.5 190.5t-185.5 536.5zM700 1688v32q0 35 24 60.5t58 25.5h37q35 0 58.5 -25.5t23.5 -60.5v-32q0 -37 -22.5 -61.5t-59.5 -24.5h-37q-34 0 -58 25.5t-24 60.5z" />
<glyph unicode="&#x10b;" horiz-adv-x="1161" d="M96 487q0 156 68.5 275t195.5 185.5t295 66.5q125 0 212 -22.5t165 -78.5q16 -12 17 -24q0 -4 -9 -21l-41 -69q-8 -18 -18 -19q-6 0 -20 11q-61 43 -133 63t-169 20q-180 0 -280 -103t-100 -284q0 -193 100 -284.5t299 -91.5q98 0 167.5 21.5t129.5 62.5q14 10 20 10 q10 0 19 -19l43 -71q8 -16 8 -19q0 -12 -18 -24q-78 -51 -170.5 -77t-212.5 -26q-267 0 -417.5 134.5t-150.5 383.5zM551 1249v33q0 35 23.5 60.5t58.5 25.5h37q35 0 58.5 -25.5t23.5 -60.5v-33q0 -37 -22.5 -61.5t-59.5 -24.5h-37q-35 0 -58.5 25.5t-23.5 60.5z" />
<glyph unicode="&#x10c;" horiz-adv-x="1384" d="M96 696q0 346 184.5 536.5t524.5 190.5q131 0 245.5 -26.5t192.5 -77.5q16 -10 17 -23q0 -8 -7 -20l-43 -72q-8 -16 -18 -16t-21 8q-61 37 -151 60.5t-201 23.5q-252 0 -396 -144.5t-144 -439.5q0 -299 147 -441t397 -142q123 0 213 21.5t162 64.5q10 8 23 8q10 0 18 -14 l45 -78q6 -8 6 -17q0 -6 -5 -11t-15 -11q-160 -106 -463 -107q-340 0 -525.5 190.5t-185.5 536.5zM489 1923q0 20 27 21h82q29 0 39 -6.5t25 -26.5l159 -234l158 234q14 20 24.5 26.5t38.5 6.5h82q29 0 29 -23q0 -12 -12 -29l-221 -305q-18 -25 -28.5 -32t-35.5 -7h-70 q-24 0 -34.5 7.5t-28.5 31.5l-221 305q-12 18 -13 31z" />
<glyph unicode="&#x10d;" horiz-adv-x="1167" d="M96 487q0 156 68.5 275t195.5 185.5t295 66.5q125 0 212 -22.5t165 -78.5q16 -12 17 -24q0 -4 -9 -21l-41 -69q-8 -18 -18 -19q-6 0 -20 11q-61 43 -133 63t-169 20q-180 0 -280 -103t-100 -284q0 -193 100 -284.5t299 -91.5q98 0 167.5 21.5t129.5 62.5q14 10 20 10 q10 0 19 -19l43 -71q8 -16 8 -19q0 -12 -18 -24q-78 -51 -170.5 -77t-212.5 -26q-267 0 -417.5 134.5t-150.5 383.5zM311 1505q0 20 27 21h82q29 0 39 -6.5t24 -26.5l160 -233l158 233q14 20 24.5 26.5t38.5 6.5h82q29 0 29 -23q0 -12 -12 -28l-222 -306q-18 -25 -28.5 -32 t-34.5 -7h-70q-24 0 -34.5 7.5t-28.5 31.5l-221 306q-12 18 -13 30z" />
<glyph unicode="&#x10e;" horiz-adv-x="1392" d="M137 61v1270q0 61 62 62h389q342 0 525 -165t183 -532t-183 -531.5t-525 -164.5h-389q-62 0 -62 61zM276 1923q0 20 27 21h82q29 0 39 -6.5t25 -26.5l159 -234l158 234q14 20 24.5 26.5t38.5 6.5h82q29 0 29 -23q0 -12 -12 -29l-221 -305q-18 -25 -28.5 -32t-35.5 -7h-70 q-24 0 -34.5 7.5t-28.5 31.5l-221 305q-12 18 -13 31zM324 150h278q252 0 382 124.5t130 421.5t-130 422t-382 125h-278v-1093z" />
<glyph unicode="&#x10f;" horiz-adv-x="1527" d="M96 494q0 154 60.5 271.5t171 183t258.5 65.5q246 0 352 -115v432q0 31 14.5 46.5t46.5 15.5h60q63 0 63 -62v-1233q-74 -55 -198.5 -92t-259.5 -37q-287 0 -427.5 130t-140.5 395zM279 483q0 -199 96 -285.5t293 -86.5q77 0 152 17t118 46v461q0 117 -86 177t-217 60 q-178 0 -267 -103t-89 -286zM1212 1194q0 4 5 20l100 279q10 23 21.5 31t39.5 8h95q39 0 38 -25q0 -12 -6 -24l-137 -279q-10 -20 -22.5 -27.5t-40.5 -7.5h-60q-33 0 -33 25z" />
<glyph unicode="&#x110;" horiz-adv-x="1470" d="M35 678v35q0 33 13 46t46 13h121v559q0 31 14.5 46.5t46.5 15.5h390q342 0 525 -165t183 -532t-184 -531.5t-524 -164.5h-390q-32 0 -46.5 15.5t-14.5 45.5v562h-121q-33 0 -46 12t-13 43zM401 150h279q252 0 381 124.5t129 421.5t-129 422t-381 125h-279v-471h349 q33 0 47 -13.5t14 -45.5v-35q0 -31 -14.5 -43t-46.5 -12h-349v-473z" />
<glyph unicode="&#x111;" horiz-adv-x="1323" d="M96 494q0 154 60.5 271.5t171 183t258.5 65.5q246 0 352 -115v203h-336q-33 0 -46 12t-13 43v35q0 33 13 46t46 13h336v80q0 31 14.5 46.5t46.5 15.5h60q63 0 63 -62v-80h105q33 0 47 -13t14 -46v-35q0 -31 -14 -43t-47 -12h-105v-1004q-74 -55 -198.5 -92t-259.5 -37 q-287 0 -427.5 130t-140.5 395zM279 483q0 -199 96 -285.5t293 -86.5q172 0 270 63v461q0 117 -86 177t-217 60q-178 0 -267 -103t-89 -286z" />
<glyph unicode="&#x112;" horiz-adv-x="1185" d="M137 61v1270q0 61 62 62h852q33 0 46 -12.5t13 -43.5v-34q0 -33 -13.5 -46.5t-45.5 -13.5h-727v-471h546q33 0 47.5 -13.5t14.5 -43.5v-33q0 -31 -14.5 -45t-47.5 -14h-546v-473h727q33 0 46 -13.5t13 -46.5v-35q0 -31 -13.5 -43t-45.5 -12h-852q-62 0 -62 61zM270 1673 v33q0 33 13.5 46t46.5 13h565q33 0 46 -13t13 -46v-33q0 -33 -13 -45t-46 -12h-565q-33 0 -46.5 12t-13.5 45z" />
<glyph unicode="&#x113;" horiz-adv-x="1228" d="M96 473q0 266 138.5 403.5t392.5 137.5q252 0 379 -132t127 -393q0 -55 -54 -55h-805q0 -162 106.5 -246t295.5 -84q178 0 307 80q12 6 18 6q12 0 19 -14l39 -67q4 -6 4 -17q0 -14 -16 -24q-82 -51 -175.5 -75t-214.5 -24q-153 0 -280 53.5t-204 167t-77 283.5zM274 559 h687q0 154 -84 239t-250 85q-170 0 -261.5 -88t-91.5 -236zM283 1243v33q0 33 13 46t46 13h565q33 0 46.5 -13t13.5 -46v-33q0 -33 -13.5 -45t-46.5 -12h-565q-33 0 -46 12t-13 45z" />
<glyph unicode="&#x114;" horiz-adv-x="1185" d="M137 61v1270q0 61 62 62h852q33 0 46 -12.5t13 -43.5v-34q0 -33 -13.5 -46.5t-45.5 -13.5h-727v-471h546q33 0 47.5 -13.5t14.5 -43.5v-33q0 -31 -14.5 -45t-47.5 -14h-546v-473h727q33 0 46 -13.5t13 -46.5v-35q0 -31 -13.5 -43t-45.5 -12h-852q-62 0 -62 61zM315 1884 q0 16 9.5 26.5t23.5 10.5h92q20 0 27.5 -9t7.5 -30q0 -86 33 -133t121 -47t120.5 47t32.5 133q0 20 7.5 29.5t27.5 9.5h92q14 0 23.5 -10t9.5 -27q0 -147 -80 -235t-233 -88q-156 0 -235 88t-79 235z" />
<glyph unicode="&#x115;" horiz-adv-x="1228" d="M96 473q0 266 138.5 403.5t392.5 137.5q252 0 379 -132t127 -393q0 -55 -54 -55h-805q0 -162 106.5 -246t295.5 -84q178 0 307 80q12 6 18 6q12 0 19 -14l39 -67q4 -6 4 -17q0 -14 -16 -24q-82 -51 -175.5 -75t-214.5 -24q-153 0 -280 53.5t-204 167t-77 283.5zM274 559 h687q0 154 -84 239t-250 85q-170 0 -261.5 -88t-91.5 -236zM317 1446q0 16 9.5 26.5t23.5 10.5h92q20 0 27.5 -9.5t7.5 -29.5q0 -86 33 -133t121 -47t120.5 47t32.5 133q0 20 7.5 29.5t27.5 9.5h92q14 0 23.5 -10.5t9.5 -26.5q0 -147 -80 -235.5t-233 -88.5q-156 0 -235 88 t-79 236z" />
<glyph unicode="&#x116;" horiz-adv-x="1185" d="M137 61v1270q0 61 62 62h852q33 0 46 -12.5t13 -43.5v-34q0 -33 -13.5 -46.5t-45.5 -13.5h-727v-471h546q33 0 47.5 -13.5t14.5 -43.5v-33q0 -31 -14.5 -45t-47.5 -14h-546v-473h727q33 0 46 -13.5t13 -46.5v-35q0 -31 -13.5 -43t-45.5 -12h-852q-62 0 -62 61zM522 1688 v32q0 35 23.5 60.5t58.5 25.5h37q35 0 58.5 -25.5t23.5 -60.5v-32q0 -37 -22.5 -61.5t-59.5 -24.5h-37q-35 0 -58.5 25.5t-23.5 60.5z" />
<glyph unicode="&#x117;" horiz-adv-x="1228" d="M96 473q0 266 138.5 403.5t392.5 137.5q252 0 379 -132t127 -393q0 -55 -54 -55h-805q0 -162 106.5 -246t295.5 -84q178 0 307 80q12 6 18 6q12 0 19 -14l39 -67q4 -6 4 -17q0 -14 -16 -24q-82 -51 -175.5 -75t-214.5 -24q-153 0 -280 53.5t-204 167t-77 283.5zM274 559 h687q0 154 -84 239t-250 85q-170 0 -261.5 -88t-91.5 -236zM532 1249v33q0 35 24 60.5t58 25.5h37q35 0 58.5 -25.5t23.5 -60.5v-33q0 -37 -22.5 -61.5t-59.5 -24.5h-37q-34 0 -58 25.5t-24 60.5z" />
<glyph unicode="&#x118;" horiz-adv-x="1185" d="M137 61v1270q0 61 62 62h852q33 0 46 -12.5t13 -43.5v-34q0 -33 -13.5 -46.5t-45.5 -13.5h-727v-471h546q33 0 47.5 -13.5t14.5 -43.5v-33q0 -31 -14.5 -45t-47.5 -14h-546v-473h727q33 0 46 -13.5t13 -46.5v-35q0 -29 -11.5 -41t-37.5 -14q4 -10 -6 -18 q-70 -84 -94.5 -132.5t-24.5 -93.5q0 -55 49 -55q29 0 45 8q12 4 14 4q8 0 15 -14l26 -55q2 -4 2 -13q0 -12 -22 -22q-39 -20 -125 -21q-80 0 -122 42t-42 106q0 57 30 116.5t95 135.5l12 12h-714q-61 0 -62 61z" />
<glyph unicode="&#x119;" horiz-adv-x="1228" d="M96 473q0 266 138.5 403.5t392.5 137.5q252 0 379 -132t127 -393q-1 -55 -54 -55h-805q0 -162 106.5 -246t295.5 -84q178 0 307 80q12 6 18 6q12 0 19 -14l39 -67q6 -12 4 -21q0 -6 -6 -16q-70 -84 -94.5 -132.5t-24.5 -93.5q0 -55 49 -55q29 0 45 8q12 4 15 4 q8 0 14 -14l26 -55q2 -4 3 -13q0 -12 -23 -22q-39 -20 -125 -21q-80 0 -122 42t-42 106q0 76 53 158q-74 -14 -174 -15q-154 0 -280.5 53.5t-203.5 167t-77 283.5zM274 559h687q0 154 -84 239t-250 85q-170 0 -261.5 -88t-91.5 -236z" />
<glyph unicode="&#x11a;" horiz-adv-x="1185" d="M137 61v1270q0 61 62 62h852q33 0 46 -12.5t13 -43.5v-34q0 -33 -13.5 -46.5t-45.5 -13.5h-727v-471h546q33 0 47.5 -13.5t14.5 -43.5v-33q0 -31 -14.5 -45t-47.5 -14h-546v-473h727q33 0 46 -13.5t13 -46.5v-35q0 -31 -13.5 -43t-45.5 -12h-852q-62 0 -62 61zM303 1923 q0 20 27 21h82q29 0 39 -6.5t24 -26.5l160 -234l158 234q14 20 24 26.5t39 6.5h82q29 0 29 -23q0 -12 -13 -29l-221 -305q-18 -25 -28.5 -32t-34.5 -7h-70q-25 0 -35 7.5t-28 31.5l-222 305q-12 18 -12 31z" />
<glyph unicode="&#x11b;" horiz-adv-x="1228" d="M96 473q0 266 138.5 403.5t392.5 137.5q252 0 379 -132t127 -393q0 -55 -54 -55h-805q0 -162 106.5 -246t295.5 -84q178 0 307 80q12 6 18 6q12 0 19 -14l39 -67q4 -6 4 -17q0 -14 -16 -24q-82 -51 -175.5 -75t-214.5 -24q-153 0 -280 53.5t-204 167t-77 283.5zM274 559 h687q0 154 -84 239t-250 85q-170 0 -261.5 -88t-91.5 -236zM301 1485q0 20 27 20h82q29 0 39 -6t24 -26l160 -234l158 234q14 20 24 26t39 6h82q29 0 29 -22q0 -12 -13 -29l-221 -305q-18 -25 -28.5 -32t-34.5 -7h-70q-25 0 -35 7t-28 32l-222 305q-12 18 -12 31z" />
<glyph unicode="&#x11c;" horiz-adv-x="1429" d="M96 696q0 346 185.5 536.5t525.5 190.5q131 0 246.5 -26.5t193.5 -77.5q16 -10 17 -23q0 -8 -7 -20l-43 -72q-8 -16 -18 -16t-20 8q-61 37 -151.5 60.5t-201.5 23.5q-252 0 -398 -144.5t-146 -439.5t145 -438t391 -143q96 0 188.5 16t151.5 45v445h-317q-33 0 -46.5 14 t-13.5 45v35q0 31 13.5 43t46.5 12h430q35 0 50 -16.5t15 -51.5v-561q0 -27 -4 -39t-20 -20q-201 -113 -502 -113q-340 0 -525.5 190.5t-185.5 536.5zM471 1524q0 12 8 22l221 305q18 25 28.5 32t35.5 7h70q25 0 35 -7t28 -32l221 -305q8 -10 8 -22t-10 -20.5t-26 -8.5h-68 q-29 0 -41 8t-27 31l-155 227l-156 -227q-14 -23 -26.5 -31t-41.5 -8h-67q-16 0 -26.5 8t-10.5 21z" />
<glyph unicode="&#x11d;" horiz-adv-x="1259" d="M96 467q0 260 151.5 403.5t432.5 143.5q125 0 247 -34t195 -83v-737q0 -246 -115.5 -377t-353.5 -131q-118 0 -224.5 20.5t-162.5 53.5q-37 23 -22 45l45 75q8 16 18 17q6 0 19 -6q55 -29 140 -47.5t173 -18.5q158 0 228.5 79t70.5 265q-68 -80 -150.5 -114.5 t-212.5 -34.5q-221 0 -350 127t-129 354zM279 481q0 -350 346 -350q135 0 224 72.5t89 195.5v424q-45 23 -116.5 36t-147.5 13q-188 0 -291.5 -97t-103.5 -294zM328 1135q0 12 8 22l221 305q18 25 28.5 32t35.5 7h69q25 0 35 -7t29 -32l221 -305q8 -10 8 -22t-10 -20.5 t-27 -8.5h-67q-29 0 -41.5 8t-26.5 31l-156 227l-155 -227q-14 -23 -26.5 -31t-41.5 -8h-67q-17 0 -27 8t-10 21z" />
<glyph unicode="&#x11e;" horiz-adv-x="1429" d="M96 696q0 346 185.5 536.5t525.5 190.5q131 0 246.5 -26.5t193.5 -77.5q16 -10 17 -23q0 -8 -7 -20l-43 -72q-8 -16 -18 -16t-20 8q-61 37 -151.5 60.5t-201.5 23.5q-252 0 -398 -144.5t-146 -439.5t145 -438t391 -143q96 0 188.5 16t151.5 45v445h-317q-33 0 -46.5 14 t-13.5 45v35q0 31 13.5 43t46.5 12h430q35 0 50 -16.5t15 -51.5v-561q0 -27 -4 -39t-20 -20q-201 -113 -502 -113q-340 0 -525.5 190.5t-185.5 536.5zM485 1835q0 16 9.5 26.5t23.5 10.5h92q20 0 27.5 -9.5t7.5 -29.5q0 -86 33 -133t121 -47t120.5 47t32.5 133 q0 20 7.5 29.5t27.5 9.5h92q14 0 23.5 -10.5t9.5 -26.5q0 -147 -80 -235.5t-233 -88.5q-156 0 -235 88.5t-79 235.5z" />
<glyph unicode="&#x11f;" horiz-adv-x="1259" d="M96 467q0 260 151.5 403.5t432.5 143.5q125 0 247 -34t195 -83v-737q0 -246 -115.5 -377t-353.5 -131q-118 0 -224.5 20.5t-162.5 53.5q-37 23 -22 45l45 75q8 16 18 17q6 0 19 -6q55 -29 140 -47.5t173 -18.5q158 0 228.5 79t70.5 265q-68 -80 -150.5 -114.5 t-212.5 -34.5q-221 0 -350 127t-129 354zM279 481q0 -350 346 -350q135 0 224 72.5t89 195.5v424q-45 23 -116.5 36t-147.5 13q-188 0 -291.5 -97t-103.5 -294zM350 1442q0 16 9.5 26.5t23.5 10.5h92q20 0 27.5 -9.5t7.5 -29.5q0 -86 32.5 -133t121.5 -47q88 0 120.5 47 t32.5 133q0 20 7 29.5t28 9.5h92q14 0 23.5 -10.5t9.5 -26.5q0 -147 -80 -235.5t-233 -88.5q-156 0 -235 88t-79 236z" />
<glyph unicode="&#x120;" horiz-adv-x="1429" d="M96 696q0 346 185.5 536.5t525.5 190.5q131 0 246.5 -26.5t193.5 -77.5q16 -10 17 -23q0 -8 -7 -20l-43 -72q-8 -16 -18 -16t-20 8q-61 37 -151.5 60.5t-201.5 23.5q-252 0 -398 -144.5t-146 -439.5t145 -438t391 -143q96 0 188.5 16t151.5 45v445h-317q-33 0 -46.5 14 t-13.5 45v35q0 31 13.5 43t46.5 12h430q35 0 50 -16.5t15 -51.5v-561q0 -27 -4 -39t-20 -20q-201 -113 -502 -113q-340 0 -525.5 190.5t-185.5 536.5zM696 1624v33q0 35 23.5 60.5t58.5 25.5h37q35 0 58.5 -25.5t23.5 -60.5v-33q0 -37 -22.5 -61.5t-59.5 -24.5h-37 q-35 0 -58.5 25.5t-23.5 60.5z" />
<glyph unicode="&#x121;" horiz-adv-x="1259" d="M96 467q0 260 151.5 403.5t432.5 143.5q125 0 247 -34t195 -83v-737q0 -246 -115.5 -377t-353.5 -131q-118 0 -224.5 20.5t-162.5 53.5q-37 23 -22 45l45 75q8 16 18 17q6 0 19 -6q55 -29 140 -47.5t173 -18.5q158 0 228.5 79t70.5 265q-68 -80 -150.5 -114.5 t-212.5 -34.5q-221 0 -350 127t-129 354zM279 481q0 -350 346 -350q135 0 224 72.5t89 195.5v424q-45 23 -116.5 36t-147.5 13q-188 0 -291.5 -97t-103.5 -294zM575 1247v33q0 35 24 60.5t58 25.5h37q35 0 58.5 -25.5t23.5 -60.5v-33q0 -37 -22.5 -61.5t-59.5 -24.5h-37 q-34 0 -58 25.5t-24 60.5z" />
<glyph unicode="&#x122;" horiz-adv-x="1429" d="M96 696q0 346 185.5 536.5t525.5 190.5q131 0 246.5 -26.5t193.5 -77.5q16 -10 17 -23q0 -8 -7 -20l-43 -72q-8 -16 -18 -16t-20 8q-61 37 -151.5 60.5t-201.5 23.5q-252 0 -398 -144.5t-146 -439.5t145 -438t391 -143q96 0 188.5 16t151.5 45v445h-317q-33 0 -46.5 14 t-13.5 45v35q0 31 13.5 43t46.5 12h430q35 0 50 -16.5t15 -51.5v-561q0 -27 -4 -39t-20 -20q-201 -113 -502 -113q-340 0 -525.5 190.5t-185.5 536.5zM651 -436l4 18l97 303q8 25 19 33t40 8h78q37 0 37 -22q0 -12 -6 -27l-132 -307q-12 -29 -51 -29h-57q-29 0 -29 23z" />
<glyph unicode="&#x123;" horiz-adv-x="1259" d="M96 467q0 260 151.5 403.5t432.5 143.5q125 0 247 -34t195 -83v-737q0 -246 -115.5 -377t-353.5 -131q-118 0 -224.5 20.5t-162.5 53.5q-37 23 -22 45l45 75q8 16 18 17q6 0 19 -6q55 -29 140 -47.5t173 -18.5q158 0 228.5 79t70.5 265q-68 -80 -150.5 -114.5 t-212.5 -34.5q-221 0 -350 127t-129 354zM279 481q0 -350 346 -350q135 0 224 72.5t89 195.5v424q-45 23 -116.5 36t-147.5 13q-188 0 -291.5 -97t-103.5 -294zM582 1167q0 12 6 27l131 307q12 29 51 29h57q29 0 29 -23l-4 -18l-96 -303q-8 -25 -19.5 -33t-40.5 -8h-78 q-36 -1 -36 22z" />
<glyph unicode="&#x124;" horiz-adv-x="1421" d="M137 61v1270q0 61 62 62h63q33 0 47.5 -15.5t14.5 -46.5v-553h774v553q0 61 63 62h62q33 0 47 -15.5t14 -46.5v-1270q0 -31 -14.5 -46t-46.5 -15h-62q-63 0 -63 61v568h-774v-568q0 -31 -14.5 -46t-47.5 -15h-63q-62 0 -62 61zM383 1552q0 12 8 23l221 305q18 25 28.5 32 t35.5 7h69q25 0 35.5 -7t28.5 -32l221 -305q8 -10 8 -23q0 -12 -10 -20t-27 -8h-67q-29 0 -41 8t-27 31l-155 227l-156 -227q-14 -23 -26.5 -31t-41.5 -8h-67q-17 0 -27 8t-10 20z" />
<glyph unicode="&#x125;" horiz-adv-x="1212" d="M137 61v1280q0 29 9.5 40.5t37.5 11.5h92q29 0 38.5 -11.5t9.5 -40.5v-479q70 78 164 115t231 37q168 0 267 -87t99 -263v-603q0 -31 -14 -46t-47 -15h-61q-63 0 -64 61v592q0 119 -59.5 169t-177.5 50q-80 0 -159 -31.5t-129 -90t-50 -129.5v-560q0 -31 -14.5 -46 t-47.5 -15h-61q-64 0 -64 61zM158 1540q0 12 8 23l221 305q18 25 28.5 32t35.5 7h69q25 0 35 -7.5t29 -31.5l221 -305q8 -10 8 -23q0 -12 -10 -20.5t-27 -8.5h-67q-29 0 -41.5 8.5t-26.5 30.5l-156 228l-155 -228q-14 -23 -26.5 -31t-41.5 -8h-67q-17 0 -27 8.5t-10 20.5z " />
<glyph unicode="&#x126;" horiz-adv-x="1441" d="M55 1077v37q0 29 12.5 40t41.5 11h53v166q0 61 61 62h64q33 0 47 -15.5t14 -46.5v-166h774v166q0 61 64 62h61q33 0 47.5 -15.5t14.5 -46.5v-166h24q29 0 41 -11t12 -40v-37q0 -29 -11 -38t-42 -9h-24v-969q0 -31 -14.5 -46t-47.5 -15h-61q-63 0 -64 61v568h-774v-568 q0 -31 -14.5 -46t-46.5 -15h-64q-61 0 -61 61v969h-53q-29 0 -41.5 9.5t-12.5 37.5zM348 778h774v252h-774v-252z" />
<glyph unicode="&#x127;" horiz-adv-x="1275" d="M55 1159v31q0 31 13.5 43t46.5 12h84v96q0 29 9 40.5t38 11.5h76q29 0 38 -11.5t9 -40.5v-96h299q33 0 47 -12t14 -43v-31q0 -31 -14.5 -42t-46.5 -11h-299v-256q154 164 411 164q168 0 268.5 -87t100.5 -263v-603q0 -61 -64 -61h-61q-63 0 -63 61v592q0 119 -59.5 169 t-178.5 50q-80 0 -159 -31.5t-129 -90t-50 -129.5v-560q0 -31 -14.5 -46t-46.5 -15h-62q-63 0 -63 61v1045h-84q-33 0 -46.5 11t-13.5 42z" />
<glyph unicode="&#x128;" horiz-adv-x="456" d="M-172 1628q0 18 20 43q43 51 90.5 81t112.5 30q59 0 108.5 -15.5t110.5 -44.5q47 -25 85 -37t79 -12q43 0 70.5 16.5t62.5 61.5q16 23 37 23q20 0 51 -25q35 -27 35 -51q0 -14 -16 -41q-47 -70 -100.5 -100.5t-139.5 -30.5q-49 0 -95 15t-114 44q-55 25 -93 38t-73 13 q-41 0 -63.5 -13t-56.5 -52q-14 -16 -33 -17q-25 0 -56 31q-23 23 -22 43zM133 61v1270q0 61 62 62h63q33 0 47 -15.5t14 -46.5v-1270q0 -31 -14 -46t-47 -15h-63q-62 0 -62 61z" />
<glyph unicode="&#x129;" horiz-adv-x="520" d="M-178 1247q0 18 20 43q43 51 90.5 81t112.5 30q59 0 108.5 -15.5t110.5 -44.5q47 -25 85 -37t79 -12q43 0 70.5 16.5t62.5 61.5q16 23 37 23q20 0 51 -25q35 -27 35 -51q0 -14 -16 -41q-47 -70 -100.5 -100.5t-139.5 -30.5q-49 0 -95 15.5t-114 43.5q-55 25 -93 38 t-73 13q-41 0 -63.5 -13t-57.5 -52q-14 -16 -32 -16q-25 0 -56 30q-23 23 -22 43zM166 61v861q0 61 61 61h64q33 0 47 -15.5t14 -45.5v-861q0 -31 -14 -46t-47 -15h-64q-61 0 -61 61z" />
<glyph unicode="&#x12a;" horiz-adv-x="448" d="M-119 1618v35q0 31 13.5 45t46.5 14h565q33 0 47 -14.5t14 -44.5v-35q0 -31 -14 -43t-47 -12h-565q-33 0 -46.5 12t-13.5 43zM135 61v1270q0 31 14.5 46.5t47.5 15.5h61q63 0 64 -62v-1270q0 -61 -64 -61h-61q-33 0 -47.5 15.5t-14.5 45.5z" />
<glyph unicode="&#x12b;" horiz-adv-x="477" d="M-104 1243v33q0 33 13 46t46 13h565q33 0 46.5 -13t13.5 -46v-33q0 -33 -13.5 -45t-46.5 -12h-565q-33 0 -46 12t-13 45zM145 61v861q0 61 62 61h63q33 0 47.5 -15.5t14.5 -45.5v-861q0 -31 -14.5 -46t-47.5 -15h-63q-62 0 -62 61z" />
<glyph unicode="&#x12c;" horiz-adv-x="487" d="M-70 1878q0 16 9.5 26.5t23.5 10.5h92q20 0 27.5 -9.5t7.5 -29.5q0 -86 33 -133t121 -47t120.5 47t32.5 133q0 20 7.5 29.5t27.5 9.5h92q14 0 23.5 -10.5t9.5 -26.5q0 -147 -80 -235.5t-233 -88.5q-156 0 -235 88.5t-79 235.5zM150 61v1270q0 61 61 62h63 q33 0 47.5 -15.5t14.5 -46.5v-1270q0 -31 -14.5 -46t-47.5 -15h-63q-61 0 -61 61z" />
<glyph unicode="&#x12d;" horiz-adv-x="487" d="M-70 1454q0 16 9.5 26.5t23.5 10.5h92q20 0 27.5 -9t7.5 -30q0 -86 33 -133t121 -47t120.5 47t32.5 133q0 20 7.5 29.5t27.5 9.5h92q14 0 23.5 -10.5t9.5 -26.5q0 -147 -80 -235.5t-233 -88.5q-156 0 -235 88.5t-79 235.5zM150 61v861q0 61 63 61h61q33 0 47.5 -15.5 t14.5 -45.5v-861q0 -31 -14.5 -46t-47.5 -15h-61q-63 0 -63 61z" />
<glyph unicode="&#x12e;" horiz-adv-x="442" d="M0 -248q0 57 29.5 116.5t95.5 135.5l12 12q-14 14 -14 45v1270q0 61 61 62h64q33 0 47 -15.5t14 -46.5v-1270q0 -39 -24 -55l-6 -8q-70 -84 -94.5 -132t-24.5 -93q0 -55 49 -56q29 0 45 9q12 4 14 4q8 0 15 -15l26 -55q2 -4 2 -12q0 -12 -22 -23q-39 -20 -125 -20 q-80 0 -122 42t-42 105z" />
<glyph unicode="&#x12f;" horiz-adv-x="483" d="M12 -248q0 57 30 116.5t95 135.5l15 14q-12 16 -13 43v861q0 31 14.5 46t47.5 15h61q64 0 64 -61v-861q0 -45 -31 -55q0 -4 -4 -8q-70 -84 -94.5 -132t-24.5 -93q0 -55 49 -56q29 0 45 9q12 4 15 4q8 0 14 -15l27 -55q2 -4 2 -12q0 -12 -23 -23q-39 -20 -125 -20 q-80 0 -122 42t-42 105zM119 1270v41q0 35 22.5 58.5t61.5 23.5h57q39 0 61.5 -23.5t22.5 -58.5v-41q0 -35 -22.5 -58.5t-61.5 -23.5h-57q-39 0 -61.5 23.5t-22.5 58.5z" />
<glyph unicode="&#x130;" horiz-adv-x="450" d="M127 1638v33q0 35 23.5 60.5t58.5 25.5h37q35 0 58.5 -25.5t23.5 -60.5v-33q0 -37 -22.5 -61.5t-59.5 -24.5h-37q-35 0 -58.5 26t-23.5 60zM131 61v1270q0 61 62 62h63q33 0 47 -15.5t14 -46.5v-1270q0 -31 -14 -46t-47 -15h-63q-62 0 -62 61z" />
<glyph unicode="&#x131;" horiz-adv-x="460" d="M137 61v861q0 61 62 61h63q33 0 47.5 -15.5t14.5 -45.5v-861q0 -31 -14.5 -46t-47.5 -15h-63q-62 0 -62 61z" />
<glyph unicode="&#x132;" horiz-adv-x="1314" d="M137 61v1270q0 61 62 62h63q33 0 47.5 -15.5t14.5 -46.5v-1270q0 -31 -14.5 -46t-47.5 -15h-63q-62 0 -62 61zM389 82q0 8 6 20l45 74q8 16 21 17q10 0 20 -9q51 -33 126 -52t155 -19q119 0 174 63.5t55 194.5v960q0 61 64 62h61q33 0 47.5 -15.5t14.5 -46.5v-958 q0 -184 -103.5 -294t-312.5 -110q-198 0 -356 90q-16 10 -17 23z" />
<glyph unicode="&#x133;" horiz-adv-x="995" d="M133 1270v41q0 35 22.5 58.5t61.5 23.5h57q39 0 61.5 -23.5t22.5 -58.5v-41q0 -35 -22.5 -58.5t-61.5 -23.5h-57q-39 0 -61.5 23.5t-22.5 58.5zM154 61v861q0 31 14 46t47 15h61q63 0 64 -61v-861q0 -61 -64 -61h-61q-33 0 -47 15.5t-14 45.5zM182 -264q0 6 6 18l43 72 q8 16 21 16q10 0 20 -8q94 -63 197 -63q102 0 142 48t40 154v949q0 61 64 61h61q33 0 47.5 -15.5t14.5 -45.5v-955q0 -162 -84 -251t-260 -89q-86 0 -162 21.5t-133 60.5q-16 12 -17 27zM631 1270v41q0 33 23.5 57.5t60.5 24.5h59q37 0 60.5 -25t23.5 -57v-41 q0 -35 -22.5 -58.5t-61.5 -23.5h-59q-37 0 -60.5 24.5t-23.5 57.5z" />
<glyph unicode="&#x134;" horiz-adv-x="1122" d="M57 82q0 8 6 20l46 74q8 16 20 17q10 0 21 -9q51 -33 125.5 -52t154.5 -19q119 0 174 63.5t55 194.5v960q0 61 64 62h61q33 0 47.5 -15.5t14.5 -46.5v-958q0 -184 -103.5 -294t-312.5 -110q-198 0 -356 90q-16 10 -17 23zM430 1573q0 12 8 22l221 306q18 25 28.5 31.5 t35.5 6.5h70q25 0 35 -7t28 -31l221 -306q8 -10 8 -22t-10 -20.5t-26 -8.5h-68q-29 0 -41 8.5t-27 30.5l-155 227l-156 -227q-14 -23 -26.5 -31t-40.5 -8h-68q-16 0 -26.5 8.5t-10.5 20.5z" />
<glyph unicode="&#x135;" horiz-adv-x="980" d="M53 -240q0 6 6 19l43 71q8 16 21 17q10 0 20 -8q51 -31 96.5 -47.5t102.5 -16.5q100 0 140 48t40 155v924q0 61 64 61h61q63 0 64 -61v-930q0 -162 -85 -251t-259 -89q-86 0 -164 20.5t-133 61.5q-16 12 -17 26zM289 1143q0 12 8 22l221 305q18 25 28.5 32t35.5 7h69 q25 0 35 -7t29 -32l221 -305q8 -10 8 -22t-10 -20.5t-27 -8.5h-67q-29 0 -41.5 8t-26.5 31l-156 227l-155 -227q-14 -23 -26.5 -31t-41.5 -8h-67q-17 0 -27 8t-10 21z" />
<glyph unicode="&#x136;" horiz-adv-x="1273" d="M137 61v1270q0 61 62 62h63q33 0 47.5 -15.5t14.5 -46.5v-1270q0 -31 -14.5 -46t-47.5 -15h-63q-62 0 -62 61zM383 -436l4 18l96 303q8 25 19.5 33t40.5 8h78q37 0 36 -22q0 -12 -6 -27l-131 -307q-12 -29 -51 -29h-57q-29 0 -29 23zM410 698q0 27 8 44.5t26 37.5 l527 592q12 14 21 17.5t36 3.5h127q10 0 16.5 -6.5t6.5 -16.5t-11 -24l-577 -648l588 -651q10 -14 10 -24t-6 -16.5t-17 -6.5h-135q-18 0 -28.5 4t-20.5 16l-537 596q-18 23 -26 39.5t-8 42.5z" />
<glyph unicode="&#x137;" horiz-adv-x="1114" d="M137 61v1270q0 61 62 62h63q33 0 47.5 -15.5t14.5 -46.5v-1270q0 -31 -14.5 -46t-47.5 -15h-63q-62 0 -62 61zM354 -436l4 18l97 303q8 25 19 33t40 8h78q37 0 37 -22q0 -12 -6 -27l-131 -307q-12 -29 -52 -29h-57q-29 0 -29 23zM397 518q0 29 8.5 47.5t26.5 34.5 l381 363q14 14 23.5 17t33.5 3h127q10 0 16.5 -7t6.5 -18q0 -14 -10 -22l-439 -418l453 -471q10 -14 10 -24t-6 -16.5t-16 -6.5h-135q-19 0 -29 4t-21 16l-395 416q-18 18 -26.5 37t-8.5 45z" />
<glyph unicode="&#x138;" horiz-adv-x="1097" d="M137 121v801q0 35 17.5 48t60.5 13h47q33 0 47.5 -15.5t14.5 -45.5v-861q0 -35 -17.5 -48t-60.5 -13h-47q-31 0 -44.5 16.5t-15.5 36t-2 68.5zM401 494q0 31 24 63.5t69 77.5l32 37l275 295q10 12 29.5 14t60.5 2h86q14 0 20.5 -8t1.5 -21q-2 -10 -20 -28l-408 -432 l437 -447q12 -12 12 -18l2 -9q0 -20 -27 -20h-135q-24 0 -52 24.5t-75 75.5l-203 215l-28 29q-51 51 -76 83t-25 67z" />
<glyph unicode="&#x139;" horiz-adv-x="1116" d="M137 61v1270q0 61 62 62h63q33 0 47.5 -15.5t14.5 -46.5v-1181h677q33 0 46.5 -13.5t13.5 -46.5v-35q0 -31 -13.5 -43t-46.5 -12h-802q-62 0 -62 61zM168 1530q0 4 4 20l100 279q8 23 19.5 31t40.5 8h104q39 0 39 -25q0 -4 -8 -24l-135 -279q-10 -20 -23.5 -27.5 t-40.5 -7.5h-69q-31 0 -31 25z" />
<glyph unicode="&#x13a;" horiz-adv-x="557" d="M156 61v1270q0 61 61 62h64q33 0 47 -15.5t14 -46.5v-1270q0 -31 -14.5 -46t-46.5 -15h-64q-61 0 -61 61zM172 1569q0 4 4 20l100 279q8 23 19.5 31t40.5 8h104q39 0 39 -25q0 -4 -8 -24l-135 -279q-10 -20 -23.5 -27.5t-40.5 -7.5h-69q-31 0 -31 25z" />
<glyph unicode="&#x13b;" horiz-adv-x="1116" d="M137 61v1270q0 61 62 62h63q33 0 47.5 -15.5t14.5 -46.5v-1181h677q33 0 46.5 -13.5t13.5 -46.5v-35q0 -31 -13.5 -43t-46.5 -12h-802q-62 0 -62 61zM414 -436l4 18l96 303q8 25 19.5 33t39.5 8h78q37 0 37 -22q0 -12 -6 -27l-131 -307q-12 -29 -51 -29h-58q-28 0 -28 23 z" />
<glyph unicode="&#x13c;" horiz-adv-x="555" d="M53 -436l4 18l97 303q8 25 19 33t40 8h78q37 0 37 -22q0 -12 -6 -27l-132 -307q-12 -29 -51 -29h-57q-29 0 -29 23zM158 61v1270q0 61 61 62h64q33 0 47 -15.5t14 -46.5v-1270q0 -31 -14.5 -46t-46.5 -15h-64q-61 0 -61 61z" />
<glyph unicode="&#x13d;" horiz-adv-x="1132" d="M137 61v1270q0 61 62 62h63q33 0 47.5 -15.5t14.5 -46.5v-1181h677q33 0 46.5 -13.5t13.5 -46.5v-35q0 -31 -13.5 -43t-46.5 -12h-802q-62 0 -62 61zM655 1126l4 19l97 303q8 25 19 33t40 8h78q37 0 37 -23q0 -10 -6 -26l-131 -307q-12 -29 -52 -29h-57q-29 -1 -29 22z " />
<glyph unicode="&#x13e;" horiz-adv-x="794" d="M137 61v1270q0 61 62 62h63q33 0 47.5 -15.5t14.5 -46.5v-1270q0 -31 -14.5 -46t-47.5 -15h-63q-62 0 -62 61zM483 1221l4 18l97 303q8 25 19 33t40 8h78q37 0 37 -22q0 -10 -6 -27l-131 -307q-12 -29 -52 -29h-57q-29 0 -29 23z" />
<glyph unicode="&#x13f;" horiz-adv-x="1116" d="M137 61v1270q0 61 62 62h63q33 0 47.5 -15.5t14.5 -46.5v-1181h677q33 0 46.5 -13.5t13.5 -46.5v-35q0 -31 -13.5 -43t-46.5 -12h-802q-62 0 -62 61zM594 662v32q0 35 23.5 60.5t58.5 25.5h35q35 0 58.5 -25.5t23.5 -60.5v-32q0 -37 -22.5 -62t-59.5 -25h-35 q-35 0 -58.5 26t-23.5 61z" />
<glyph unicode="&#x140;" horiz-adv-x="731" d="M137 61v1270q0 61 62 62h63q33 0 47.5 -15.5t14.5 -46.5v-1270q0 -31 -14.5 -46t-47.5 -15h-63q-62 0 -62 61zM498 664v32q0 35 23.5 60.5t58.5 25.5h34q35 0 58.5 -25.5t23.5 -60.5v-32q0 -37 -22.5 -61.5t-59.5 -24.5h-34q-35 0 -58.5 25.5t-23.5 60.5z" />
<glyph unicode="&#x141;" horiz-adv-x="1273" d="M37 537q0 20 24 32l234 133v629q0 31 14.5 46.5t46.5 15.5h62q63 0 63 -62v-522l199 115q16 10 27 10q20 0 34 -27l31 -51q8 -10 8 -22q0 -18 -28 -35l-271 -154v-495h676q33 0 47.5 -13.5t14.5 -46.5v-35q0 -31 -14.5 -43t-47.5 -12h-801q-33 0 -47 15.5t-14 45.5v478 l-160 -93q-20 -10 -31 -10q-16 0 -30 23l-29 49q-8 14 -8 29z" />
<glyph unicode="&#x142;" horiz-adv-x="800" d="M37 553q0 20 24 33l236 135v610q0 61 63 62h62q33 0 47 -15.5t14 -46.5v-504l183 105q16 10 26 10q16 0 35 -27l31 -49q8 -10 8 -22q0 -18 -29 -35l-254 -145v-603q0 -31 -14 -46t-47 -15h-62q-63 0 -63 61v494l-162 -92q-20 -10 -29 -10q-18 0 -32 22l-29 49 q-8 14 -8 29z" />
<glyph unicode="&#x143;" horiz-adv-x="1427" d="M137 61v1270q0 61 64 62h61q25 0 38 -7.5t28 -27.5l776 -1067v1040q0 61 61 62h64q33 0 47 -15.5t14 -46.5v-1270q0 -31 -14 -46t-47 -15h-64q-23 0 -36 7t-27 28l-778 1065v-1039q0 -31 -14.5 -46t-47.5 -15h-63q-62 0 -62 61zM635 1554q0 4 4 21l100 278q8 23 19.5 31 t40.5 8h104q39 0 39 -24q0 -4 -8 -25l-135 -278q-10 -20 -23.5 -27.5t-40.5 -7.5h-69q-31 -1 -31 24z" />
<glyph unicode="&#x144;" horiz-adv-x="1212" d="M137 61v871q0 29 9.5 40t37.5 11h68q45 0 45 -43v-94q145 168 422 168q168 0 267 -87t99 -263v-603q0 -31 -14 -46t-47 -15h-61q-63 0 -64 61v592q0 121 -56.5 170t-180.5 49q-84 0 -163 -31.5t-127 -89t-48 -130.5v-560q0 -31 -14.5 -46t-47.5 -15h-61q-64 0 -64 61z M510 1149q0 4 4 20l100 279q8 23 19.5 31t40.5 8h104q39 0 39 -25q0 -4 -8 -24l-135 -279q-10 -20 -23.5 -27.5t-40.5 -7.5h-69q-31 0 -31 25z" />
<glyph unicode="&#x145;" horiz-adv-x="1427" d="M137 61v1270q0 61 64 62h61q25 0 38 -7.5t28 -27.5l776 -1067v1040q0 61 61 62h64q33 0 47 -15.5t14 -46.5v-1270q0 -31 -14 -46t-47 -15h-64q-23 0 -36 7t-27 28l-778 1065v-1039q0 -31 -14.5 -46t-47.5 -15h-63q-62 0 -62 61zM557 -436l4 18l96 303q8 25 19.5 33 t40.5 8h78q37 0 36 -22q0 -12 -6 -27l-131 -307q-12 -29 -51 -29h-57q-29 0 -29 23z" />
<glyph unicode="&#x146;" horiz-adv-x="1212" d="M137 61v871q0 29 9.5 40t37.5 11h68q45 0 45 -43v-94q145 168 422 168q168 0 267 -87t99 -263v-603q0 -31 -14 -46t-47 -15h-61q-63 0 -64 61v592q0 121 -56.5 170t-180.5 49q-84 0 -163 -31.5t-127 -89t-48 -130.5v-560q0 -31 -14.5 -46t-47.5 -15h-61q-64 0 -64 61z M453 -436l4 18l96 303q8 25 19.5 33t39.5 8h78q37 0 37 -22q0 -12 -6 -27l-131 -307q-12 -29 -51 -29h-58q-28 0 -28 23z" />
<glyph unicode="&#x147;" horiz-adv-x="1427" d="M137 61v1270q0 61 64 62h61q25 0 38 -7.5t28 -27.5l776 -1067v1040q0 61 61 62h64q33 0 47 -15.5t14 -46.5v-1270q0 -31 -14 -46t-47 -15h-64q-23 0 -36 7t-27 28l-778 1065v-1039q0 -31 -14.5 -46t-47.5 -15h-63q-62 0 -62 61zM383 1898q0 20 27 21h82q29 0 39 -6 t24 -27l160 -233l157 233q14 20 24.5 26.5t39.5 6.5h82q29 0 29 -23q0 -12 -13 -28l-221 -305q-18 -25 -28.5 -32t-34.5 -7h-70q-25 0 -35 7t-29 32l-221 305q-12 18 -12 30z" />
<glyph unicode="&#x148;" horiz-adv-x="1218" d="M137 61v871q0 29 9.5 40t37.5 11h68q45 0 45 -43v-94q145 168 422 168q168 0 267 -87t99 -263v-603q0 -31 -14 -46t-47 -15h-61q-63 0 -64 61v592q0 121 -56.5 170t-180.5 49q-84 0 -163 -31.5t-127 -89t-48 -130.5v-560q0 -31 -14.5 -46t-47.5 -15h-61q-64 0 -64 61z M287 1481q0 20 26 20h82q29 0 39 -6t25 -27l159 -233l158 233q14 20 24.5 26.5t39.5 6.5h82q29 0 28 -22q0 -12 -12 -29l-221 -305q-18 -25 -28.5 -32t-35.5 -7h-69q-25 0 -35 7t-29 32l-221 305q-12 18 -12 31z" />
<glyph unicode="&#x149;" horiz-adv-x="1341" d="M35 1126l4 19l96 303q8 25 19.5 33t40.5 8h77q37 0 37 -23q0 -10 -6 -26l-131 -307q-12 -29 -51 -29h-58q-28 -1 -28 22zM266 61v871q0 29 9.5 40t37.5 11h68q45 0 45 -43v-94q145 168 422 168q168 0 267 -87t99 -263v-603q0 -31 -14 -46t-47 -15h-61q-63 0 -64 61v592 q0 121 -56.5 170t-180.5 49q-84 0 -163 -31.5t-127 -89t-48 -130.5v-560q0 -31 -14.5 -46t-47.5 -15h-61q-64 0 -64 61z" />
<glyph unicode="&#x14a;" horiz-adv-x="1427" d="M137 61v1270q0 61 64 62h61q25 0 38 -7.5t28 -27.5l776 -1067v1040q0 61 61 62h64q33 0 47 -15.5t14 -46.5v-1448q0 -184 -103.5 -293.5t-312.5 -109.5q-198 0 -356 90q-16 10 -16 22q0 8 6 21l45 74q8 16 20 16q10 0 21 -8q51 -33 126 -52.5t154 -19.5q119 0 174.5 63.5 t55.5 194.5v150l-780 1069v-1039q0 -31 -14.5 -46t-47.5 -15h-63q-61 0 -62 61z" />
<glyph unicode="&#x14b;" horiz-adv-x="1212" d="M137 61v871q0 29 9.5 40t37.5 11h68q23 0 32 -10t11 -33l2 -94q70 78 179.5 123t242.5 45q168 0 267 -87t99 -263v-854q0 -162 -83.5 -252t-260.5 -90q-84 0 -160.5 21.5t-134.5 61.5q-16 10 -16 25q0 8 6 21l43 69q10 18 21 19q6 0 20 -11q90 -61 197 -61q102 0 142 47 t40 154v839q0 119 -60.5 169t-176.5 50q-80 0 -159 -31.5t-129 -90t-50 -129.5v-560q0 -31 -14.5 -46t-47.5 -15h-61q-63 0 -64 61z" />
<glyph unicode="&#x14c;" horiz-adv-x="1566" d="M96 696q0 344 180.5 535.5t507.5 191.5q326 0 506 -191.5t180 -535.5t-180 -535.5t-506 -191.5q-327 0 -507.5 191.5t-180.5 535.5zM279 696q0 -285 132 -434t373 -149q240 0 372 149.5t132 433.5q0 285 -132 434.5t-372 149.5q-242 0 -373.5 -149.5t-131.5 -434.5z M442 1649v32q0 33 13.5 46.5t46.5 13.5h565q33 0 46 -13.5t13 -46.5v-32q0 -33 -13 -45.5t-46 -12.5h-565q-33 0 -46.5 12.5t-13.5 45.5z" />
<glyph unicode="&#x14d;" horiz-adv-x="1269" d="M96 492q0 242 139.5 382t399.5 140q258 0 398.5 -140.5t140.5 -381.5q0 -242 -140.5 -382.5t-398.5 -140.5q-260 0 -399.5 140.5t-139.5 382.5zM279 492q0 -182 91 -280.5t265 -98.5q172 0 263 97t91 282q0 182 -90 279t-264 97t-265 -97t-91 -279zM293 1243v33 q0 33 13 46t46 13h566q33 0 46 -13t13 -46v-33q0 -33 -13.5 -45t-45.5 -12h-566q-33 0 -46 12t-13 45z" />
<glyph unicode="&#x14e;" horiz-adv-x="1566" d="M96 696q0 344 180.5 535.5t507.5 191.5q326 0 506 -191.5t180 -535.5t-180 -535.5t-506 -191.5q-327 0 -507.5 191.5t-180.5 535.5zM279 696q0 -285 132 -434t373 -149q240 0 372 149.5t132 433.5q0 285 -132 434.5t-372 149.5q-242 0 -373.5 -149.5t-131.5 -434.5z M471 1860q0 16 9 26t24 10h92q20 0 27.5 -9t7.5 -29q0 -86 32.5 -133.5t120.5 -47.5t121 47.5t33 133.5q0 20 7 29t28 9h92q14 0 23.5 -10t9.5 -26q0 -147 -80 -235.5t-234 -88.5q-155 0 -234 88t-79 236z" />
<glyph unicode="&#x14f;" horiz-adv-x="1269" d="M96 492q0 242 139.5 382t399.5 140q258 0 398.5 -140.5t140.5 -381.5q0 -242 -140.5 -382.5t-398.5 -140.5q-260 0 -399.5 140.5t-139.5 382.5zM279 492q0 -182 91 -280.5t265 -98.5q172 0 263 97t91 282q0 182 -90 279t-264 97t-265 -97t-91 -279zM324 1446q0 16 9 26.5 t23 10.5h93q20 0 27 -9.5t7 -29.5q0 -86 33 -133t121 -47t121 47t33 133q0 20 7 29.5t27 9.5h93q14 0 23 -10.5t9 -26.5q0 -147 -79.5 -235.5t-233.5 -88.5q-156 0 -234.5 88t-78.5 236z" />
<glyph unicode="&#x150;" horiz-adv-x="1566" d="M96 696q0 344 180.5 535.5t507.5 191.5q326 0 506 -191.5t180 -535.5t-180 -535.5t-506 -191.5q-327 0 -507.5 191.5t-180.5 535.5zM279 696q0 -285 132 -434t373 -149q240 0 372 149.5t132 433.5q0 285 -132 434.5t-372 149.5q-242 0 -373.5 -149.5t-131.5 -434.5z M508 1559q0 8 6 20l139 279q12 23 22.5 30.5t39.5 7.5h94q39 0 39 -24q0 -10 -8 -25l-174 -278q-14 -20 -25.5 -27.5t-38.5 -7.5h-59q-17 0 -26 7t-9 18zM874 1559q0 12 5 20l139 279q12 23 22.5 30.5t38.5 7.5h95q18 0 29 -7t11 -19t-8 -23l-176 -278q-14 -20 -25.5 -27.5 t-37.5 -7.5h-60q-33 0 -33 25z" />
<glyph unicode="&#x151;" horiz-adv-x="1269" d="M96 492q0 242 139.5 382t399.5 140q258 0 398.5 -140.5t140.5 -381.5q0 -242 -140.5 -382.5t-398.5 -140.5q-260 0 -399.5 140.5t-139.5 382.5zM279 492q0 -182 91 -280.5t265 -98.5q172 0 263 97t91 282q0 182 -90 279t-264 97t-265 -97t-91 -279zM330 1141q0 8 6 20 l139 279q12 23 22.5 31t39.5 8h94q39 0 39 -25q0 -10 -8 -24l-175 -279q-14 -20 -25 -27.5t-38 -7.5h-59q-17 0 -26 7t-9 18zM696 1141q0 12 4 20l140 279q12 23 22 31t39 8h94q18 0 29.5 -7.5t11.5 -19.5t-8 -22l-176 -279q-14 -20 -25.5 -27.5t-38.5 -7.5h-59 q-33 0 -33 25z" />
<glyph unicode="&#x152;" horiz-adv-x="2359" d="M96 696q0 344 180.5 535.5t507.5 191.5q168 0 302.5 -59t203.5 -172v139q0 61 62 62h852q33 0 46 -12.5t13 -43.5v-34q0 -33 -13.5 -46.5t-45.5 -13.5h-727v-471h546q33 0 47.5 -13.5t14.5 -43.5v-33q0 -31 -14.5 -45t-47.5 -14h-546v-473h727q33 0 46 -13.5t13 -46.5 v-35q0 -31 -13.5 -43t-45.5 -12h-852q-61 0 -62 61v146q-74 -119 -206 -178.5t-300 -59.5q-327 0 -507.5 191.5t-180.5 535.5zM279 696q0 -285 132 -434t373 -149q240 0 372 149.5t132 433.5q0 285 -132 434.5t-372 149.5q-242 0 -373.5 -149.5t-131.5 -434.5z" />
<glyph unicode="&#x153;" horiz-adv-x="2125" d="M96 492q0 242 139.5 382t399.5 140q156 0 275.5 -64.5t170.5 -175.5q51 113 170 176.5t273 63.5q252 0 379 -132t127 -393q0 -55 -54 -55h-805q0 -162 106.5 -246t295.5 -84q178 0 307 80q12 6 18 6q12 0 19 -14l39 -67q4 -6 4 -17q0 -14 -16 -24q-82 -51 -175.5 -75 t-214.5 -24q-150 0 -284.5 65.5t-188.5 176.5q-51 -109 -172 -175.5t-274 -66.5q-260 0 -399.5 140.5t-139.5 382.5zM279 492q0 -182 91 -280.5t265 -98.5q172 0 263 97t91 282q0 182 -90 279t-264 97t-265 -97t-91 -279zM1171 559h687q0 154 -84 239t-250 85 q-170 0 -261.5 -88t-91.5 -236z" />
<glyph unicode="&#x154;" horiz-adv-x="1296" d="M137 61v1270q0 61 62 62h549q213 0 332.5 -106.5t119.5 -313.5q0 -143 -73.5 -244.5t-211.5 -148.5l240 -537q4 -12 4 -18q0 -25 -31 -25h-108q-23 0 -34 7t-19 30l-228 520h-415v-496q0 -31 -14.5 -46t-47.5 -15h-63q-62 0 -62 61zM324 705h368q168 0 246 62t78 206 q0 141 -68.5 205.5t-214.5 64.5h-409v-538zM510 1554q0 4 4 21l100 278q8 23 19.5 31t40.5 8h104q39 0 39 -24q0 -4 -8 -25l-135 -278q-10 -20 -23.5 -27.5t-40.5 -7.5h-69q-31 -1 -31 24z" />
<glyph unicode="&#x155;" horiz-adv-x="806" d="M137 61v871q0 29 9.5 40t37.5 11h68q23 0 32 -10t11 -33l2 -82q55 74 138 115t192 41q76 0 110 -23q18 -12 13 -30l-23 -91q-6 -25 -31 -14q-41 18 -102 18q-117 0 -193.5 -65.5t-76.5 -181.5v-566q0 -31 -14.5 -46t-47.5 -15h-61q-64 0 -64 61zM328 1149q0 4 4 20 l100 279q8 23 19.5 31t40.5 8h104q39 0 39 -25q0 -4 -8 -24l-135 -279q-10 -20 -23.5 -27.5t-40.5 -7.5h-70q-30 0 -30 25z" />
<glyph unicode="&#x156;" horiz-adv-x="1296" d="M137 61v1270q0 61 62 62h549q213 0 332.5 -106.5t119.5 -313.5q0 -143 -73.5 -244.5t-211.5 -148.5l240 -537q4 -12 4 -18q0 -25 -31 -25h-108q-23 0 -34 7t-19 30l-228 520h-415v-496q0 -31 -14.5 -46t-47.5 -15h-63q-62 0 -62 61zM324 705h368q168 0 246 62t78 206 q0 141 -68.5 205.5t-214.5 64.5h-409v-538zM457 -436l4 18l96 303q8 25 19.5 33t39.5 8h78q37 0 37 -22q0 -12 -6 -27l-131 -307q-12 -29 -51 -29h-58q-28 0 -28 23z" />
<glyph unicode="&#x157;" horiz-adv-x="811" d="M66 -436l4 18l96 303q8 25 19.5 33t39.5 8h78q37 0 37 -22q0 -12 -6 -27l-131 -307q-12 -29 -51 -29h-58q-28 0 -28 23zM141 61v871q0 29 9.5 40t37.5 11h68q23 0 32 -10t11 -33l2 -82q55 74 138 115t192 41q76 0 110 -23q18 -12 13 -30l-23 -91q-6 -25 -31 -14 q-41 18 -102 18q-117 0 -193.5 -65.5t-76.5 -181.5v-566q0 -31 -14.5 -46t-47.5 -15h-61q-64 0 -64 61z" />
<glyph unicode="&#x158;" horiz-adv-x="1296" d="M137 61v1270q0 61 62 62h549q213 0 332.5 -106.5t119.5 -313.5q0 -143 -73.5 -244.5t-211.5 -148.5l240 -537q4 -12 4 -18q0 -25 -31 -25h-108q-23 0 -34 7t-19 30l-228 520h-415v-496q0 -31 -14.5 -46t-47.5 -15h-63q-62 0 -62 61zM272 1898q0 20 27 21h82q29 0 39 -6 t24 -27l160 -233l158 233q14 20 24.5 26.5t38.5 6.5h82q29 0 29 -23q0 -12 -12 -28l-222 -305q-18 -25 -28 -32t-35 -7h-70q-24 0 -34.5 7t-28.5 32l-221 305q-12 18 -13 30zM324 705h368q168 0 246 62t78 206q0 141 -68.5 205.5t-214.5 64.5h-409v-538z" />
<glyph unicode="&#x159;" horiz-adv-x="815" d="M90 1485q0 20 27 20h82q29 0 39 -6t24 -26l160 -234l158 234q14 20 24 26t39 6h82q29 0 29 -22q0 -12 -13 -29l-221 -305q-18 -25 -28.5 -32t-34.5 -7h-70q-25 0 -35 7t-28 32l-222 305q-12 18 -12 31zM139 61v871q0 29 9.5 40t37.5 11h68q23 0 32 -10t11 -33l2 -82 q55 74 138 115t192 41q76 0 110 -23q18 -12 13 -30l-23 -91q-6 -25 -31 -14q-41 18 -102 18q-117 0 -193.5 -65.5t-76.5 -181.5v-566q0 -31 -14.5 -46t-47.5 -15h-61q-64 0 -64 61z" />
<glyph unicode="&#x15a;" horiz-adv-x="1189" d="M100 109q0 6 6 18l48 78q8 14 18 14t21 -8q74 -47 177 -72.5t214 -25.5q162 0 243.5 54t81.5 177q0 78 -32.5 125t-100 81t-219.5 89q-133 49 -217 93t-142.5 121t-58.5 196q0 174 134.5 274t344.5 100q258 0 418 -102q20 -14 21 -27q0 -8 -6 -18l-47 -78 q-10 -16 -19 -16q-6 0 -20 10q-131 88 -347 88q-137 0 -216.5 -57.5t-79.5 -175.5q0 -74 28.5 -117t81.5 -71t172 -73l84 -32q147 -57 229 -105.5t129.5 -122t47.5 -188.5q0 -172 -129 -270.5t-365 -98.5q-133 0 -266 30t-213 83q-20 12 -21 27zM543 1554q0 4 4 21l100 278 q8 23 19.5 31t40.5 8h104q39 0 39 -24q0 -4 -8 -25l-135 -278q-10 -20 -23.5 -27.5t-40.5 -7.5h-70q-30 -1 -30 24z" />
<glyph unicode="&#x15b;" horiz-adv-x="1052" d="M98 94q0 6 6 19l43 73q10 16 19 17q2 0 18 -8q63 -41 151.5 -65t174.5 -24q135 0 198.5 32t63.5 108q0 49 -25.5 78.5t-84 53t-185.5 60.5q-117 35 -186.5 70t-110.5 91t-41 142q0 135 109.5 204t288.5 69q115 0 213 -25.5t165 -70.5q20 -12 21 -27q0 -6 -6 -19l-41 -67 q-8 -14 -17 -14q-10 0 -20 8q-121 78 -299 78q-123 0 -178.5 -31t-55.5 -109q0 -49 28 -78.5t75 -49t145 -48.5l80 -24q119 -37 185.5 -76t95 -90.5t28.5 -128.5q0 -123 -106.5 -198t-310.5 -75q-115 0 -228.5 24.5t-191.5 76.5q-20 12 -21 24zM467 1141q0 4 4 20l100 279 q8 23 19.5 31t40.5 8h104q39 0 39 -25q0 -4 -8 -24l-135 -279q-10 -20 -23.5 -27.5t-40.5 -7.5h-69q-31 0 -31 25z" />
<glyph unicode="&#x15c;" horiz-adv-x="1189" d="M100 109q0 6 6 18l48 78q8 14 18 14t21 -8q74 -47 177 -72.5t214 -25.5q162 0 243.5 54t81.5 177q0 78 -32.5 125t-100 81t-219.5 89q-133 49 -217 93t-142.5 121t-58.5 196q0 174 134.5 274t344.5 100q258 0 418 -102q20 -14 21 -27q0 -8 -6 -18l-47 -78 q-10 -16 -19 -16q-6 0 -20 10q-131 88 -347 88q-137 0 -216.5 -57.5t-79.5 -175.5q0 -74 28.5 -117t81.5 -71t172 -73l84 -32q147 -57 229 -105.5t129.5 -122t47.5 -188.5q0 -172 -129 -270.5t-365 -98.5q-133 0 -266 30t-213 83q-20 12 -21 27zM283 1548q0 12 8 23l221 305 q18 25 28.5 32t34.5 7h70q25 0 35 -7t29 -32l221 -305q8 -10 8 -23q0 -12 -10 -20t-27 -8h-67q-29 0 -41.5 8t-26.5 31l-156 227l-155 -227q-14 -23 -26.5 -31t-41.5 -8h-68q-16 0 -26 8t-10 20z" />
<glyph unicode="&#x15d;" horiz-adv-x="1052" d="M98 94q0 6 6 19l43 73q10 16 19 17q2 0 18 -8q63 -41 151.5 -65t174.5 -24q135 0 198.5 32t63.5 108q0 49 -25.5 78.5t-84 53t-185.5 60.5q-117 35 -186.5 70t-110.5 91t-41 142q0 135 109.5 204t288.5 69q115 0 213 -25.5t165 -70.5q20 -12 21 -27q0 -6 -6 -19l-41 -67 q-8 -14 -17 -14q-10 0 -20 8q-121 78 -299 78q-123 0 -178.5 -31t-55.5 -109q0 -49 28 -78.5t75 -49t145 -48.5l80 -24q119 -37 185.5 -76t95 -90.5t28.5 -128.5q0 -123 -106.5 -198t-310.5 -75q-115 0 -228.5 24.5t-191.5 76.5q-20 12 -21 24zM207 1135q0 12 8 22l221 305 q18 25 28.5 32t35.5 7h69q25 0 35 -7t29 -32l221 -305q8 -10 8 -22t-10 -20.5t-27 -8.5h-67q-29 0 -41 8t-27 31l-155 227l-156 -227q-14 -23 -26.5 -31t-41.5 -8h-67q-17 0 -27 8t-10 21z" />
<glyph unicode="&#x15e;" horiz-adv-x="1189" d="M100 109q0 6 6 18l48 78q8 14 18 14t21 -8q74 -47 177 -72.5t214 -25.5q162 0 243.5 54t81.5 177q0 78 -32.5 125t-100 81t-219.5 89q-133 49 -217 93t-142.5 121t-58.5 196q0 174 134.5 274t344.5 100q258 0 418 -102q20 -14 21 -27q0 -8 -6 -18l-47 -78 q-10 -16 -19 -16q-6 0 -20 10q-131 88 -347 88q-137 0 -216.5 -57.5t-79.5 -175.5q0 -74 28.5 -117t81.5 -71t172 -73l84 -32q147 -57 229 -105.5t129.5 -122t47.5 -188.5q0 -152 -100.5 -247t-284.5 -116l-47 -100q72 -4 112.5 -42t40.5 -109q0 -78 -55 -121t-154 -43 q-41 0 -83 9t-68 23q-18 10 -22.5 16.5t1.5 20.5l23 54q6 16 18 16q2 0 19 -8q37 -23 98 -23q47 0 66.5 15.5t19.5 52.5q0 45 -31 59.5t-102 14.5h-29q-16 0 -21.5 9t1.5 23l51 129q-123 4 -238.5 33t-187.5 78q-20 12 -21 27z" />
<glyph unicode="&#x15f;" horiz-adv-x="1052" d="M98 94q0 6 6 19l43 73q10 16 19 17q2 0 18 -8q63 -41 151.5 -65t174.5 -24q135 0 198.5 32t63.5 108q0 49 -25.5 78.5t-84 53t-185.5 60.5q-117 35 -186.5 70t-110.5 91t-41 142q0 135 109.5 204t288.5 69q115 0 213 -25.5t165 -70.5q20 -12 21 -27q0 -6 -6 -19l-41 -67 q-8 -14 -17 -14q-10 0 -20 8q-121 78 -299 78q-123 0 -178.5 -31t-55.5 -109q0 -49 28 -78.5t75 -49t145 -48.5l80 -24q119 -37 185.5 -76t95 -90.5t28.5 -128.5q0 -107 -82.5 -179.5t-242.5 -89.5l-45 -98q72 -4 112.5 -42t40.5 -109q0 -78 -55 -121t-154 -43 q-41 0 -82.5 9t-68.5 23q-18 10 -22.5 16.5t1.5 20.5l23 54q6 16 18 16q2 0 19 -8q37 -23 98 -23q47 0 66.5 15.5t19.5 52.5q0 45 -30.5 59.5t-102.5 14.5h-29q-16 0 -21 9t1 23l51 129q-225 14 -352 99q-20 12 -21 24z" />
<glyph unicode="&#x160;" horiz-adv-x="1189" d="M100 109q0 6 6 18l48 78q8 14 18 14t21 -8q74 -47 177 -72.5t214 -25.5q162 0 243.5 54t81.5 177q0 78 -32.5 125t-100 81t-219.5 89q-133 49 -217 93t-142.5 121t-58.5 196q0 174 134.5 274t344.5 100q258 0 418 -102q20 -14 21 -27q0 -8 -6 -18l-47 -78 q-10 -16 -19 -16q-6 0 -20 10q-131 88 -347 88q-137 0 -216.5 -57.5t-79.5 -175.5q0 -74 28.5 -117t81.5 -71t172 -73l84 -32q147 -57 229 -105.5t129.5 -122t47.5 -188.5q0 -172 -129 -270.5t-365 -98.5q-133 0 -266 30t-213 83q-20 12 -21 27zM283 1923q0 20 26 21h82 q29 0 39 -6.5t25 -26.5l159 -234l158 234q14 20 24.5 26.5t39.5 6.5h82q29 0 28 -23q0 -12 -12 -29l-221 -305q-18 -25 -28.5 -32t-35.5 -7h-69q-25 0 -35 7.5t-29 31.5l-221 305q-12 18 -12 31z" />
<glyph unicode="&#x161;" horiz-adv-x="1052" d="M98 94q0 6 6 19l43 73q10 16 19 17q2 0 18 -8q63 -41 151.5 -65t174.5 -24q135 0 198.5 32t63.5 108q0 49 -25.5 78.5t-84 53t-185.5 60.5q-117 35 -186.5 70t-110.5 91t-41 142q0 135 109.5 204t288.5 69q115 0 213 -25.5t165 -70.5q20 -12 21 -27q0 -6 -6 -19l-41 -67 q-8 -14 -17 -14q-10 0 -20 8q-121 78 -299 78q-123 0 -178.5 -31t-55.5 -109q0 -49 28 -78.5t75 -49t145 -48.5l80 -24q119 -37 185.5 -76t95 -90.5t28.5 -128.5q0 -123 -106.5 -198t-310.5 -75q-115 0 -228.5 24.5t-191.5 76.5q-20 12 -21 24zM209 1481q0 20 27 20h81 q29 0 39.5 -6t24.5 -27l160 -233l157 233q14 20 24.5 26.5t39.5 6.5h82q29 0 28 -22q0 -12 -12 -29l-221 -305q-18 -25 -28.5 -32t-35.5 -7h-69q-25 0 -35 7t-29 32l-221 305q-12 18 -12 31z" />
<glyph unicode="&#x162;" horiz-adv-x="1175" d="M55 1298v35q0 31 13.5 45.5t46.5 14.5h944q33 0 47 -14.5t14 -45.5v-35q0 -31 -14 -43t-47 -12h-379v-1182q0 -27 -8 -36q0 -12 -4 -19l-47 -102q74 -4 113.5 -41t39.5 -111q0 -78 -55 -121t-156 -43q-43 0 -83 9.5t-66 23.5q-16 10 -20.5 18.5t-0.5 18.5l23 53 q6 16 18 17q2 0 19 -9q41 -23 96 -22q47 0 66.5 15.5t19.5 51.5q0 45 -31 59.5t-100 14.5h-29q-16 0 -21 9.5t1 23.5l55 139v1t2 1q-18 16 -18 49v1182h-379q-33 0 -46.5 12.5t-13.5 42.5z" />
<glyph unicode="&#x163;" horiz-adv-x="911" d="M55 887v43q0 31 10.5 42t43.5 11h133v143q0 39 11 70t40 86q10 16 18 22.5t27 6.5h41q27 0 38 -13.5t11 -40.5v-274h281q33 0 43 -11t10 -42v-43q0 -31 -10.5 -40t-42.5 -9h-281v-521q0 -109 38 -156.5t130 -47.5q51 0 90 13t82 42q12 6 18 6q10 0 19 -14l43 -70 q6 -12 6 -20q0 -14 -16 -25q-88 -59 -205 -72l-4 -16l-47 -102q74 -4 113.5 -41t39.5 -111q0 -78 -55 -121t-156 -43q-43 0 -83 9.5t-66 23.5q-16 10 -20.5 18.5t-0.5 18.5l23 53q6 16 18 16q2 0 19 -8q41 -23 96 -22q47 0 66.5 15t19.5 52q0 45 -30.5 59.5t-100.5 14.5h-29 q-16 0 -21 9t1 24l55 139q4 12 8 16q-121 23 -179 110t-58 224v527h-133q-33 0 -43.5 9t-10.5 40z" />
<glyph unicode="&#x164;" horiz-adv-x="1175" d="M55 1298v35q0 31 13.5 45.5t46.5 14.5h944q33 0 47 -14.5t14 -45.5v-35q0 -31 -14 -43t-47 -12h-379v-1182q0 -31 -14.5 -46t-47.5 -15h-61q-63 0 -63 61v1182h-379q-33 0 -46.5 12.5t-13.5 42.5zM258 1898q0 20 27 21h82q29 0 39 -6t24 -27l160 -233l158 233 q14 20 24 26.5t39 6.5h82q29 0 29 -23q0 -12 -13 -28l-221 -305q-18 -25 -28.5 -32t-34.5 -7h-70q-25 0 -35 7t-28 32l-222 305q-12 18 -12 30z" />
<glyph unicode="&#x165;" horiz-adv-x="956" d="M55 887v43q0 31 10.5 42t43.5 11h133v143q0 39 11 70t40 86q10 16 18 22.5t27 6.5h41q27 0 38 -13.5t11 -40.5v-274h281q33 0 43 -11t10 -42v-43q0 -31 -10.5 -40t-42.5 -9h-281v-521q0 -109 38 -156.5t130 -47.5q51 0 90 13t82 42q12 6 18 6q10 0 19 -14l43 -70 q6 -12 6 -20q0 -14 -16 -25q-109 -76 -273 -76t-243.5 91.5t-79.5 250.5v527h-133q-33 0 -43.5 9t-10.5 40zM618 1292l5 19l96 303q8 25 19.5 33t39.5 8h78q37 0 37 -23q0 -10 -6 -26l-131 -308q-12 -29 -51 -28h-58q-29 -1 -29 22z" />
<glyph unicode="&#x166;" horiz-adv-x="1175" d="M55 1298v35q0 31 13.5 45.5t46.5 14.5h944q33 0 47 -14.5t14 -45.5v-35q0 -31 -14 -43t-47 -12h-379v-381h188q33 0 47.5 -13t14.5 -46v-33q0 -31 -14.5 -44t-47.5 -13h-188v-652q0 -31 -14.5 -46t-47.5 -15h-61q-63 0 -63 61v652h-191q-33 0 -46 12t-13 45v33 q0 33 13 46t46 13h191v381h-379q-33 0 -46.5 12.5t-13.5 42.5z" />
<glyph unicode="&#x167;" horiz-adv-x="919" d="M63 893v31q0 31 13.5 45t46.5 14h127v143q0 39 11 70t40 86q10 16 18.5 22.5t26.5 6.5h41q27 0 38 -13.5t11 -40.5v-274h275q33 0 46 -14.5t13 -44.5v-31q0 -31 -13.5 -43t-45.5 -12h-275v-207h269q29 0 41 -11.5t12 -39.5v-33q0 -29 -11.5 -38t-41.5 -9h-269v-183 q0 -104 39 -154t129 -50q51 0 90 13t82 42q12 6 19 6q10 0 18 -14l43 -70q6 -12 6 -20q0 -14 -16 -25q-109 -76 -273 -76q-163 0 -243 91.5t-80 250.5v189h-119q-29 0 -41 9t-12 38v33q0 29 12 40t41 11h119v207h-127q-33 0 -46.5 12t-13.5 43z" />
<glyph unicode="&#x168;" horiz-adv-x="1466" d="M127 487v844q0 61 61 62h64q33 0 47 -15.5t14 -46.5v-852q0 -170 111 -268t309 -98q199 0 309.5 98t110.5 268v852q0 31 14.5 46.5t46.5 15.5h62q63 0 63 -62v-844q0 -158 -76.5 -275.5t-214 -180t-315.5 -62.5t-315 62.5t-214 180.5t-77 275zM285 1653q0 18 20 43 q43 51 90 80.5t113 29.5q59 0 108.5 -15t110.5 -44q49 -25 86 -37t78 -12q43 0 70.5 16.5t62.5 61.5q16 23 37 22q20 0 51 -24q35 -27 35 -52q0 -14 -17 -41q-47 -70 -100 -100.5t-139 -30.5q-49 0 -95 15.5t-114 44.5q-55 25 -93 38t-73 13q-41 0 -63.5 -13.5t-57.5 -52.5 q-14 -16 -33 -16q-25 0 -55 31q-23 23 -22 43z" />
<glyph unicode="&#x169;" horiz-adv-x="1196" d="M127 336v586q0 61 61 61h64q33 0 47 -15.5t14 -45.5v-584q0 -119 62.5 -173t185.5 -54q131 0 221 71.5t90 184.5v555q0 61 64 61h61q33 0 47.5 -15.5t14.5 -45.5v-871q0 -29 -9.5 -40t-35.5 -11h-68q-23 0 -31 10t-10 33l-6 98q-70 -84 -165 -128t-232 -44 q-168 0 -271.5 93.5t-103.5 273.5zM162 1247q0 18 20 43q43 51 90 81t113 30q59 0 108.5 -15.5t110.5 -44.5q49 -25 86 -37t78 -12q43 0 70.5 16.5t62.5 61.5q16 23 37 23q20 0 51 -25q35 -27 35 -51q0 -14 -16 -41q-47 -70 -100.5 -100.5t-139.5 -30.5q-49 0 -95 15.5 t-114 43.5q-55 25 -93 38t-73 13q-41 0 -63.5 -13t-57.5 -52q-14 -16 -32 -16q-25 0 -56 30q-23 23 -22 43z" />
<glyph unicode="&#x16a;" horiz-adv-x="1466" d="M127 487v844q0 61 61 62h64q33 0 47 -15.5t14 -46.5v-852q0 -170 111 -268t309 -98q199 0 309.5 98t110.5 268v852q0 31 14.5 46.5t46.5 15.5h62q63 0 63 -62v-844q0 -158 -76.5 -275.5t-214 -180t-315.5 -62.5t-315 62.5t-214 180.5t-77 275zM395 1649v32 q0 33 13.5 46.5t46.5 13.5h565q33 0 46 -13.5t13 -46.5v-32q0 -33 -13 -45.5t-46 -12.5h-565q-33 0 -46.5 12.5t-13.5 45.5z" />
<glyph unicode="&#x16b;" horiz-adv-x="1196" d="M127 336v586q0 61 61 61h64q33 0 47 -15.5t14 -45.5v-584q0 -119 62.5 -173t185.5 -54q131 0 221 71.5t90 184.5v555q0 61 64 61h61q33 0 47.5 -15.5t14.5 -45.5v-871q0 -29 -9.5 -40t-35.5 -11h-68q-23 0 -31 10t-10 33l-6 98q-70 -84 -165 -128t-232 -44 q-168 0 -271.5 93.5t-103.5 273.5zM240 1243v33q0 33 13 46t46 13h565q33 0 46.5 -13t13.5 -46v-33q0 -33 -13.5 -45t-46.5 -12h-565q-33 0 -46 12t-13 45z" />
<glyph unicode="&#x16c;" horiz-adv-x="1466" d="M127 487v844q0 61 61 62h64q33 0 47 -15.5t14 -46.5v-852q0 -170 111 -268t309 -98q199 0 309.5 98t110.5 268v852q0 31 14.5 46.5t46.5 15.5h62q63 0 63 -62v-844q0 -158 -76.5 -275.5t-214 -180t-315.5 -62.5t-315 62.5t-214 180.5t-77 275zM422 1860q0 16 9 26t24 10 h92q20 0 27.5 -9t7.5 -29q0 -86 32.5 -133.5t120.5 -47.5t121 47.5t33 133.5q0 20 7 29t28 9h92q14 0 23.5 -10t9.5 -26q0 -147 -80 -235.5t-234 -88.5q-155 0 -234 88t-79 236z" />
<glyph unicode="&#x16d;" horiz-adv-x="1196" d="M127 336v586q0 61 61 61h64q33 0 47 -15.5t14 -45.5v-584q0 -119 62.5 -173t185.5 -54q131 0 221 71.5t90 184.5v555q0 61 64 61h61q33 0 47.5 -15.5t14.5 -45.5v-871q0 -29 -9.5 -40t-35.5 -11h-68q-23 0 -31 10t-10 33l-6 98q-70 -84 -165 -128t-232 -44 q-168 0 -271.5 93.5t-103.5 273.5zM274 1446q0 16 9.5 26.5t23.5 10.5h92q20 0 27.5 -9.5t7.5 -29.5q0 -86 33 -133t121 -47t120.5 47t32.5 133q0 20 7.5 29.5t27.5 9.5h92q14 0 23.5 -10.5t9.5 -26.5q0 -147 -80 -235.5t-233 -88.5q-156 0 -235 88t-79 236z" />
<glyph unicode="&#x16e;" horiz-adv-x="1466" d="M127 487v844q0 61 61 62h64q33 0 47 -15.5t14 -46.5v-852q0 -170 111 -268t309 -98q199 0 309.5 98t110.5 268v852q0 31 14.5 46.5t46.5 15.5h62q63 0 63 -62v-844q0 -158 -76.5 -275.5t-214 -180t-315.5 -62.5t-315 62.5t-214 180.5t-77 275zM506 1716q0 96 67.5 165 t163.5 69t165 -69t69 -165t-68.5 -163.5t-165.5 -67.5q-96 0 -163.5 67.5t-67.5 163.5zM612 1716q0 -51 37 -88t88 -37q54 0 89.5 37t35.5 88q0 53 -35.5 89t-89.5 36q-51 0 -88 -36t-37 -89z" />
<glyph unicode="&#x16f;" horiz-adv-x="1196" d="M127 336v586q0 61 61 61h64q33 0 47 -15.5t14 -45.5v-584q0 -119 62.5 -173t185.5 -54q131 0 221 71.5t90 184.5v555q0 61 64 61h61q33 0 47.5 -15.5t14.5 -45.5v-871q0 -29 -9.5 -40t-35.5 -11h-68q-23 0 -31 10t-10 33l-6 98q-70 -84 -165 -128t-232 -44 q-168 0 -271.5 93.5t-103.5 273.5zM358 1343q0 96 68 165t164 69t164.5 -68.5t68.5 -165.5q0 -96 -68.5 -163.5t-164.5 -67.5t-164 67.5t-68 163.5zM465 1343q0 -51 37 -87.5t88 -36.5q53 0 89 36.5t36 87.5q0 53 -36 89t-89 36q-51 0 -88 -35.5t-37 -89.5z" />
<glyph unicode="&#x170;" horiz-adv-x="1466" d="M127 487v844q0 61 61 62h64q33 0 47 -15.5t14 -46.5v-852q0 -170 111 -268t309 -98q199 0 309.5 98t110.5 268v852q0 31 14.5 46.5t46.5 15.5h62q63 0 63 -62v-844q0 -158 -76.5 -275.5t-214 -180t-315.5 -62.5t-315 62.5t-214 180.5t-77 275zM440 1559q0 8 6 20l140 279 q12 23 22 30.5t39 7.5h94q39 0 39 -24q0 -10 -8 -25l-174 -278q-14 -20 -25.5 -27.5t-37.5 -7.5h-60q-16 0 -25.5 7t-9.5 18zM807 1559q0 12 4 20l139 279q12 23 22.5 30.5t39.5 7.5h94q18 0 29.5 -7t11.5 -19t-8 -23l-176 -278q-14 -20 -25.5 -27.5t-38.5 -7.5h-59 q-33 0 -33 25z" />
<glyph unicode="&#x171;" horiz-adv-x="1196" d="M127 336v586q0 61 61 61h64q33 0 47 -15.5t14 -45.5v-584q0 -119 62.5 -173t185.5 -54q131 0 221 71.5t90 184.5v555q0 61 64 61h61q33 0 47.5 -15.5t14.5 -45.5v-871q0 -29 -9.5 -40t-35.5 -11h-68q-23 0 -31 10t-10 33l-6 98q-70 -84 -165 -128t-232 -44 q-168 0 -271.5 93.5t-103.5 273.5zM289 1145q0 8 6 20l139 279q12 23 22.5 31t39.5 8h94q39 0 39 -25q0 -10 -8 -24l-175 -279q-14 -20 -25 -27.5t-38 -7.5h-59q-17 0 -26 7.5t-9 17.5zM655 1145q0 12 4 20l140 279q12 23 22 31t39 8h94q18 0 29.5 -7.5t11.5 -19.5t-8 -22 l-176 -279q-14 -20 -25.5 -27.5t-37.5 -7.5h-60q-33 0 -33 25z" />
<glyph unicode="&#x172;" horiz-adv-x="1466" d="M127 487v844q0 61 61 62h64q33 0 47 -15.5t14 -46.5v-852q0 -170 111 -268t309 -98q199 0 309.5 98t110.5 268v852q0 31 14.5 46.5t46.5 15.5h62q63 -1 63 -62v-844q0 -213 -136 -349t-363 -163q0 -8 -6 -14q-70 -84 -94.5 -132t-24.5 -93q0 -55 49 -55q29 0 45 8 q12 4 14 4q8 0 15 -15l26 -55q2 -4 2 -12q0 -12 -22 -23q-39 -20 -125 -20q-80 0 -122 42t-42 105q0 57 29.5 116.5t95.5 135.5l2 4q-164 8 -290 73t-195.5 178.5t-69.5 264.5z" />
<glyph unicode="&#x173;" horiz-adv-x="1200" d="M127 336v586q0 61 61 61h64q33 0 47 -15.5t14 -45.5v-584q0 -119 62.5 -173t185.5 -54q131 0 221 71.5t90 184.5v555q0 61 64 61h61q33 0 47.5 -15.5t14.5 -45.5v-871q0 -23 -5 -34t-22 -15l-2 -4q-70 -84 -94.5 -132t-24.5 -93q0 -55 50 -56q29 0 45 9q12 4 14 4 q8 0 14 -15l27 -55q2 -4 2 -12q0 -12 -23 -23q-39 -20 -125 -20q-80 0 -121.5 42t-41.5 105q0 57 29.5 116.5t95.5 135.5q16 20 30 25q-2 4 -2 14l-6 98q-70 -84 -165 -128t-232 -44q-168 0 -271.5 93.5t-103.5 273.5z" />
<glyph unicode="&#x174;" horiz-adv-x="1810" d="M98 1364q0 29 33 29h107q27 0 37 -8.5t14 -30.5l246 -1039l286 936q6 20 16.5 27.5t30.5 7.5h72q20 0 30.5 -7t16.5 -28l289 -936l244 1039q4 20 15 29.5t38 9.5h106q41 0 31 -43l-332 -1307q-6 -25 -18 -34t-35 -9h-74q-25 0 -36 9t-19 34l-291 961l-291 -961 q-8 -25 -20 -34t-35 -9h-74q-24 0 -36.5 9t-18.5 34l-330 1307q-2 6 -2 14zM578 1548q0 12 8 23l221 305q18 25 28.5 32t34.5 7h70q25 0 35 -7t29 -32l221 -305q8 -10 8 -23q0 -12 -10.5 -20t-26.5 -8h-68q-29 0 -41 8t-26 31l-156 227l-155 -227q-14 -23 -26.5 -31 t-41.5 -8h-68q-16 0 -26 8t-10 20z" />
<glyph unicode="&#x175;" horiz-adv-x="1601" d="M98 956q0 27 31 27h100q25 0 33 -7t14 -28l213 -706l234 618q8 20 17.5 28.5t27.5 8.5h68q20 0 28 -8t17 -29l231 -618l213 706q6 20 14.5 27.5t32.5 7.5h103q18 0 25 -10t1 -29l-287 -905q-8 -23 -18 -31t-31 -8h-78q-20 0 -29 8t-18 31l-239 643l-240 -643 q-8 -23 -17 -31t-30 -8h-78q-20 0 -30.5 8t-18.5 31l-287 905q-2 4 -2 12zM473 1135q0 12 8 22l221 305q18 25 28.5 32t35.5 7h70q25 0 35 -7t28 -32l221 -305q8 -10 8 -22t-10 -20.5t-26 -8.5h-68q-29 0 -41 8t-27 31l-155 227l-156 -227q-14 -23 -26.5 -31t-40.5 -8h-68 q-16 0 -26.5 8t-10.5 21z" />
<glyph unicode="&#x176;" horiz-adv-x="1421" d="M96 1368q0 25 33 25h109q25 0 33 -5.5t16 -19.5l424 -733l424 733q8 14 16 19.5t33 5.5h108q33 0 33 -25q0 -10 -6 -22l-514 -885v-400q0 -61 -64 -61h-61q-64 0 -64 61v402l-514 883q-6 12 -6 22zM385 1548q0 12 8 23l221 305q18 25 28.5 32t35.5 7h70q25 0 35 -7 t28 -32l221 -305q8 -10 8 -23q0 -12 -10 -20t-26 -8h-68q-29 0 -41 8t-27 31l-155 227l-156 -227q-14 -23 -26.5 -31t-41.5 -8h-67q-16 0 -26.5 8t-10.5 20z" />
<glyph unicode="&#x177;" horiz-adv-x="1206" d="M100 -221q0 6 6 16l46 76q8 14 18 14t20 -8q35 -29 71 -42t87 -13q68 0 109 48t88 167l-422 899q-6 12 -6 22q0 25 28 25h109q27 0 36 -6t19 -27l326 -729l323 729q10 20 19.5 26.5t36.5 6.5h108q29 0 29 -25q0 -10 -6 -22l-387 -827q-84 -178 -134.5 -262.5t-112.5 -125 t-161 -40.5q-71 0 -132.5 21.5t-102.5 55.5q-14 12 -15 21zM303 1135q0 12 8 22l221 305q18 25 28.5 32t35.5 7h70q25 0 35 -7t28 -32l221 -305q8 -10 8 -22t-10 -20.5t-26 -8.5h-68q-29 0 -41 8t-27 31l-155 227l-156 -227q-14 -23 -26.5 -31t-40.5 -8h-68q-16 0 -26.5 8 t-10.5 21z" />
<glyph unicode="&#x178;" horiz-adv-x="1421" d="M96 1368q0 25 33 25h109q25 0 33 -5.5t16 -19.5l424 -733l424 733q8 14 16 19.5t33 5.5h108q33 0 33 -25q0 -10 -6 -22l-514 -885v-400q0 -61 -64 -61h-61q-64 0 -64 61v402l-514 883q-6 12 -6 22zM426 1626v33q0 37 22.5 61.5t59.5 24.5h35q35 0 58.5 -25.5t23.5 -60.5 v-33q0 -37 -22.5 -61.5t-59.5 -24.5h-35q-37 0 -59.5 24.5t-22.5 61.5zM811 1626v33q0 35 23.5 60.5t58.5 25.5h35q37 0 59.5 -24.5t22.5 -61.5v-33q0 -37 -22.5 -61.5t-59.5 -24.5h-35q-35 0 -58.5 25.5t-23.5 60.5z" />
<glyph unicode="&#x179;" horiz-adv-x="1292" d="M96 57q0 25 9.5 46.5t31.5 52.5l807 1087h-754q-33 0 -48 14.5t-15 45.5v34q0 31 15.5 43.5t47.5 12.5h947q31 0 43 -13.5t12 -44.5q0 -29 -7 -46t-34 -52l-805 -1087h789q33 0 47 -13.5t14 -46.5v-35q0 -31 -14.5 -43t-46.5 -12h-985q-31 0 -42.5 13.5t-11.5 43.5z M600 1554q0 4 4 21l101 278q8 23 19 31t40 8h104q39 0 39 -24q0 -4 -8 -25l-135 -278q-10 -20 -23.5 -27.5t-40.5 -7.5h-69q-31 -1 -31 24z" />
<glyph unicode="&#x17a;" horiz-adv-x="1134" d="M98 53q0 39 8.5 57.5t36.5 49.5l637 674h-592q-33 0 -48 14t-15 45v35q0 31 15.5 43t47.5 12h785q27 0 37 -13.5t10 -39.5q0 -35 -8 -55.5t-37 -51.5l-623 -673h625q33 0 47 -13.5t14 -46.5v-35q0 -31 -14 -43t-47 -12h-832q-26 0 -36.5 13.5t-10.5 39.5zM500 1149 q0 4 4 20l100 279q8 23 19.5 31t40.5 8h104q39 0 39 -25q0 -4 -8 -24l-135 -279q-10 -20 -23.5 -27.5t-40.5 -7.5h-70q-30 0 -30 25z" />
<glyph unicode="&#x17b;" horiz-adv-x="1292" d="M96 57q0 25 9.5 46.5t31.5 52.5l807 1087h-754q-33 0 -48 14.5t-15 45.5v34q0 31 15.5 43.5t47.5 12.5h947q31 0 43 -13.5t12 -44.5q0 -29 -7 -46t-34 -52l-805 -1087h789q33 0 47 -13.5t14 -46.5v-35q0 -31 -14.5 -43t-46.5 -12h-985q-31 0 -42.5 13.5t-11.5 43.5z M575 1663v33q0 35 24 60.5t58 25.5h37q35 0 58.5 -25.5t23.5 -60.5v-33q0 -37 -22.5 -61.5t-59.5 -24.5h-37q-34 0 -58 25.5t-24 60.5z" />
<glyph unicode="&#x17c;" horiz-adv-x="1134" d="M98 53q0 39 8.5 57.5t36.5 49.5l637 674h-592q-33 0 -48 14t-15 45v35q0 31 15.5 43t47.5 12h785q27 0 37 -13.5t10 -39.5q0 -35 -8 -55.5t-37 -51.5l-623 -673h625q33 0 47 -13.5t14 -46.5v-35q0 -31 -14 -43t-47 -12h-832q-26 0 -36.5 13.5t-10.5 39.5zM496 1270v33 q0 35 23.5 60.5t58.5 25.5h36q35 0 58.5 -26t23.5 -60v-33q0 -37 -22.5 -61.5t-59.5 -24.5h-36q-35 0 -58.5 25.5t-23.5 60.5z" />
<glyph unicode="&#x17d;" horiz-adv-x="1292" d="M96 57q0 25 9.5 46.5t31.5 52.5l807 1087h-754q-33 0 -48 14.5t-15 45.5v34q0 31 15.5 43.5t47.5 12.5h947q31 0 43 -13.5t12 -44.5q0 -29 -7 -46t-34 -52l-805 -1087h789q33 0 47 -13.5t14 -46.5v-35q0 -31 -14.5 -43t-46.5 -12h-985q-31 0 -42.5 13.5t-11.5 43.5z M338 1923q0 20 27 21h81q29 0 39.5 -6.5t24.5 -26.5l160 -234l157 234q14 20 24.5 26.5t39.5 6.5h82q29 0 28 -23q0 -12 -12 -29l-221 -305q-18 -25 -28.5 -32t-34.5 -7h-70q-25 0 -35 7.5t-29 31.5l-221 305q-12 18 -12 31z" />
<glyph unicode="&#x17e;" horiz-adv-x="1134" d="M98 53q0 39 8.5 57.5t36.5 49.5l637 674h-592q-33 0 -48 14t-15 45v35q0 31 15.5 43t47.5 12h785q27 0 37 -13.5t10 -39.5q0 -35 -8 -55.5t-37 -51.5l-623 -673h625q33 0 47 -13.5t14 -46.5v-35q0 -31 -14 -43t-47 -12h-832q-26 0 -36.5 13.5t-10.5 39.5zM258 1485 q0 20 27 20h82q29 0 39 -6t24 -26l160 -234l158 234q14 20 24 26t39 6h82q29 0 29 -22q0 -12 -13 -29l-221 -305q-18 -25 -28.5 -32t-34.5 -7h-70q-25 0 -35 7t-28 32l-222 305q-12 18 -12 31z" />
<glyph unicode="&#x18f;" horiz-adv-x="1466" d="M96 715q0 55 54 55h1042q0 256 -126 383t-392 127q-217 0 -412 -94q-14 -8 -22 -8q-10 0 -19 14l-41 74q-6 12 -6 20q0 16 14 25q96 53 233.5 82.5t278.5 29.5q315 0 492.5 -182t177.5 -524q0 -362 -168 -555t-481 -193q-311 0 -468 187.5t-157 558.5zM268 635 q0 -252 113 -387t340 -135t349 139t122 383h-924z" />
<glyph unicode="&#x192;" horiz-adv-x="1142" d="M-180 -262q0 8 8 18l49 66q8 14 19 14q6 0 18 -6q39 -29 77 -41t91 -12q96 0 142 50t57 155l88 856h-146q-33 0 -46 13t-13 46v31q0 31 13 43t46 12h162l10 98q18 160 112.5 251t264.5 91q166 0 258 -73q14 -14 14 -23q0 -10 -8 -20l-45 -66q-12 -14 -20 -14q-6 0 -19 6 q-43 27 -79.5 40t-88.5 13q-98 0 -144 -50t-56 -155l-11 -98h238q33 0 46 -12.5t13 -42.5v-31q0 -33 -13 -46t-46 -13h-254l-90 -856q-16 -160 -109.5 -251t-263.5 -91q-160 -1 -258 73q-2 2 -9 9.5t-7 15.5z" />
<glyph unicode="&#x1a0;" horiz-adv-x="1636" d="M96 696q0 344 180.5 535.5t507.5 191.5q301 0 478 -163q90 4 130 55t40 172q0 25 8 36t30 11h93q39 0 39 -45q0 -303 -234 -365q102 -176 102 -428q0 -344 -180 -535.5t-506 -191.5q-327 0 -507.5 191.5t-180.5 535.5zM279 696q0 -285 132 -434t373 -149q240 0 372 149.5 t132 433.5q0 285 -132 434.5t-372 149.5q-242 0 -373.5 -149.5t-131.5 -434.5z" />
<glyph unicode="&#x1a1;" horiz-adv-x="1423" d="M96 492q0 242 139.5 382t399.5 140q137 0 242.5 -43t175.5 -121q88 4 127 56t39 171q0 25 8 36t30 11h93q39 0 39 -45q0 -160 -64.5 -252t-189.5 -114q39 -104 39 -221q0 -242 -140.5 -382.5t-398.5 -140.5q-260 0 -399.5 140.5t-139.5 382.5zM279 492q0 -182 91 -280.5 t265 -98.5q172 0 263 97t91 282q0 182 -90 279t-264 97t-265 -97t-91 -279z" />
<glyph unicode="&#x1af;" horiz-adv-x="1697" d="M127 487v844q0 61 61 62h64q33 0 47 -15.5t14 -46.5v-852q0 -176 117 -271t303 -95q184 0 302 94t118 272v852q0 61 61 62h64q33 0 47 -15.5t14 -46.5v-74q80 6 117 59.5t37 170.5q0 25 8 36t31 11h92q39 0 39 -45q0 -178 -82 -273.5t-242 -105.5v-623 q0 -158 -76.5 -275.5t-214 -180t-315.5 -62.5t-315 62.5t-214 180.5t-77 275z" />
<glyph unicode="&#x1b0;" horiz-adv-x="1411" d="M127 336v586q0 61 61 61h64q61 0 61 -61v-584q0 -119 63.5 -173t184.5 -54q131 0 221 71.5t90 184.5v555q0 61 62 61h63q61 0 62 -61v-72q78 8 112.5 60.5t34.5 166.5q0 25 8.5 36t30.5 11h92q39 0 39 -45q0 -352 -317 -377v-651q0 -29 -9.5 -40t-35.5 -11h-70 q-23 0 -31 10t-10 33l-4 98q-66 -80 -158 -124t-223 -46h-22q-39 0 -56 2q-143 18 -228 109.5t-85 253.5z" />
<glyph unicode="&#x1cd;" horiz-adv-x="1488" d="M98 27q0 4 4 20l551 1303q12 27 21.5 35t32.5 8h75q23 0 32 -8.5t22 -34.5l550 -1303l5 -20q0 -27 -31 -27h-109q-25 0 -34 6t-17 25l-139 334h-633l-139 -334q-8 -18 -17.5 -24.5t-33.5 -6.5h-109q-31 0 -31 27zM414 1898q0 20 26 21h82q29 0 39 -6t25 -27l159 -233 l158 233q14 20 24.5 26.5t39.5 6.5h82q29 0 28 -23q0 -12 -12 -28l-221 -305q-18 -25 -28.5 -32t-35.5 -7h-69q-25 0 -35 7t-29 32l-221 305q-12 18 -12 30zM481 510h525l-263 631z" />
<glyph unicode="&#x1ce;" horiz-adv-x="1257" d="M96 430q0 174 73 306t210 205t321 73q129 0 238 -34t182 -85v-844q0 -27 -12 -39t-41 -12h-63q-23 0 -33 10t-15 33l-10 90q-66 -86 -164 -125t-239 -39q-205 0 -326 120t-121 341zM279 440q0 -170 82.5 -249.5t250.5 -79.5q82 0 158 32.5t123 95t47 144.5v440 q-102 51 -244 51q-188 0 -302.5 -115.5t-114.5 -318.5zM379 1493q0 20 27 20h81q29 0 39.5 -6t24.5 -26l160 -234l157 234q14 20 24.5 26t39.5 6h82q29 0 28 -22q0 -12 -12 -29l-221 -305q-18 -25 -28.5 -32t-35.5 -7h-69q-25 0 -35 7.5t-29 31.5l-221 305q-12 18 -12 31z " />
<glyph unicode="&#x1cf;" horiz-adv-x="509" d="M-76 1898q0 20 27 21h82q29 0 39 -6t24 -27l160 -233l158 233q14 20 24.5 26.5t38.5 6.5h82q29 0 29 -23q0 -12 -13 -28l-221 -305q-18 -25 -28.5 -32t-34.5 -7h-70q-24 0 -34.5 7t-28.5 32l-221 305q-12 18 -13 30zM162 61v1270q0 61 61 62h64q33 0 47 -15.5t14 -46.5 v-1270q0 -31 -14.5 -46t-46.5 -15h-64q-61 0 -61 61z" />
<glyph unicode="&#x1d0;" horiz-adv-x="509" d="M-76 1491q0 27 39 27h68q29 0 42 -8.5t27 -30.5l154 -228l156 228q14 23 26.5 31t40.5 8h68q16 0 26.5 -7.5t10.5 -19.5q0 -14 -9 -25l-221 -305q-18 -25 -28.5 -32t-34.5 -7h-70q-24 0 -34.5 7.5t-28.5 31.5l-222 305q-10 14 -10 25zM166 61v861q0 61 61 61h64 q33 0 47 -15.5t14 -45.5v-861q0 -31 -14 -46t-47 -15h-64q-61 0 -61 61z" />
<glyph unicode="&#x1d1;" horiz-adv-x="1566" d="M96 696q0 344 180.5 535.5t507.5 191.5q326 0 506 -191.5t180 -535.5t-180 -535.5t-506 -191.5q-327 0 -507.5 191.5t-180.5 535.5zM279 696q0 -285 132 -434t373 -149q240 0 372 149.5t132 433.5q0 285 -132 434.5t-372 149.5q-242 0 -373.5 -149.5t-131.5 -434.5z M453 1898q0 20 26 21h82q29 0 39 -6t25 -27l159 -233l158 233q14 20 24.5 26.5t39.5 6.5h81q29 0 29 -23q0 -12 -12 -28l-221 -305q-18 -25 -28.5 -32t-35.5 -7h-69q-25 0 -35 7t-29 32l-221 305q-12 18 -12 30z" />
<glyph unicode="&#x1d2;" horiz-adv-x="1269" d="M96 492q0 242 139.5 382t399.5 140q258 0 398.5 -140.5t140.5 -381.5q0 -242 -140.5 -382.5t-398.5 -140.5q-260 0 -399.5 140.5t-139.5 382.5zM279 492q0 -182 91 -280.5t265 -98.5q172 0 263 97t91 282q0 182 -90 279t-264 97t-265 -97t-91 -279zM303 1481q0 20 27 20 h82q29 0 39 -6t24 -27l160 -233l158 233q14 20 24 26.5t39 6.5h82q29 0 29 -22q0 -12 -13 -29l-221 -305q-18 -25 -28.5 -32t-34.5 -7h-70q-25 0 -35 7t-28 32l-222 305q-12 18 -12 31z" />
<glyph unicode="&#x1d3;" horiz-adv-x="1466" d="M127 487v844q0 61 61 62h64q33 0 47 -15.5t14 -46.5v-852q0 -170 111 -268t309 -98q199 0 309.5 98t110.5 268v852q0 31 14.5 46.5t46.5 15.5h62q63 0 63 -62v-844q0 -158 -76.5 -275.5t-214 -180t-315.5 -62.5t-315 62.5t-214 180.5t-77 275zM399 1898q0 20 27 21h82 q29 0 39 -6t24 -27l160 -233l158 233q14 20 24.5 26.5t38.5 6.5h82q29 0 29 -23q0 -12 -12 -28l-222 -305q-18 -25 -28 -32t-35 -7h-70q-24 0 -34.5 7t-28.5 32l-221 305q-12 18 -13 30z" />
<glyph unicode="&#x1d4;" horiz-adv-x="1196" d="M127 336v586q0 61 61 61h64q33 0 47 -15.5t14 -45.5v-584q0 -119 62.5 -173t185.5 -54q131 0 221 71.5t90 184.5v555q0 61 64 61h61q33 0 47.5 -15.5t14.5 -45.5v-871q0 -29 -9.5 -40t-35.5 -11h-68q-23 0 -31 10t-10 33l-6 98q-70 -84 -165 -128t-232 -44 q-168 0 -271.5 93.5t-103.5 273.5zM260 1481q0 20 27 20h82q29 0 39 -6t24 -27l160 -233l158 233q14 20 24 26.5t39 6.5h82q29 0 29 -22q0 -12 -13 -29l-221 -305q-18 -25 -28.5 -32t-34.5 -7h-70q-25 0 -35 7t-28 32l-222 305q-12 18 -12 31z" />
<glyph unicode="&#x1d5;" horiz-adv-x="1466" d="M127 487v844q0 61 61 62h64q33 0 47 -15.5t14 -46.5v-852q0 -170 111 -268t309 -98q199 0 309.5 98t110.5 268v852q0 31 14.5 46.5t46.5 15.5h62q63 0 63 -62v-844q0 -158 -76.5 -275.5t-214 -180t-315.5 -62.5t-315 62.5t-214 180.5t-77 275zM389 1968v33q0 33 13.5 46 t46.5 13h565q33 0 46 -13t13 -46v-33q0 -33 -13 -45t-46 -12h-565q-33 0 -46.5 12t-13.5 45zM442 1638v33q0 37 22.5 61.5t59.5 24.5h35q35 0 58.5 -25.5t23.5 -60.5v-33q0 -37 -22.5 -61.5t-59.5 -24.5h-35q-37 0 -59.5 25t-22.5 61zM827 1638v33q0 35 23.5 60.5t58.5 25.5 h35q37 0 59.5 -24.5t22.5 -61.5v-33q0 -37 -22.5 -61.5t-59.5 -24.5h-35q-35 0 -58.5 26t-23.5 60z" />
<glyph unicode="&#x1d6;" horiz-adv-x="1196" d="M127 336v586q0 61 61 61h64q33 0 47 -15.5t14 -45.5v-584q0 -119 62.5 -173t185.5 -54q131 0 221 71.5t90 184.5v555q0 61 64 61h61q33 0 47.5 -15.5t14.5 -45.5v-871q0 -29 -9.5 -40t-35.5 -11h-68q-23 0 -31 10t-10 33l-6 98q-70 -84 -165 -128t-232 -44 q-168 0 -271.5 93.5t-103.5 273.5zM252 1561v32q0 33 13.5 46.5t45.5 13.5h566q33 0 46 -13.5t13 -46.5v-32q0 -33 -13.5 -45.5t-45.5 -12.5h-566q-32 0 -45.5 12.5t-13.5 45.5zM305 1176v32q0 37 22.5 61.5t59.5 24.5h35q35 0 58.5 -25.5t23.5 -60.5v-32q0 -37 -22.5 -61.5 t-59.5 -24.5h-35q-37 0 -59.5 24.5t-22.5 61.5zM690 1176v32q0 35 23.5 60.5t58.5 25.5h35q37 0 59.5 -24.5t22.5 -61.5v-32q0 -37 -22.5 -61.5t-59.5 -24.5h-35q-35 0 -58.5 25.5t-23.5 60.5z" />
<glyph unicode="&#x1d7;" horiz-adv-x="1466" d="M127 487v844q0 61 61 62h64q33 0 47 -15.5t14 -46.5v-852q0 -170 111 -268t309 -98q199 0 309.5 98t110.5 268v852q0 31 14.5 46.5t46.5 15.5h62q63 0 63 -62v-844q0 -158 -76.5 -275.5t-214 -180t-315.5 -62.5t-315 62.5t-214 180.5t-77 275zM428 1669v33 q0 35 23.5 60.5t58.5 25.5h35q35 0 58.5 -25.5t23.5 -60.5v-33q0 -37 -22.5 -61.5t-59.5 -24.5h-35q-35 0 -58.5 25.5t-23.5 60.5zM674 1843q0 6 4 19l76 211q8 23 19 30.5t38 7.5h80q35 0 35 -24q0 -10 -8 -25l-107 -209q-10 -20 -22.5 -26t-38.5 -6h-45q-31 -1 -31 22z M831 1669v33q0 37 23 61.5t59 24.5h35q35 0 58.5 -25.5t23.5 -60.5v-33q0 -37 -22.5 -61.5t-59.5 -24.5h-35q-36 0 -59 24.5t-23 61.5z" />
<glyph unicode="&#x1d8;" horiz-adv-x="1196" d="M127 336v586q0 61 61 61h64q33 0 47 -15.5t14 -45.5v-584q0 -119 62.5 -173t185.5 -54q131 0 221 71.5t90 184.5v555q0 61 64 61h61q33 0 47.5 -15.5t14.5 -45.5v-871q0 -29 -9.5 -40t-35.5 -11h-68q-23 0 -31 10t-10 33l-6 98q-70 -84 -165 -128t-232 -44 q-168 0 -271.5 93.5t-103.5 273.5zM279 1251v33q0 35 23.5 60.5t57.5 25.5h35q35 0 58.5 -25.5t23.5 -60.5v-33q0 -37 -22.5 -61.5t-59.5 -24.5h-35q-34 0 -57.5 26t-23.5 60zM524 1425q0 6 4 19l76 211q8 23 19.5 31t38.5 8h79q35 0 35 -25q0 -10 -8 -24l-106 -209 q-10 -20 -22.5 -26.5t-39.5 -6.5h-45q-31 -1 -31 22zM682 1251v33q0 37 22.5 61.5t59.5 24.5h35q35 0 58.5 -25.5t23.5 -60.5v-33q0 -37 -22.5 -61.5t-59.5 -24.5h-35q-37 0 -59.5 24.5t-22.5 61.5z" />
<glyph unicode="&#x1d9;" horiz-adv-x="1466" d="M127 487v844q0 61 61 62h64q33 0 47 -15.5t14 -46.5v-852q0 -170 111 -268t309 -98q199 0 309.5 98t110.5 268v852q0 31 14.5 46.5t46.5 15.5h62q63 0 63 -62v-844q0 -158 -76.5 -275.5t-214 -180t-315.5 -62.5t-315 62.5t-214 180.5t-77 275zM418 2140q0 27 35 27h65 q27 0 38 -5t26 -26l153 -184l154 184q16 18 27.5 24.5t35.5 6.5h66q35 0 35 -27q0 -14 -11 -24l-213 -256q-16 -23 -29.5 -31t-37.5 -8h-53q-25 0 -38.5 8t-29.5 31l-213 256q-10 10 -10 24zM434 1669v33q0 35 23.5 60.5t58.5 25.5h35q37 0 59.5 -24.5t22.5 -61.5v-33 q0 -37 -22.5 -61.5t-59.5 -24.5h-35q-37 0 -59.5 24.5t-22.5 61.5zM838 1669v33q0 35 23.5 60.5t58.5 25.5h34q35 0 58.5 -25.5t23.5 -60.5v-33q0 -35 -23.5 -60.5t-58.5 -25.5h-34q-37 0 -59.5 24.5t-22.5 61.5z" />
<glyph unicode="&#x1da;" horiz-adv-x="1196" d="M127 336v586q0 61 61 61h64q33 0 47 -15.5t14 -45.5v-584q0 -119 62.5 -173t185.5 -54q131 0 221 71.5t90 184.5v555q0 61 64 61h61q33 0 47.5 -15.5t14.5 -45.5v-871q0 -29 -9.5 -40t-35.5 -11h-68q-23 0 -31 10t-10 33l-6 98q-70 -84 -165 -128t-232 -44 q-168 0 -271.5 93.5t-103.5 273.5zM260 1718q0 27 35 27h65q27 0 38.5 -5t25.5 -26l154 -184l153 184q16 18 27.5 24.5t36.5 6.5h65q35 0 35 -27q0 -14 -10 -24l-213 -256q-16 -23 -29.5 -31t-38.5 -8h-53q-25 0 -38 8t-30 31l-213 256q-10 10 -10 24zM276 1247v33 q0 35 24 60.5t58 25.5h35q37 0 59.5 -24.5t22.5 -61.5v-33q0 -37 -22.5 -61.5t-59.5 -24.5h-35q-36 0 -59 24.5t-23 61.5zM680 1247v33q0 35 23.5 60.5t58.5 25.5h35q35 0 58.5 -25.5t23.5 -60.5v-33q0 -35 -24 -60.5t-58 -25.5h-35q-37 0 -59.5 24.5t-22.5 61.5z" />
<glyph unicode="&#x1db;" horiz-adv-x="1466" d="M127 487v844q0 61 61 62h64q33 0 47 -15.5t14 -46.5v-852q0 -170 111 -268t309 -98q199 0 309.5 98t110.5 268v852q0 31 14.5 46.5t46.5 15.5h62q63 0 63 -62v-844q0 -158 -76.5 -275.5t-214 -180t-315.5 -62.5t-315 62.5t-214 180.5t-77 275zM432 1665v33 q0 35 23.5 60.5t58.5 25.5h35q37 0 59.5 -24.5t22.5 -61.5v-33q0 -37 -22.5 -61.5t-59.5 -24.5h-35q-37 0 -59.5 24.5t-22.5 61.5zM537 2083q0 25 34 24h80q27 0 38 -8t20 -31l75 -210q4 -12 4 -19q0 -23 -30 -22h-45q-27 0 -39 6t-23 26l-106 209q-8 14 -8 25zM836 1665v33 q0 35 23.5 60.5t58.5 25.5h34q35 0 58.5 -25.5t23.5 -60.5v-33q0 -35 -23.5 -60.5t-58.5 -25.5h-34q-37 0 -59.5 24.5t-22.5 61.5z" />
<glyph unicode="&#x1dc;" horiz-adv-x="1196" d="M127 336v586q0 61 61 61h64q33 0 47 -15.5t14 -45.5v-584q0 -119 62.5 -173t185.5 -54q131 0 221 71.5t90 184.5v555q0 61 64 61h61q33 0 47.5 -15.5t14.5 -45.5v-871q0 -29 -9.5 -40t-35.5 -11h-68q-23 0 -31 10t-10 33l-6 98q-70 -84 -165 -128t-232 -44 q-168 0 -271.5 93.5t-103.5 273.5zM295 1251v33q0 35 23.5 60.5t58.5 25.5h35q37 0 59.5 -24.5t22.5 -61.5v-33q0 -37 -22.5 -61.5t-59.5 -24.5h-35q-37 0 -59.5 24.5t-22.5 61.5zM399 1669q0 25 35 25h80q27 0 38 -8.5t19 -30.5l76 -211q4 -12 4 -19q0 -23 -30 -22h-46 q-26 0 -38.5 6t-22.5 27l-106 209q-8 14 -9 24zM698 1251v33q0 35 23.5 60.5t58.5 25.5h35q35 0 58.5 -25.5t23.5 -60.5v-33q0 -35 -23.5 -60.5t-58.5 -25.5h-35q-37 0 -59.5 24.5t-22.5 61.5z" />
<glyph unicode="&#x1e6;" horiz-adv-x="1429" d="M96 696q0 346 185.5 536.5t525.5 190.5q131 0 246.5 -26.5t193.5 -77.5q16 -10 17 -23q0 -8 -7 -20l-43 -72q-8 -16 -18 -16t-20 8q-61 37 -151.5 60.5t-201.5 23.5q-252 0 -398 -144.5t-146 -439.5t145 -438t391 -143q96 0 188.5 16t151.5 45v445h-317q-33 0 -46.5 14 t-13.5 45v35q0 31 13.5 43t46.5 12h430q35 0 50 -16.5t15 -51.5v-561q0 -27 -4 -39t-20 -20q-201 -113 -502 -113q-340 0 -525.5 190.5t-185.5 536.5zM479 1898q0 20 27 21h82q29 0 39 -6t24 -27l160 -233l158 233q14 20 24.5 26.5t38.5 6.5h82q29 0 29 -23q0 -12 -13 -28 l-221 -305q-18 -25 -28.5 -32t-34.5 -7h-70q-24 0 -34.5 7t-28.5 32l-221 305q-12 18 -13 30z" />
<glyph unicode="&#x1e7;" horiz-adv-x="1259" d="M96 467q0 260 151.5 403.5t432.5 143.5q125 0 247 -34t195 -83v-737q0 -246 -115.5 -377t-353.5 -131q-118 0 -224.5 20.5t-162.5 53.5q-37 23 -22 45l45 75q8 16 18 17q6 0 19 -6q55 -29 140 -47.5t173 -18.5q158 0 228.5 79t70.5 265q-68 -80 -150.5 -114.5 t-212.5 -34.5q-221 0 -350 127t-129 354zM279 481q0 -350 346 -350q135 0 224 72.5t89 195.5v424q-45 23 -116.5 36t-147.5 13q-188 0 -291.5 -97t-103.5 -294zM356 1501q0 20 27 21h82q29 0 39 -6.5t24 -26.5l160 -234l158 234q14 20 24.5 26.5t38.5 6.5h82q29 0 29 -23 q0 -12 -12 -29l-222 -305q-18 -25 -28 -32t-35 -7h-70q-24 0 -34.5 7.5t-28.5 31.5l-221 305q-12 18 -13 31z" />
<glyph unicode="&#x1fa;" horiz-adv-x="1488" d="M98 27q0 4 4 20l543 1282q-61 29 -97 84t-36 125q0 96 67.5 165t163.5 69t165 -69t69 -165q0 -68 -36 -124t-97 -85l542 -1282q5 -16 5 -20q0 -27 -31 -27h-109q-25 0 -34 6t-17 25l-139 334h-633l-139 -334q-8 -18 -17.5 -24.5t-33.5 -6.5h-109q-31 0 -31 27zM481 510 h525l-263 631zM618 1538q0 -51 37 -88t88 -37q53 0 89 37t36 88q0 53 -35.5 89t-89.5 36q-51 0 -88 -36t-37 -89zM651 1855q0 4 4 21l101 278q8 23 19 31t40 8h105q39 0 38 -24q0 -4 -8 -25l-135 -278q-10 -20 -23.5 -27.5t-39.5 -7.5h-70q-31 -1 -31 24z" />
<glyph unicode="&#x1fb;" horiz-adv-x="1257" d="M96 430q0 174 73 306t210 205t321 73q129 0 238 -34t182 -85v-844q0 -27 -12 -39t-41 -12h-63q-23 0 -33 10t-15 33l-10 90q-66 -86 -164 -125t-239 -39q-205 0 -326 120t-121 341zM279 440q0 -170 82.5 -249.5t250.5 -79.5q82 0 158 32.5t123 95t47 144.5v440 q-102 51 -244 51q-188 0 -302.5 -115.5t-114.5 -318.5zM467 1311q0 96 67.5 164.5t163.5 68.5t165 -68.5t69 -164.5t-68.5 -164t-165.5 -68q-96 0 -163.5 67.5t-67.5 164.5zM573 1311q0 -51 37 -88t88 -37q54 0 89.5 37t35.5 88q0 53 -35.5 89t-89.5 36q-51 0 -88 -36 t-37 -89zM588 1673q0 6 4 19l100 223q8 18 19.5 24.5t40.5 6.5h104q39 0 39 -21q0 -2 -8 -18l-135 -224q-8 -16 -21.5 -22t-42.5 -6h-70q-30 0 -30 18z" />
<glyph unicode="&#x1fc;" horiz-adv-x="1826" d="M98 29q0 6 4 18l551 1303q10 25 20.5 34t33.5 9h983q33 0 47 -12.5t14 -43.5v-34q0 -33 -14.5 -46.5t-46.5 -13.5h-643v-471h464q33 0 46.5 -12t13.5 -45v-33q0 -31 -13.5 -45t-46.5 -14h-464v-473h643q33 0 47 -13.5t14 -46.5v-35q0 -31 -14.5 -43t-46.5 -12h-760 q-63 0 -64 61v304h-438l-135 -326q-8 -23 -25.5 -31t-50.5 -8h-88q-31 0 -31 29zM477 510h389v733h-82zM911 1530q0 4 4 20l101 279q8 23 19.5 31t39.5 8h105q39 0 39 -25q0 -4 -9 -24l-135 -279q-10 -20 -23.5 -27.5t-39.5 -7.5h-70q-31 0 -31 25z" />
<glyph unicode="&#x1fd;" horiz-adv-x="1970" d="M96 264q0 160 108.5 237t297.5 77h348v51q0 254 -295 254q-88 0 -149.5 -16.5t-137.5 -49.5q-12 -6 -22 -6q-14 0 -25 25l-31 61q-4 12 -4 16q0 14 19 23q68 35 166 56.5t194 21.5q160 0 251 -51.5t138 -153.5q55 102 162 153.5t252 51.5q252 0 379 -132t127 -393 q0 -55 -53 -55h-787q0 -158 100.5 -244t282.5 -86q186 0 307 80q12 6 19 6q10 0 18 -14l37 -67q6 -8 6 -19q0 -12 -16 -22q-156 -98 -385 -99q-156 0 -274.5 55.5t-176.5 168.5q-66 -111 -192.5 -167.5t-282.5 -56.5q-172 0 -276.5 74t-104.5 221zM262 270q0 -84 57.5 -125 t176.5 -41q166 0 260 70t94 207v70h-354q-115 0 -174.5 -43t-59.5 -138zM870 1149q0 4 4 20l101 279q8 23 19.5 31t39.5 8h105q39 0 39 -25q0 -4 -9 -24l-135 -279q-10 -20 -23.5 -27.5t-39.5 -7.5h-70q-31 0 -31 25zM1034 559h668q0 324 -334 324t-334 -324z" />
<glyph unicode="&#x1fe;" horiz-adv-x="1566" d="M96 696q0 344 180.5 535.5t507.5 191.5q98 0 185 -18l43 106q10 27 39 27h131q23 0 22 -20l-4 -19l-63 -151q161 -84 247 -250t86 -402q0 -344 -180 -535.5t-506 -191.5q-106 0 -202 23l-58 -142q-10 -27 -41 -26h-129q-23 0 -22 18q0 4 4 21l78 190q-154 86 -236 250 t-82 393zM279 696q0 -174 50 -298t146 -195l436 1065q-57 12 -127 12q-242 0 -373.5 -149.5t-131.5 -434.5zM639 129q72 -16 145 -16q240 0 372 149.5t132 433.5q0 180 -54 307t-157 197zM698 1530q0 4 4 20l101 279q8 23 19.5 31t39.5 8h105q39 0 39 -25q0 -4 -9 -24 l-135 -279q-10 -20 -23.5 -27.5t-39.5 -7.5h-70q-31 0 -31 25z" />
<glyph unicode="&#x1ff;" horiz-adv-x="1269" d="M96 492q0 242 139.5 382t399.5 140q61 0 108 -8l58 141q10 27 39 27h131q23 0 22 -21l-4 -18l-74 -179q127 -63 193 -182t66 -282q0 -242 -140.5 -382.5t-398.5 -140.5q-70 0 -119 8l-53 -127q-10 -27 -41 -26h-129q-23 0 -23 18q0 4 4 21l70 170q-123 63 -185.5 180 t-62.5 279zM279 492q-1 -218 124 -312l283 686q-16 2 -51 2q-174 0 -265 -97t-91 -279zM567 1206q0 4 4 21l101 278q8 23 19 31t40 8h105q39 0 38 -24q0 -4 -8 -25l-135 -278q-10 -20 -23.5 -27.5t-39.5 -7.5h-70q-31 -1 -31 24zM571 117q41 -4 64 -4q172 0 263 97t91 282 q0 225 -133 317z" />
<glyph unicode="&#x218;" horiz-adv-x="1189" d="M100 109q0 6 6 18l48 78q8 14 18 14t21 -8q74 -47 177 -72.5t214 -25.5q162 0 243.5 54t81.5 177q0 78 -32.5 125t-100 81t-219.5 89q-133 49 -217 93t-142.5 121t-58.5 196q0 174 134.5 274t344.5 100q258 0 418 -102q20 -14 21 -27q0 -8 -6 -18l-47 -78 q-10 -16 -19 -16q-6 0 -20 10q-131 88 -347 88q-137 0 -216.5 -57.5t-79.5 -175.5q0 -74 28.5 -117t81.5 -71t172 -73l84 -32q147 -57 229 -105.5t129.5 -122t47.5 -188.5q0 -172 -129 -270.5t-365 -98.5q-133 0 -266 30t-213 83q-20 12 -21 27zM393 -500q0 10 2 17l111 338 q8 25 19.5 33t39.5 8h78q37 0 37 -23q0 -14 -6 -29l-146 -340q-8 -16 -19 -22t-32 -6h-57q-27 -1 -27 24z" />
<glyph unicode="&#x219;" horiz-adv-x="1052" d="M98 94q0 6 6 19l41 71q10 16 19 17q2 0 18 -8q59 -37 158.5 -62t187.5 -25q121 0 182.5 37t61.5 103q0 49 -25.5 79.5t-85 55.5t-184.5 61q-119 37 -187.5 70t-109.5 88t-41 141q0 135 109.5 204t288.5 69q115 0 213 -25.5t165 -70.5q20 -12 21 -27q0 -6 -6 -19l-41 -67 q-8 -14 -17 -14q-10 0 -20 8q-121 78 -299 78q-233 0 -234 -140q0 -49 28 -79.5t76 -50t150 -50.5q-2 0 74 -22q123 -39 187.5 -75t93 -87t28.5 -131q0 -123 -105.5 -198t-311.5 -75q-115 0 -228.5 24.5t-191.5 76.5q-20 12 -21 24zM344 -502q0 12 2 19l111 338q8 25 19 33 t40 8h78q37 0 37 -25q0 -12 -6 -27l-146 -340q-8 -16 -19 -22t-32 -6h-57q-27 -1 -27 22z" />
<glyph unicode="&#x21a;" horiz-adv-x="1175" d="M55 1298v35q0 31 13.5 45.5t46.5 14.5h944q33 0 47 -14.5t14 -45.5v-35q0 -31 -14 -43t-47 -12h-379v-1182q0 -31 -14.5 -46t-47.5 -15h-61q-63 0 -63 61v1182h-379q-33 0 -46.5 12.5t-13.5 42.5zM395 -436l4 18l97 303q8 25 19 33t40 8h78q37 0 37 -22q0 -12 -6 -27 l-132 -307q-12 -29 -51 -29h-57q-29 0 -29 23z" />
<glyph unicode="&#x21b;" horiz-adv-x="911" d="M55 887v43q0 31 10.5 42t43.5 11h133v143q0 39 11 70t40 86q10 16 18 22.5t27 6.5h41q27 0 38 -13.5t11 -40.5v-274h281q33 0 43 -11t10 -42v-43q0 -31 -10.5 -40t-42.5 -9h-281v-521q0 -109 38 -156.5t130 -47.5q51 0 90 13t82 42q12 6 18 6q10 0 19 -14l43 -70 q6 -12 6 -20q0 -14 -16 -25q-109 -76 -273 -76t-243.5 91.5t-79.5 250.5v527h-133q-33 0 -43.5 9t-10.5 40zM383 -436l4 18l96 303q8 25 19.5 33t40.5 8h78q37 0 36 -22q0 -12 -6 -27l-131 -307q-12 -29 -51 -29h-57q-29 0 -29 23z" />
<glyph unicode="&#x237;" horiz-adv-x="555" d="M-240 -240q0 6 7 19l43 71q8 16 20 17q10 0 20 -8q51 -31 96.5 -47.5t102.5 -16.5q100 0 140 48t40 155v924q0 61 64 61h61q63 0 64 -61v-930q0 -162 -85 -251t-259 -89q-86 0 -164 20.5t-133 61.5q-16 12 -17 26z" />
<glyph unicode="&#x251;" horiz-adv-x="1257" d="M96 430q0 174 73 306t210 205t321 73q129 0 238 -34t182 -85v-844q0 -27 -12 -39t-41 -12h-63q-23 0 -33 10t-15 33l-10 90q-66 -86 -164 -125t-239 -39q-205 0 -326 120t-121 341zM279 440q0 -170 82.5 -249.5t250.5 -79.5q82 0 158 32.5t123 95t47 144.5v440 q-102 51 -244 51q-188 0 -302.5 -115.5t-114.5 -318.5z" />
<glyph unicode="&#x259;" horiz-adv-x="1228" d="M96 494q0 55 54 55h804q0 162 -106.5 246t-294.5 84q-178 0 -307 -80q-12 -6 -19 -6q-12 0 -18 14l-39 67q-4 6 -4 17q0 14 16 24q82 51 175.5 75t213.5 24q154 0 281 -53.5t204 -167t77 -283.5q0 -266 -138.5 -403.5t-392.5 -137.5q-252 0 -379 132t-127 393zM268 424 q0 -154 84 -239t250 -85q170 0 261 88t91 236h-686z" />
<glyph unicode="&#x2bb;" horiz-adv-x="483" d="M96 987q0 10 6 25l148 346q12 29 51 28h57q29 0 29 -22l-4 -18l-113 -345q-8 -23 -19 -30.5t-40 -7.5h-78q-37 -1 -37 24z" />
<glyph unicode="&#x2bc;" horiz-adv-x="483" d="M96 985l4 19l113 344q8 25 19.5 31.5t39.5 6.5h78q37 0 37 -24q0 -8 -6 -25l-148 -346q-12 -29 -51 -28h-57q-29 -1 -29 22z" />
<glyph unicode="&#x2be;" d="M-113 1184v76q0 20 9.5 27t29.5 7q57 0 85 21.5t28 75.5q0 53 -27.5 74.5t-85.5 21.5q-20 0 -29.5 7t-9.5 28v75q0 14 10.5 23.5t26.5 9.5q264 0 264 -239q0 -240 -264 -240q-16 0 -26.5 9t-10.5 24z" />
<glyph unicode="&#x2bf;" d="M-129 1391q0 240 264 239q16 0 26.5 -9t10.5 -24v-75q0 -20 -9 -27.5t-30 -7.5q-59 0 -87 -21.5t-28 -74.5t28 -75t87 -22q20 0 29.5 -7t9.5 -27v-76q0 -14 -10 -23.5t-27 -9.5q-264 0 -264 240z" />
<glyph unicode="&#x2c6;" horiz-adv-x="851" d="M98 1184q0 12 8 22l222 305q18 25 28.5 32t34.5 7h70q25 0 35 -7t28 -32l221 -305q8 -10 9 -24q0 -12 -10.5 -19.5t-26.5 -7.5h-68q-29 0 -41 8t-26 31l-156 227l-154 -227q-14 -23 -27.5 -31t-41.5 -8h-68q-16 0 -26.5 8t-10.5 21z" />
<glyph unicode="&#x2c7;" horiz-adv-x="851" d="M96 1532q0 27 39 27h68q29 0 42 -8.5t27 -30.5l154 -228l156 228q14 23 26.5 31t40.5 8h68q16 0 26.5 -7.5t10.5 -19.5q0 -14 -9 -25l-221 -305q-18 -25 -28.5 -32t-34.5 -7h-70q-24 0 -34.5 7.5t-28.5 31.5l-222 305q-10 14 -10 25z" />
<glyph unicode="&#x2c8;" d="M-82 1214v228q0 61 64 61h36q63 0 64 -61v-228q0 -61 -64 -61h-36q-64 0 -64 61z" />
<glyph unicode="&#x2c9;" horiz-adv-x="964" d="M141 1288v33q0 33 13.5 46t46.5 13h565q33 0 46 -13t13 -46v-33q0 -33 -13 -45t-46 -12h-565q-33 0 -46.5 12t-13.5 45z" />
<glyph unicode="&#x2ca;" d="M-88 1194q0 4 4 20l102 279q8 23 19.5 31t40.5 8h102q39 0 39 -25q0 -12 -6 -24l-137 -279q-10 -20 -22.5 -27.5t-39.5 -7.5h-69q-33 0 -33 25z" />
<glyph unicode="&#x2cb;" d="M-201 1507q0 25 39 25h103q31 0 41 -7t18 -32l102 -279q4 -16 4 -20q0 -25 -32 -25h-70q-27 0 -39 7.5t-22 27.5l-138 279q-6 12 -6 24z" />
<glyph unicode="&#x2cc;" d="M-82 -137q0 61 64 61h36q63 0 64 -61v-230q0 -61 -64 -61h-36q-64 0 -64 61v230z" />
<glyph unicode="&#x2d8;" horiz-adv-x="819" d="M96 1499q0 16 9.5 26.5t23.5 10.5h92q20 0 27.5 -9t7.5 -30q0 -86 33 -133t121 -47t120.5 47t32.5 133q0 20 7.5 29.5t27.5 9.5h92q14 0 23.5 -10t9.5 -27q0 -147 -80 -235t-233 -88q-156 0 -235 88t-79 235z" />
<glyph unicode="&#x2d9;" horiz-adv-x="391" d="M96 1303v32q0 35 23.5 60.5t58.5 25.5h35q35 0 58.5 -25.5t23.5 -60.5v-32q0 -37 -22.5 -61.5t-59.5 -24.5h-35q-35 0 -58.5 25.5t-23.5 60.5z" />
<glyph unicode="&#x2da;" horiz-adv-x="655" d="M94 1352q0 100 67.5 166.5t166.5 66.5q98 0 165.5 -66.5t67.5 -166.5t-67.5 -166t-165.5 -66q-99 0 -166.5 65.5t-67.5 166.5zM201 1352q0 -53 35.5 -89t91.5 -36q53 0 89 35.5t36 89.5q0 53 -36 89t-89 36q-55 0 -91 -36t-36 -89z" />
<glyph unicode="&#x2db;" horiz-adv-x="505" d="M96 -309q0 57 30 116.5t95 135.5q14 16 23.5 21t27.5 5h82q18 0 24.5 -10t-3.5 -22q-70 -82 -94.5 -130.5t-24.5 -95.5q0 -27 13.5 -41t35.5 -14q29 0 49 10l8 4q6 0 17 -16l27 -55q4 -8 4 -13q0 -10 -19 -18q-20 -12 -44.5 -18.5t-65.5 -6.5q-91 0 -138 38t-47 110z" />
<glyph unicode="&#x2dc;" horiz-adv-x="1015" d="M90 1288q0 18 21 43q43 51 90 81t112 30q59 0 108.5 -15.5t110.5 -44.5q47 -25 85 -37t79 -12q43 0 71 16.5t62 61.5q16 23 37 23q20 0 52 -25q35 -27 34 -51q0 -14 -16 -41q-47 -70 -100.5 -100.5t-139.5 -30.5q-49 0 -95 15.5t-114 43.5q-55 25 -93 38t-72 13 q-41 0 -63.5 -13t-57.5 -52q-14 -16 -33 -17q-25 0 -55 31q-23 23 -23 43z" />
<glyph unicode="&#x2dd;" horiz-adv-x="901" d="M98 1194q0 12 4 20l142 279q10 23 20 31t39 8h94q18 0 29.5 -7t11.5 -20q0 -12 -8 -22l-176 -279q-14 -20 -24.5 -27.5t-36.5 -7.5h-62q-33 0 -33 25zM463 1194q0 8 6 20l139 279q10 23 21.5 31t38.5 8h96q39 0 39 -25q0 -10 -8 -24l-174 -279q-12 -20 -24.5 -27.5 t-39.5 -7.5h-61q-33 0 -33 25z" />
<glyph unicode="&#x300;" d="M-725 1503q0 25 39 25h102q31 0 41.5 -7.5t18.5 -31.5l102 -279q4 -16 4 -20q0 -25 -33 -25h-69q-27 0 -39 7.5t-23 27.5l-137 279q-6 12 -6 24z" />
<glyph unicode="&#x301;" d="M-588 1190q0 4 4 20l101 279q8 23 19 31t40 8h105q39 0 38 -25q0 -4 -8 -24l-135 -279q-10 -20 -23.5 -27.5t-39.5 -7.5h-70q-31 0 -31 25z" />
<glyph unicode="&#x302;" d="M-328 1184q0 12 9 22l221 305q18 25 28.5 32t34.5 7h70q25 0 35 -7t28 -32l221 -305q8 -10 9 -22q0 -12 -10.5 -20.5t-26.5 -8.5h-68q-29 0 -41 8t-26 31l-156 227l-156 -227q-14 -23 -26.5 -31t-40.5 -8h-68q-16 0 -26.5 8t-10.5 21z" />
<glyph unicode="&#x303;" d="M-897 1288q0 18 20 43q43 51 90.5 81t112.5 30q59 0 108.5 -15.5t110.5 -44.5q47 -25 85 -37t79 -12q43 0 70.5 16.5t62.5 61.5q16 23 37 23q20 0 51 -25q35 -27 35 -51q0 -14 -16 -41q-47 -70 -100.5 -100.5t-139.5 -30.5q-49 0 -95 15.5t-114 43.5q-55 25 -93 38 t-73 13q-41 0 -63.5 -13t-56.5 -52q-14 -16 -33 -17q-25 0 -55 31q-23 23 -23 43z" />
<glyph unicode="&#x304;" d="M-340 1284v33q0 33 13.5 46t45.5 13h566q33 0 46 -13t13 -46v-33q0 -33 -13.5 -45t-45.5 -12h-566q-32 0 -45.5 12t-13.5 45z" />
<glyph unicode="&#x306;" d="M-313 1495q0 16 9 26.5t23 10.5h93q20 0 27 -9.5t7 -29.5q0 -86 33 -133t121 -47t121 47t33 133q0 20 7 29.5t27 9.5h93q14 0 23 -10.5t9 -26.5q0 -147 -79.5 -235.5t-233.5 -88.5q-156 0 -234.5 88.5t-78.5 235.5z" />
<glyph unicode="&#x307;" d="M-100 1298v33q0 35 23.5 60.5t58.5 25.5h36q35 0 58.5 -25.5t23.5 -60.5v-33q0 -37 -22.5 -61.5t-59.5 -24.5h-36q-35 0 -58.5 26t-23.5 60z" />
<glyph unicode="&#x308;" d="M-287 1237v33q0 37 22.5 61.5t59.5 24.5h35q35 0 58.5 -25.5t23.5 -60.5v-33q0 -37 -22.5 -61.5t-59.5 -24.5h-35q-37 0 -59.5 24.5t-22.5 61.5zM98 1237v33q0 35 23.5 60.5t58.5 25.5h35q37 0 59.5 -24.5t22.5 -61.5v-33q0 -37 -22.5 -61.5t-59.5 -24.5h-35 q-35 0 -58.5 25.5t-23.5 60.5z" />
<glyph unicode="&#x309;" d="M-689 1556.5q1 4.5 9 8.5q39 27 99.5 41t121.5 14q129 0 193.5 -51t64.5 -142q0 -88 -61.5 -139t-145.5 -51v-51q0 -47 -47 -47h-51q-47 0 -47 47v86q0 63 72 63q76 0 105.5 20.5t29.5 67.5q0 41 -31 60.5t-94 19.5q-80 0 -162 -41q-12 -6 -18 4l-35 78q-4 8 -3 12.5z " />
<glyph unicode="&#x30a;" d="M-231 1352q0 96 67.5 164.5t163.5 68.5t164.5 -68.5t68.5 -164.5t-68.5 -164t-164.5 -68t-163.5 67.5t-67.5 164.5zM-125 1352q0 -51 36 -88t89 -37t89 36.5t36 88.5q0 53 -36 89t-89 36t-89 -36t-36 -89z" />
<glyph unicode="&#x30b;" d="M-377 1194q0 8 6 20l140 279q12 23 22 31t39 8h94q39 0 39 -25q0 -10 -8 -24l-174 -279q-14 -20 -25.5 -27.5t-38.5 -7.5h-59q-16 0 -25.5 7.5t-9.5 17.5zM-10 1194q0 12 4 20l139 279q12 23 22.5 31t39.5 8h94q18 0 29.5 -7t11.5 -20q0 -12 -8 -22l-177 -279 q-14 -20 -25 -27.5t-38 -7.5h-59q-33 0 -33 25z" />
<glyph unicode="&#x30c;" d="M-332 1534q0 20 27 20h82q29 0 39 -6t24 -26l160 -234l158 234q14 20 24.5 26t38.5 6h82q29 0 29 -22q0 -12 -13 -29l-221 -305q-18 -25 -28.5 -32t-34.5 -7h-70q-24 0 -34.5 7.5t-28.5 31.5l-221 305q-12 18 -13 31z" />
<glyph unicode="&#x31b;" d="M-195 1110v145q113 0 159 51.5t46 180.5q0 27 8.5 37t30.5 10h92q39 0 39 -45q0 -193 -93 -286t-282 -93z" />
<glyph unicode="&#x323;" d="M-590 -233q0 35 23.5 60.5t58.5 25.5h35q37 0 59.5 -25t22.5 -61v-33q0 -37 -22.5 -61.5t-59.5 -24.5h-35q-35 0 -58.5 25.5t-23.5 60.5v33z" />
<glyph unicode="&#x324;" d="M-297 -233q0 35 23.5 60.5t58.5 25.5h35q35 0 58.5 -26t23.5 -60v-33q0 -37 -22.5 -61.5t-59.5 -24.5h-35q-35 0 -58.5 25.5t-23.5 60.5v33zM100 -233q0 35 23.5 60.5t58.5 25.5h35q35 0 58.5 -26t23.5 -60v-33q0 -37 -22.5 -61.5t-59.5 -24.5h-35q-35 0 -58.5 25.5 t-23.5 60.5v33z" />
<glyph unicode="&#x326;" d="M-373 -436l4 18l97 303q8 25 19 33t40 8h78q37 0 37 -22q0 -12 -6 -27l-132 -307q-12 -29 -51 -29h-57q-29 0 -29 23z" />
<glyph unicode="&#x327;" d="M-154 -412l23 54q6 16 18 16q2 0 19 -8q41 -23 96 -23q47 0 66.5 15.5t19.5 52.5q0 45 -30.5 59.5t-100.5 14.5h-29q-16 0 -21 9t1 23l55 140q6 16 15.5 22t29.5 6h92q25 0 25 -16q0 -10 -4 -16l-47 -103q74 -4 113.5 -41t39.5 -110q0 -78 -55 -121t-156 -43 q-43 0 -82.5 9t-66.5 23q-16 10 -20.5 18.5t-0.5 18.5z" />
<glyph unicode="&#x328;" d="M-258 -309q0 57 29.5 116.5t95.5 135.5q14 16 23.5 21t27.5 5h82q18 0 24.5 -10t-4.5 -22q-70 -84 -94 -132.5t-24 -93.5q0 -55 49 -55q29 0 45 8q12 4 14 4q8 0 15 -14l26 -55q2 -4 2 -13q0 -12 -22 -22q-39 -20 -125 -21q-80 0 -122 42t-42 106z" />
<glyph unicode="&#x32e;" d="M-313 -113q0 16 9 26.5t23 10.5h93q20 0 27 -9t7 -30q0 -86 33 -133t121 -47t121 47t33 133q0 20 7 29.5t27 9.5h93q14 0 23 -10t9 -27q0 -147 -79.5 -235t-233.5 -88q-156 0 -234.5 88t-78.5 235z" />
<glyph unicode="&#x331;" d="M-334 -219q0 31 13.5 45t46.5 14h550q33 0 47.5 -14t14.5 -45v-27q0 -31 -14.5 -43t-47.5 -12h-550q-33 0 -46.5 12.5t-13.5 42.5v27z" />
<glyph unicode="&#x394;" horiz-adv-x="1529" d="M98 43q0 14 6 33l576 1360q10 23 18.5 31t28.5 8h76q20 0 29.5 -8.5t17.5 -30.5l573 -1360q8 -16 9 -35q0 -18 -12.5 -29.5t-37.5 -11.5h-1235q-49 0 -49 43zM326 150h876l-438 1046z" />
<glyph unicode="&#x3a9;" horiz-adv-x="1589" d="M96 55v43q0 33 13.5 45.5t42.5 12.5h313q-156 86 -252 236.5t-96 348.5q0 188 79.5 344t232.5 247t366 91t365.5 -91t232.5 -246.5t80 -344.5q0 -199 -96.5 -349t-252.5 -236h314q31 0 43 -12.5t12 -45.5v-43q0 -29 -12.5 -42t-40.5 -13h-426q-45 0 -63.5 17.5 t-18.5 54.5v49q0 31 10 52.5t43 43.5q156 98 230.5 217t74.5 307q0 166 -62.5 288t-175 186.5t-259.5 64.5q-145 0 -257 -64.5t-174.5 -186.5t-62.5 -288q0 -188 75 -307t230 -217q33 -23 43 -44t10 -52v-49q0 -37 -18 -54.5t-64 -17.5h-425q-29 0 -41.5 13.5t-12.5 41.5z " />
<glyph unicode="&#x3bc;" horiz-adv-x="1124" d="M96 -299v1221q0 61 62 61h63q61 0 62 -61v-584q0 -119 63.5 -173t183.5 -54q131 0 221.5 71.5t90.5 184.5v555q0 61 63 61h62q35 0 48 -14.5t13 -46.5v-871q0 -29 -9 -40t-36 -11h-70q-23 0 -32 10t-9 33l-4 98q-66 -80 -151.5 -122t-212.5 -42q-139 0 -221 76v-352 q0 -31 -14.5 -46t-47.5 -15h-63q-62 0 -62 61z" />
<glyph unicode="&#x3c0;" horiz-adv-x="1378" d="M76 889v37q0 31 13 44t46 13h936q33 0 46 -13.5t13 -43.5v-37q0 -31 -13 -43t-46 -12h-98v-590q0 -72 24.5 -101.5t77.5 -29.5q41 0 72 10t67 35q4 2 9.5 5t9.5 3q6 0 18 -19l45 -71q6 -8 7 -17q0 -12 -23 -28q-35 -25 -96.5 -43.5t-114.5 -18.5q-143 0 -209.5 71 t-66.5 210v584h-375v-773q0 -61 -64 -61h-55q-63 0 -63 61v773h-101q-33 0 -46 12t-13 43z" />
<glyph unicode="&#xe01;" horiz-adv-x="1267" d="M96 870q0 23 17 37q227 199 520 199q260 0 378.5 -119t118.5 -317v-609q0 -31 -14 -46t-47 -15h-61q-63 0 -64 61v615q0 143 -74.5 214t-238.5 71q-102 0 -190.5 -31t-151.5 -84l35 -76q16 -37 23 -64.5t7 -72.5v-572q0 -61 -63 -61h-62q-32 0 -46.5 15.5t-14.5 45.5v629 l-55 127q-16 33 -17 53z" />
<glyph unicode="&#xe02;" horiz-adv-x="1153" d="M96 969v59q0 25 10.5 36t36.5 11h181q80 0 105.5 -30.5t25.5 -106.5v-119q0 -31 -5.5 -46t-25.5 -28q-72 -47 -105.5 -110.5t-33.5 -163.5v-133q0 -104 73.5 -164.5t202.5 -60.5q135 0 201.5 54t66.5 171v676q0 61 64 61h61q33 0 47.5 -15.5t14.5 -45.5v-633 q0 -199 -111.5 -305.5t-343.5 -106.5q-215 0 -338 103.5t-123 273.5v127q0 125 47.5 207t135.5 139v58q0 27 -10.5 35t-39.5 8h-88q-27 0 -38 11t-11 38z" />
<glyph unicode="&#xe03;" horiz-adv-x="1157" d="M102 877v151q0 47 48 47h51q47 0 47 -47v-10q20 23 56 40t79 17q119 0 119 -131v-129q0 -35 -6.5 -52.5t-26.5 -29.5q-84 -45 -132 -111.5t-48 -170.5v-109q0 -104 72.5 -166.5t199.5 -62.5t200 56t73 169v676q0 61 63 61h61q33 0 47.5 -15.5t14.5 -45.5v-660 q0 -174 -121 -279.5t-338 -105.5q-141 0 -244.5 48.5t-158 133.5t-54.5 193v92q0 123 71 225.5t173 151.5v82q0 23 -9 33t-32 10q-18 0 -37.5 -13.5t-29.5 -29.5v-16q0 -49 -47 -50h-43q-47 0 -48 48z" />
<glyph unicode="&#xe04;" horiz-adv-x="1255" d="M137 61v646q0 182 124 290.5t366 108.5t366.5 -107.5t124.5 -291.5v-646q0 -61 -63 -61h-62q-33 0 -47 15.5t-14 45.5v654q0 119 -79 183.5t-226 64.5t-225 -64.5t-78 -183.5v-293q90 145 249 145h60q39 0 39 -43v-67q0 -25 -10.5 -34t-30.5 -9h-60q-111 0 -179 -89 t-68 -216v-48q0 -31 -14.5 -46t-47.5 -15h-63q-62 0 -62 61z" />
<glyph unicode="&#xe05;" horiz-adv-x="1255" d="M137 61v764q0 129 74 205t205 76q139 0 213 -98q74 98 213 98q141 0 208.5 -74t67.5 -207v-764q0 -61 -63 -61h-62q-33 0 -47 15.5t-14 45.5v746q0 82 -31 119t-108 37q-47 0 -76 -18.5t-53 -51.5q-14 -23 -39 -23t-39 23q-25 33 -53.5 51.5t-75.5 18.5q-72 0 -107 -38 t-35 -118v-391q94 152 258 151h60q39 0 39 -43v-67q0 -25 -10.5 -34t-30.5 -9h-60q-111 0 -179 -89t-68 -216v-48q0 -31 -14.5 -46t-47.5 -15h-63q-62 0 -62 61z" />
<glyph unicode="&#xe06;" horiz-adv-x="1216" d="M96 911v117q0 47 47 47h52q47 0 47 -47v-10q23 25 57.5 41t77.5 16q53 0 80.5 -28.5t31.5 -79.5v-152q0 -33 -6 -50t-26 -32q-57 -43 -90 -75.5t-53.5 -84t-20.5 -129.5v-71q0 -63 49 -123t129 -97.5t168 -37.5q131 0 192.5 57t61.5 184v658q0 61 63 61h62q33 0 47 -15.5 t14 -45.5v-656q0 -186 -108.5 -287.5t-286.5 -101.5q-275 1 -416 181v-99q0 -29 -11 -40t-42 -11h-57q-29 0 -40.5 14.5t-11.5 42.5v365q0 133 60.5 235.5t175.5 157.5v80q0 23 -9 33t-32 10q-18 0 -37.5 -13.5t-30.5 -29.5v-16q0 -49 -47 -50h-43q-47 0 -47 82z" />
<glyph unicode="&#xe07;" horiz-adv-x="1216" d="M106 700q0 29 25 37l70 23q16 4 22 4q29 0 43 -43l142 -440q29 -90 83 -130t166 -40q156 0 227.5 107.5t71.5 330.5q0 217 -61 314.5t-203 97.5q-80 0 -145 -25l-17 -4q-16 0 -24 24l-21 80q-2 4 -2 11q0 8 5.5 13t15.5 9q31 16 86 26.5t115 10.5q221 0 328.5 -151.5 t107.5 -409.5q0 -281 -123 -428.5t-365 -147.5q-164 0 -263 70t-146 215l-133 420q-4 16 -5 26z" />
<glyph unicode="&#xe08;" horiz-adv-x="1181" d="M98 1004q0 14 25 26q78 37 189.5 56.5t224.5 19.5q307 0 427.5 -150.5t120.5 -429.5q0 -287 -124.5 -422t-333.5 -135q-197 0 -297.5 87t-100.5 243v123h-79q-27 0 -38.5 10t-11.5 39v55q0 47 47 47h189q33 0 46 -13t13 -46v-195q0 -106 53.5 -156t178.5 -50 q141 0 207.5 104.5t66.5 308.5q0 233 -92 335t-301 102q-178 0 -320 -66q-12 -6 -22 -6q-12 0 -27 24l-35 68q-6 12 -6 21z" />
<glyph unicode="&#xe09;" horiz-adv-x="1206" d="M96 1004q0 14 25 26q78 37 189.5 56.5t224.5 19.5q299 0 416.5 -127t117.5 -373v-549q0 -29 -11 -43t-40 -14h-49q-31 0 -41 11.5t-13 39.5l-8 94q-63 -92 -153 -134t-242 -42q-178 0 -282.5 101.5t-104.5 287.5v201q0 61 63 62h62q63 0 63 -62v-203q0 -125 62.5 -185 t199.5 -60q92 0 162 38.5t108 101t38 132.5v225q0 193 -87 274t-282 81q-92 0 -177 -17.5t-151 -48.5q-12 -6 -22 -6t-27 24l-35 68q-6 12 -6 21z" />
<glyph unicode="&#xe0a;" horiz-adv-x="1153" d="M96 969v59q0 25 10.5 36t36.5 11h181q80 0 105.5 -30.5t25.5 -106.5v-119q0 -31 -5.5 -46t-25.5 -28q-76 -51 -107.5 -109t-31.5 -165v-133q0 -104 70.5 -164.5t199.5 -60.5q137 0 205.5 55t68.5 170v149q0 94 -32.5 143.5t-110.5 90.5q-4 2 -14 9t-14.5 15.5t-4.5 24.5 v25q0 16 6.5 24t16.5 15.5t14 9.5q72 49 102.5 99t43.5 134q2 18 9 23.5t23 5.5h131q14 0 19.5 -5t3.5 -20q-16 -104 -58 -170.5t-130 -122.5q100 -47 141 -125.5t41 -187.5v-108q0 -397 -461 -398q-213 0 -334 102.5t-121 274.5v127q0 125 47.5 209t135.5 141v54 q0 27 -10.5 35t-39.5 8h-88q-27 0 -38 11t-11 38z" />
<glyph unicode="&#xe0b;" horiz-adv-x="1157" d="M102 877v151q0 47 48 47h51q47 0 47 -47v-10q20 23 56 40t79 17q119 0 119 -131v-129q0 -35 -6.5 -52.5t-26.5 -29.5q-84 -45 -132 -111.5t-48 -170.5v-109q0 -104 72.5 -166.5t199.5 -62.5t200 56t73 169v149q0 92 -33 140.5t-111 93.5q-20 10 -26.5 18.5t-6.5 30.5v25 q0 16 6.5 24t16.5 15.5t14 9.5q72 49 102.5 99t43.5 134q2 18 9 23.5t23 5.5h132q14 0 19 -5t3 -20q-16 -104 -58 -170.5t-130 -122.5q100 -47 141 -125.5t41 -187.5v-121q0 -174 -121 -279.5t-338 -105.5q-141 0 -244.5 48.5t-158 133.5t-54.5 193v92q0 123 71 225.5 t173 151.5v82q0 23 -9 33t-32 10q-18 0 -37.5 -13.5t-29.5 -29.5v-16q0 -49 -47 -50h-43q-47 0 -48 48z" />
<glyph unicode="&#xe0c;" horiz-adv-x="1966" d="M96 870q0 23 17 37q199 199 497 199q229 0 353 -102.5t124 -333.5v-297q0 -70 37 -130.5t105.5 -96t161.5 -35.5q131 0 191 62.5t60 182.5v658q0 61 64 61h61q33 0 47.5 -15.5t14.5 -45.5v-656q0 -186 -101.5 -287.5t-275.5 -101.5q-145 0 -235.5 44t-153.5 137v-99 q0 -29 -11.5 -40t-41.5 -11h-58q-29 0 -40 14.5t-11 42.5v619q0 145 -67.5 215t-223.5 70q-188 0 -323 -115h2l35 -76q16 -37 23 -64.5t7 -72.5v-424q0 -33 9.5 -43t42.5 -10h77q27 0 37 -11.5t10 -35.5v-60q0 -27 -11 -38t-38 -11h-182q-80 0 -105.5 30.5t-25.5 106.5v553 l-55 127q-16 33 -17 53z" />
<glyph unicode="&#xe0d;" horiz-adv-x="1972" d="M96 870q0 23 17 37q233 199 493 199q246 0 363.5 -106.5t117.5 -354.5v-129q0 -127 68 -191.5t213 -64.5q281 0 281 246v508q0 31 14 46t47 15h62q63 0 63 -61v-731q0 -260 -110.5 -408.5t-378.5 -148.5q-210 -1 -347 75q-23 12 -12 37l37 72q10 25 25 24q8 0 20 -6 q102 -57 277 -57q168 0 236.5 85t68.5 265q-47 -49 -122 -75.5t-167 -26.5q-223 0 -342 105.5t-119 299.5v152q0 147 -65.5 216t-225.5 69q-104 0 -181 -29t-142 -86l37 -76q18 -35 24 -63.5t6 -73.5v-424q0 -33 9.5 -43t42.5 -10h77q27 0 37 -11.5t10 -35.5v-60 q0 -27 -11 -38t-38 -11h-182q-80 0 -105.5 30.5t-25.5 106.5v553l-55 127q-16 33 -17 53z" />
<glyph unicode="&#xe0e;" horiz-adv-x="1314" d="M70 49v60q0 25 10 36t37 11h78q33 0 42 10t9 43v479l-86 129q-18 29 -19 51q0 23 21 43q211 195 516 195q256 0 378 -116t122 -306v-944q0 -51 -18.5 -87t-63.5 -36q-52 0 -71 6t-54 27q-123 68 -277 67q-156 0 -280 -96q-10 -6 -17 -6q-8 0 -20 16l-49 68q-8 10 -9 18 q0 8 15 19q76 57 168 88t186 31t170 -17.5t133 -60.5v899q0 143 -75.5 214t-237.5 71q-102 0 -187 -31t-149 -84l53 -82q23 -33 30 -60.5t7 -80.5v-486q0 -76 -25.5 -106.5t-105.5 -30.5h-182q-27 0 -38 11.5t-11 37.5z" />
<glyph unicode="&#xe0f;" horiz-adv-x="1314" d="M70 49v60q0 25 10 36t37 11h78q33 0 42 10t9 43v479l-86 129q-18 29 -19 51q0 23 21 43q211 195 516 195q256 0 378 -116t122 -306v-803q0 -125 -60.5 -203.5t-193.5 -78.5q-196 0 -262 141q-29 -68 -82.5 -93.5t-130.5 -25.5h-132q-20 0 -30.5 9.5t-10.5 31.5v68 q0 39 39 39h156q53 0 76.5 15t40.5 52q10 23 17 31t26 8h51q16 0 25.5 -8t17.5 -29q23 -49 56.5 -72.5t88.5 -23.5q66 0 93.5 28.5t27.5 94.5v811q0 143 -75.5 214t-237.5 71q-102 0 -187 -31t-149 -84l53 -82q23 -33 30 -60.5t7 -80.5v-486q0 -76 -25.5 -106.5 t-105.5 -30.5h-182q-27 0 -38 11.5t-11 37.5z" />
<glyph unicode="&#xe10;" horiz-adv-x="1193" d="M100 471v55q0 47 47 47h189q33 0 46 -13t13 -46v-195q0 -106 53.5 -156t178.5 -50q141 0 207.5 104.5t66.5 308.5q0 160 -38 254t-123 138.5t-232 44.5q-176 0 -322 -62q-12 -6 -24 -6q-16 0 -25 25l-33 63l-4 16q0 23 29 35q76 33 185.5 52.5t222.5 19.5q152 0 249 -37 q49 35 107.5 65.5t93.5 41.5q25 8 43 8q25 0 31 -23l26 -80q4 -12 5 -18q0 -14 -21 -23l-139 -63q84 -70 118.5 -182.5t34.5 -268.5q0 -317 -159 -456q160 -82 159 -236q0 -102 -69.5 -166.5t-177.5 -64.5q-95 0 -166.5 32.5t-98.5 94.5q-47 -109 -217 -109h-125 q-20 0 -30.5 9.5t-10.5 31.5v59q0 39 39 39h152q55 0 78.5 13.5t40.5 52.5q8 23 17 31t30 8h45q18 0 27.5 -8.5t19.5 -28.5q23 -49 60.5 -71.5t97.5 -22.5q129 0 129 119q0 53 -24.5 88.5t-82.5 66.5q-84 -39 -192 -39q-197 0 -297.5 87t-100.5 243v123h-79q-27 0 -38.5 10 t-11.5 39z" />
<glyph unicode="&#xe11;" horiz-adv-x="1210" d="M96 877v151q0 47 47 47h52q47 0 47 -47v-10q53 57 133 57q82 0 102 -65q115 96 283 96q150 0 231.5 -82t81.5 -240v-723q0 -61 -61 -61h-62q-63 0 -63 61v721q0 176 -174 176q-137 0 -219 -88v-71q0 -33 -5.5 -49.5t-25.5 -30.5q-72 -53 -100.5 -110.5t-28.5 -166.5v-381 q0 -61 -62 -61h-63q-33 0 -47.5 15.5t-14.5 45.5v375q0 131 50.5 226.5t144.5 140.5v92q0 23 -9 33t-32 10q-18 0 -37.5 -13.5t-30.5 -29.5v-16q0 -49 -47 -50h-43q-47 0 -47 48z" />
<glyph unicode="&#xe12;" horiz-adv-x="2025" d="M96 512q0 195 50.5 329t136.5 199.5t194 65.5q123 0 180 -98q74 98 211 98t207 -82t70 -217v-434q0 -66 44 -125.5t116.5 -96t152.5 -36.5q129 0 185.5 59t56.5 182v658q0 61 63 61h62q63 0 63 -61v-656q0 -186 -102.5 -287.5t-276.5 -101.5q-139 0 -232 45t-157 136v-89 q0 -31 -14 -46t-47 -15h-41q-33 0 -45 14.5t-12 42.5v750q0 76 -32 115t-110 39q-41 0 -66.5 -19.5t-56.5 -54.5q-18 -23 -39 -23q-27 0 -41 23q-31 43 -50 59.5t-56 16.5q-106 0 -168.5 -113t-62.5 -336q0 -193 71.5 -301.5t204.5 -108.5q80 0 145 25l17 4q16 0 24 -24 l21 -70q2 -4 2 -10t-5 -12.5t-16 -10.5q-31 -16 -86 -26.5t-114 -10.5q-217 0 -332 151.5t-115 391.5z" />
<glyph unicode="&#xe13;" horiz-adv-x="1966" d="M96 870q0 23 17 37q199 199 497 199q229 0 353 -102.5t124 -333.5v-318q0 -121 60.5 -183.5t191.5 -62.5q90 0 160 37t106.5 98.5t36.5 131.5v641q0 31 14.5 46t47.5 15h61q63 0 64 -61v-957q0 -29 -11.5 -43t-39.5 -14h-56q-31 0 -42 11.5t-11 39.5v84 q-59 -86 -142 -126t-218 -40q-193 0 -300.5 100.5t-107.5 284.5v322q0 145 -67.5 215t-223.5 70q-188 0 -323 -115h2l35 -76q16 -37 23 -64.5t7 -72.5v-424q0 -33 9.5 -43t42.5 -10h77q27 0 37 -11.5t10 -35.5v-60q0 -27 -11 -38t-38 -11h-182q-80 0 -105.5 30.5 t-25.5 106.5v553l-55 127q-16 33 -17 53z" />
<glyph unicode="&#xe14;" horiz-adv-x="1318" d="M96 512q0 297 148.5 445.5t425.5 148.5q264 0 388 -125t124 -322v-598q0 -61 -64 -61h-61q-63 0 -64 61v609q0 139 -75.5 215t-247.5 76q-197 0 -294 -109t-97 -338q0 -193 71.5 -301.5t204.5 -108.5q80 0 145 25l17 4q16 0 24 -24l21 -70q2 -4 2 -10t-5 -12.5t-16 -10.5 q-31 -16 -86 -26.5t-114 -10.5q-217 0 -332 151.5t-115 391.5z" />
<glyph unicode="&#xe15;" horiz-adv-x="1318" d="M96 512q0 195 52.5 329t141.5 199.5t199 65.5q127 0 185 -98q35 45 93 71.5t132 26.5q139 0 211 -78t72 -211v-756q0 -61 -64 -61h-61q-63 0 -64 61v746q0 76 -31.5 115t-105.5 39q-84 0 -143 -74q-18 -23 -39 -23q-20 0 -41 23q-31 35 -54.5 54.5t-60.5 19.5 q-109 0 -174 -113t-65 -334q0 -193 71.5 -301.5t204.5 -108.5q80 0 145 25l17 4q16 0 24 -24l21 -70q2 -4 2 -10t-5 -12.5t-16 -10.5q-31 -16 -86 -26.5t-114 -10.5q-217 0 -332 151.5t-115 391.5z" />
<glyph unicode="&#xe16;" horiz-adv-x="1267" d="M96 870q0 23 17 37q227 199 520 199q256 0 376.5 -114.5t120.5 -307.5v-623q0 -31 -14 -46t-47 -15h-61q-63 0 -64 61v615q0 143 -75.5 214t-237.5 71q-102 0 -190.5 -31t-151.5 -84l35 -76q16 -37 23 -64.5t7 -72.5v-424q0 -33 9.5 -43t42.5 -10h77q27 0 37 -11.5 t10 -35.5v-60q0 -27 -11 -38t-38 -11h-182q-80 0 -105.5 30.5t-25.5 106.5v553l-55 127q-16 33 -17 53z" />
<glyph unicode="&#xe17;" horiz-adv-x="1247" d="M137 61v957q0 29 11.5 43t39.5 14h58q31 0 42 -11t11 -40v-98q141 180 416 180q178 0 286.5 -101.5t108.5 -287.5v-656q0 -31 -14.5 -46t-46.5 -15h-62q-63 0 -63 61v658q0 127 -61.5 184.5t-192.5 57.5q-88 0 -168 -38t-129 -97.5t-49 -123.5v-641q0 -31 -14.5 -46 t-47.5 -15h-61q-64 0 -64 61z" />
<glyph unicode="&#xe18;" horiz-adv-x="1132" d="M98 342v68q0 29 11.5 40t37.5 11h70q27 0 39 -12.5t12 -38.5v-74q0 -115 73 -172.5t224 -57.5q291 0 291 205q0 76 -35 115t-97 60.5t-224 62.5q-139 35 -218 64.5t-130.5 84t-51.5 142.5q0 137 118 201.5t333 64.5q123 0 232.5 -20.5t189.5 -55.5q33 -12 33 -35l-5 -16 l-32 -70q-10 -23 -25 -22q-10 0 -22 6q-68 29 -165.5 48.5t-187.5 19.5q-160 0 -224 -27t-64 -98q0 -45 29.5 -74t80.5 -46.5t156 -43.5l90 -23q147 -39 231 -79t126 -103.5t42 -163.5q0 -152 -125 -243t-342 -91q-215 2 -343 96.5t-128 276.5z" />
<glyph unicode="&#xe19;" horiz-adv-x="1247" d="M137 358v656q0 31 14.5 46t47.5 15h61q63 0 64 -61v-658q0 -127 61 -184t193 -57q88 0 167.5 37.5t129 97t49.5 123.5v641q0 31 14 46t47 15h62q63 0 63 -61v-957q0 -29 -11.5 -43t-39.5 -14h-58q-31 0 -42 11.5t-11 39.5v99q-141 -180 -416 -181q-178 0 -286.5 101.5 t-108.5 287.5z" />
<glyph unicode="&#xe1a;" horiz-adv-x="1265" d="M137 362v652q0 61 62 61h63q33 0 47.5 -15.5t14.5 -45.5v-670q0 -115 79.5 -173t229.5 -58t229.5 58t79.5 173v670q0 31 14.5 46t47.5 15h61q63 0 63 -61v-652q0 -182 -125.5 -287.5t-369.5 -105.5t-370 105.5t-126 287.5z" />
<glyph unicode="&#xe1b;" horiz-adv-x="1265" d="M137 362v652q0 61 62 61h63q33 0 47.5 -15.5t14.5 -45.5v-670q0 -115 79.5 -173t229.5 -58t229.5 58t79.5 173v1028q0 31 14.5 46.5t47.5 15.5h61q63 0 63 -62v-1010q0 -182 -125.5 -287.5t-369.5 -105.5t-370 105.5t-126 287.5z" />
<glyph unicode="&#xe1c;" horiz-adv-x="1282" d="M137 53v961q0 61 62 61h223q29 0 41 -11t12 -38v-39q0 -53 -53 -53h-119v-674l285 492q10 18 21.5 25t29.5 7q23 0 34 -7t21 -23l285 -494v754q0 31 14.5 46t46.5 15h43q61 0 62 -61v-961q0 -53 -53 -53h-48q-35 0 -50 6t-29 29l-326 565l-322 -565q-14 -23 -29.5 -29 t-49.5 -6h-48q-53 0 -53 53z" />
<glyph unicode="&#xe1d;" horiz-adv-x="1282" d="M137 53v961q0 61 62 61h223q29 0 41 -11t12 -38v-39q0 -53 -53 -53h-119v-674l285 492q10 18 21.5 25t29.5 7q23 0 34 -7t21 -23l285 -494v1102q0 31 14.5 46t46.5 15h43q61 0 62 -61v-1309q0 -53 -53 -53h-48q-35 0 -50 6t-29 29l-326 565l-322 -565q-14 -23 -29.5 -29 t-49.5 -6h-48q-53 0 -53 53z" />
<glyph unicode="&#xe1e;" horiz-adv-x="1435" d="M78 1047q0 29 33 28h90q27 0 37 -9t14 -34l176 -756l211 654q8 20 16.5 29.5t28.5 9.5h70q20 0 28.5 -9.5t16.5 -29.5l211 -654l176 756q4 25 14 34t37 9h90q43 0 31 -45l-244 -987q-6 -25 -17.5 -34t-33.5 -9h-74q-20 0 -30.5 8t-16.5 31l-223 698l-223 -698 q-6 -23 -16.5 -31t-30.5 -8h-74q-23 0 -34 9t-17 34l-244 987q-2 6 -2 17z" />
<glyph unicode="&#xe1f;" horiz-adv-x="1402" d="M78 1047q0 29 33 28h90q27 0 37 -9t14 -34l176 -756l211 654q8 20 16.5 29.5t28.5 9.5h70q20 0 28.5 -9.5t16.5 -29.5l211 -654l243 1074q4 25 14.5 34t37.5 9h90q43 0 30 -45l-311 -1305q-6 -25 -17.5 -34t-33.5 -9h-74q-20 0 -30.5 8t-16.5 31l-223 698l-223 -698 q-6 -23 -16.5 -31t-30.5 -8h-74q-23 0 -34 9t-17 34l-244 987q-2 6 -2 17z" />
<glyph unicode="&#xe20;" horiz-adv-x="1286" d="M41 49v60q0 25 10 36t37 11h78q33 0 42 10t9 43v479l-86 129q-18 29 -18 51q0 23 20 43q211 195 516 195q256 0 378 -116t122 -306v-623q0 -31 -14.5 -46t-47.5 -15h-61q-63 0 -63 61v615q0 143 -76 214t-238 71q-102 0 -187 -31t-149 -84l54 -82q23 -33 29.5 -60.5 t6.5 -80.5v-486q0 -76 -25.5 -106.5t-105.5 -30.5h-182q-27 0 -38 11.5t-11 37.5z" />
<glyph unicode="&#xe21;" horiz-adv-x="1247" d="M137 57v957q0 61 64 61h61q33 0 47.5 -15.5t14.5 -45.5v-641q0 -63 49 -123t129 -97.5t168 -37.5q131 0 192.5 57t61.5 184v658q0 61 63 61h62q33 0 47 -15.5t14 -45.5v-656q0 -186 -108.5 -287.5t-286.5 -101.5q-275 1 -416 181v-99q0 -29 -11.5 -40t-41.5 -11h-58 q-29 0 -40 14.5t-11 42.5z" />
<glyph unicode="&#xe22;" horiz-adv-x="1226" d="M96 309q0 211 187 266q-88 35 -132.5 95.5t-44.5 154.5q0 119 81 200t223 81q111 0 192 -37q23 -10 28 -20.5t-1 -26.5l-23 -55q-8 -23 -22 -23q-12 0 -19 4q-49 25 -129 25q-72 0 -113.5 -42t-41.5 -116q0 -88 57 -130t174 -42h41q25 0 36 -9t11 -34v-43q0 -45 -47 -45 h-31q-123 0 -182 -46t-59 -153q0 -201 309 -200q168 0 240.5 76.5t72.5 242.5v582q0 61 62 61h63q33 0 47.5 -15.5t14.5 -45.5v-580q0 -215 -114 -340t-384 -125q-221 0 -358.5 82t-137.5 258z" />
<glyph unicode="&#xe23;" horiz-adv-x="1077" d="M101 66.5q-7 11.5 1 27.5l33 74q8 23 25 22q10 0 24 -6q61 -31 155.5 -50t186.5 -19q131 0 202 32.5t71 110.5q0 59 -33 95t-96.5 63.5t-206.5 77.5q-166 55 -250 123.5t-84 193.5q0 141 116.5 218t319.5 77q117 0 200 -17.5t165 -56.5q31 -14 31 -33q0 -12 -5 -18 l-30 -68q-10 -23 -25 -22q-6 0 -22 6q-61 29 -143.5 46.5t-170.5 17.5q-127 0 -191.5 -34t-64.5 -116q0 -53 30 -88t83 -58.5t166 -62.5l45 -16q131 -45 203.5 -86t108.5 -98.5t36 -143.5q0 -135 -118 -212t-322 -77q-117 0 -224.5 19.5t-185.5 56.5q-23 10 -30 21.5z" />
<glyph unicode="&#xe24;" horiz-adv-x="1267" d="M96 870q0 23 17 37q227 199 520 199q256 0 376.5 -114.5t120.5 -307.5v-942q0 -31 -14 -46t-47 -15h-61q-64 0 -64 61v934q0 143 -75.5 214t-237.5 71q-102 0 -190.5 -31t-151.5 -84l35 -76q16 -37 23 -64.5t7 -72.5v-424q0 -33 9.5 -43t42.5 -10h77q27 0 37 -11.5 t10 -35.5v-60q0 -27 -11 -38t-38 -11h-182q-80 0 -105.5 30.5t-25.5 106.5v553l-55 127q-16 33 -17 53z" />
<glyph unicode="&#xe25;" horiz-adv-x="1239" d="M96 279q0 180 119 255.5t330 75.5h370v88q0 137 -71.5 202t-245.5 65q-94 0 -182 -19.5t-156 -50.5q-12 -6 -22 -6q-12 0 -27 24l-35 68q-6 12 -6 20q0 14 25 27q78 37 185 57.5t222 20.5q260 0 380 -104.5t120 -327.5v-613q0 -31 -14.5 -46t-47.5 -15h-61q-63 0 -64 61 v406h-364q-137 0 -208 -42t-71 -144q0 -176 201 -177q82 0 148 25q12 4 18 4q14 0 20 -22l19 -66q2 -4 2 -12q0 -16 -18 -25q-37 -18 -96.5 -28.5t-127.5 -10.5q-147 0 -244.5 79t-97.5 231z" />
<glyph unicode="&#xe26;" horiz-adv-x="1286" d="M41 49v60q0 25 10 36t37 11h78q33 0 42 10t9 43v479l-86 129q-18 29 -18 51q0 23 20 43q211 195 516 195q256 0 378 -116t122 -306v-942q0 -31 -14.5 -46t-47.5 -15h-61q-63 0 -63 61v934q0 143 -76 214t-238 71q-102 0 -187 -31t-149 -84l54 -82q23 -33 29.5 -60.5 t6.5 -80.5v-486q0 -76 -25.5 -106.5t-105.5 -30.5h-182q-27 0 -38 11.5t-11 37.5z" />
<glyph unicode="&#xe27;" horiz-adv-x="1099" d="M14 76q0 12 4 18l35 68q12 23 25 22q6 0 22 -6q137 -63 312 -63q188 0 297.5 99t109.5 323q0 225 -102.5 324.5t-302.5 99.5q-170 0 -301 -64q-14 -6 -23 -6q-12 0 -24 22l-35 68q-4 6 -4 18q0 18 30 33q80 37 165 55.5t192 18.5q287 0 438.5 -140.5t151.5 -428.5 q0 -281 -155 -424.5t-435 -143.5q-211 0 -369 74q-31 16 -31 33z" />
<glyph unicode="&#xe28;" horiz-adv-x="1257" d="M137 61v646q0 182 124 290.5t366 108.5q125 0 229 -35q47 35 105.5 64.5t93.5 40.5q25 8 43 8q23 0 28 -23l29 -80l4 -16q0 -16 -20 -25l-140 -63q63 -49 91 -115.5t28 -154.5v-646q0 -61 -63 -61h-62q-33 0 -47 15.5t-14 45.5v654q0 119 -79 183.5t-226 64.5t-225 -64.5 t-78 -183.5v-293q90 145 249 145h60q39 0 39 -43v-67q0 -25 -10.5 -34t-30.5 -9h-60q-111 0 -179 -89t-68 -216v-48q0 -31 -14.5 -46t-47.5 -15h-63q-62 0 -62 61z" />
<glyph unicode="&#xe29;" horiz-adv-x="1298" d="M137 354v660q0 61 62 61h63q33 0 47.5 -15.5t14.5 -45.5v-670q0 -115 79.5 -173t229.5 -58t229.5 58t79.5 173v182h-182q-27 0 -39 12.5t-12 43.5v41q0 29 12 41t39 12h182v338q0 31 14.5 46t47.5 15h61q63 0 63 -61v-338h76q27 0 38 -12.5t11 -40.5v-41q0 -31 -12 -43.5 t-39 -12.5h-74v-172q0 -180 -124.5 -282.5t-370.5 -102.5t-371 102.5t-125 282.5z" />
<glyph unicode="&#xe2a;" horiz-adv-x="1257" d="M96 279q0 180 119 255.5t330 75.5h370v88q0 137 -71.5 202t-245.5 65q-94 0 -182 -19.5t-156 -50.5q-12 -6 -22 -6q-12 0 -27 24l-35 68q-6 12 -6 20q0 14 25 27q78 37 185 57.5t222 20.5q150 0 254 -37q55 39 116.5 69.5t96.5 39.5q12 4 31 4q12 0 18 -4t10 -17l29 -80 q2 -6 2 -16q0 -16 -20 -25l-133 -61l-5 2q100 -106 101 -307v-613q0 -31 -14.5 -46t-47.5 -15h-61q-63 0 -64 61v406h-364q-137 0 -208 -42t-71 -144q0 -176 201 -177q82 0 148 25q12 4 18 4q14 0 20 -22l19 -66q2 -4 2 -12q0 -16 -18 -25q-37 -18 -96.5 -28.5t-127.5 -10.5 q-147 0 -244.5 79t-97.5 231z" />
<glyph unicode="&#xe2b;" horiz-adv-x="1191" d="M137 61v953q0 61 62 61h61q63 0 64 -61v-297h358q106 0 145 54t39 155v88q0 61 64 61h61q63 0 64 -61v-90q0 -113 -39 -187.5t-135 -95.5q174 -45 174 -283v-297q0 -61 -64 -61h-61q-63 0 -64 61v301q0 100 -40 152.5t-132 52.5h-370v-506q0 -61 -64 -61h-61 q-62 0 -62 61z" />
<glyph unicode="&#xe2c;" horiz-adv-x="1363" d="M78 1047q0 29 33 28h90q27 0 37 -9t14 -34l176 -756l211 654q8 20 16.5 29.5t28.5 9.5h70q20 0 28.5 -9.5t16.5 -29.5l211 -654l102 449q25 104 25 145q0 35 -15.5 60.5t-54.5 44.5q-23 10 -31 19.5t-8 31.5v25q0 23 10.5 34t34.5 19q59 20 86 43.5t36 56.5t17 99l7 51 q4 23 12 31t31 8h90q39 0 34 -39l-8 -64q-14 -104 -48 -161.5t-126 -94.5q90 -51 90 -174q0 -43 -20 -141l-160 -676q-6 -25 -17.5 -34t-33.5 -9h-74q-20 0 -30.5 8t-16.5 31l-223 698l-223 -698q-6 -23 -16.5 -31t-30.5 -8h-74q-23 0 -34 9t-17 34l-244 987q-2 6 -2 17z " />
<glyph unicode="&#xe2d;" horiz-adv-x="1177" d="M96 362v197q0 25 11.5 37t37.5 12h261q25 0 36 -12t11 -37v-45q0 -27 -11.5 -38t-38.5 -11h-133v-121q0 -121 72 -176t215 -55q184 0 262 99t78 331q0 221 -87 320.5t-292 99.5q-178 0 -319 -66q-12 -6 -23 -6q-12 0 -26 24l-35 68q-6 12 -6 21q0 14 24 26 q78 37 189.5 56.5t224.5 19.5q274 0 404 -134t130 -429q0 -573 -516 -574q-233 0 -351 99.5t-118 293.5z" />
<glyph unicode="&#xe2e;" horiz-adv-x="1189" d="M96 362v197q0 25 11.5 37t37.5 12h261q25 0 36 -12t11 -37v-45q0 -27 -11.5 -38t-38.5 -11h-133v-121q0 -121 72 -176t215 -55q184 0 262 99t78 331q0 221 -87 320.5t-292 99.5q-178 0 -319 -66q-12 -6 -23 -6q-12 0 -26 24l-35 68q-6 12 -6 21q0 14 24 26 q78 37 189.5 56.5t224.5 19.5q135 0 244 -35q47 35 105 64.5t93 40.5q25 8 41 8q25 0 31 -23l29 -80l4 -16q0 -16 -23 -25l-129 -61q139 -133 139 -436q0 -573 -516 -574q-233 0 -351 99.5t-118 293.5z" />
<glyph unicode="&#xe2f;" horiz-adv-x="1024" d="M55 815q0 125 80 208t207 83q55 0 91 -6t73 -21q23 -8 29 -18t2 -27l-17 -63q-6 -25 -24 -25q-12 0 -19 4q-25 12 -48 16.5t-60 4.5q-63 0 -102.5 -40t-39.5 -116q0 -92 57.5 -143t172.5 -51q145 0 243 69v324q0 31 14.5 46t47.5 15h61q63 0 64 -61v-953q0 -61 -64 -61 h-61q-33 0 -47.5 15.5t-14.5 45.5v488q-47 -29 -115.5 -48.5t-142.5 -19.5q-178 0 -282.5 87t-104.5 247z" />
<glyph unicode="&#xe30;" horiz-adv-x="677" d="M96 233v119q0 31 9.5 42.5t39.5 11.5h64q31 0 40 -11.5t9 -44.5v-114q145 23 272 22q33 0 42.5 -9t9.5 -40v-59q0 -23 -11.5 -33.5t-40.5 -10.5h-299q-73 0 -104 30t-31 97zM96 768v119q0 31 9.5 42t39.5 11h64q31 0 40 -11t9 -44v-115q145 23 272 23q33 0 42.5 -9.5 t9.5 -40.5v-59q0 -23 -11.5 -33t-40.5 -10h-299q-73 0 -104 29.5t-31 97.5z" />
<glyph unicode="&#xe31;" d="M-606 1425v99q0 35 12 48t47 13h51q31 0 42.5 -13t11.5 -48v-113q127 8 275.5 15.5t211.5 7.5q35 0 44 -9.5t9 -35.5v-56q0 -31 -10 -40t-43 -9h-516q-74 0 -104.5 34t-30.5 107z" />
<glyph unicode="&#xe32;" horiz-adv-x="884" d="M39 1012q0 10 8 17t21 13q123 63 301 64q193 0 287 -90t94 -277v-682q0 -57 -60 -57h-67q-60 0 -60 57v684q0 119 -44 170.5t-163 51.5q-131 0 -237 -56q-20 -8 -23 -8q-14 0 -24 25l-31 73q-2 6 -2 15z" />
<glyph unicode="&#xe33;" horiz-adv-x="886" d="M-465 1409q0 100 67.5 168t168.5 68q102 0 170.5 -68t68.5 -168t-68.5 -166.5t-170.5 -66.5q-101 0 -168.5 66.5t-67.5 166.5zM-354 1409q0 -51 36.5 -88t88.5 -37q51 0 88 37t37 88t-37 87t-88 36t-88 -36t-37 -87zM37 1012q0 10 9 17t22 13q123 63 301 64 q193 0 287 -90t94 -277v-682q0 -57 -60 -57h-67q-60 0 -60 57v684q0 119 -44 170.5t-163 51.5q-131 0 -237 -56q-20 -8 -23 -8q-14 0 -24 25l-31 73q-4 12 -4 15z" />
<glyph unicode="&#xe34;" d="M-1004 1341v31q0 35 12.5 47.5t47.5 12.5h745q33 0 47.5 -14.5t14.5 -45.5v-31q0 -31 -14.5 -44t-47.5 -13h-745q-33 0 -46.5 12.5t-13.5 44.5z" />
<glyph unicode="&#xe35;" d="M-1004 1341v31q0 35 12.5 47.5t47.5 12.5h643v190q0 43 43 43h78q43 0 43 -43v-238q0 -57 -20.5 -78.5t-80.5 -21.5h-706q-33 0 -46.5 12.5t-13.5 44.5z" />
<glyph unicode="&#xe36;" d="M-1004 1341v31q0 35 12.5 47.5t47.5 12.5h442q-8 23 -8 59q0 76 53.5 128t137.5 52q92 0 145 -55t53 -141q0 -94 -63.5 -142.5t-171.5 -48.5h-588q-33 0 -46.5 12.5t-13.5 44.5zM-408 1475q0 -43 23 -67t66 -24t67.5 26t24.5 65q0 41 -26 66.5t-66 25.5q-39 0 -64 -25.5 t-25 -66.5z" />
<glyph unicode="&#xe37;" d="M-1004 1341v31q0 35 12.5 47.5t47.5 12.5h381v190q0 43 43 43h57q43 0 43 -43v-190h139v190q0 43 43 43h58q43 0 43 -43v-238q0 -57 -20.5 -78.5t-80.5 -21.5h-706q-33 0 -46.5 12.5t-13.5 44.5z" />
<glyph unicode="&#xe38;" d="M-420 -182q0 25 10.5 36t36.5 11h176q33 0 46.5 -14.5t13.5 -45.5v-254q0 -31 -14.5 -45t-47.5 -14h-43q-32 0 -46.5 14.5t-14.5 44.5v166h-68q-27 0 -38 10.5t-11 39.5v51z" />
<glyph unicode="&#xe39;" d="M-711 -182q0 25 10.5 36t36.5 11h160q31 0 44.5 -14.5t13.5 -45.5v-153q0 -57 75 -58q76 0 76 58v166q0 47 47 47h60q47 0 47 -47v-185q0 -82 -58.5 -123.5t-171.5 -41.5q-221 -1 -221 163v90h-70q-27 0 -38 11.5t-11 38.5v47z" />
<glyph unicode="&#xe3a;" d="M-336 -233q0 37 24.5 63.5t61.5 26.5h37q37 0 61.5 -27t24.5 -63v-29q0 -39 -23.5 -64.5t-62.5 -25.5h-37q-37 0 -61.5 26.5t-24.5 63.5v29z" />
<glyph unicode="&#xe3f;" horiz-adv-x="1333" d="M137 61v1270q0 61 62 62h313v133q0 31 14.5 46t46.5 15h54q63 0 63 -61v-133h90q201 0 307.5 -100.5t106.5 -268.5q0 -100 -52 -180t-147 -119q242 -76 242 -330q0 -111 -49 -201t-149.5 -142t-243.5 -52h-105v-129q0 -61 -63 -61h-54q-32 0 -46.5 15t-14.5 46v129h-313 q-61 0 -62 61zM324 150h469q135 0 198.5 68.5t63.5 176.5q0 125 -78 188.5t-217 63.5h-436v-497zM324 795h440q119 0 183.5 60t64.5 169q0 117 -58.5 168t-191.5 51h-438v-448z" />
<glyph unicode="&#xe40;" horiz-adv-x="598" d="M137 137v877q0 61 64 61h59q63 0 64 -61v-805q0 -33 9 -43t42 -10h78q27 0 37 -11.5t10 -35.5v-60q0 -27 -11.5 -38t-37.5 -11h-183q-80 0 -105.5 30.5t-25.5 106.5z" />
<glyph unicode="&#xe41;" horiz-adv-x="1114" d="M137 137v877q0 61 64 61h59q63 0 64 -61v-805q0 -33 9 -43t42 -10h78q27 0 37 -11.5t10 -35.5v-60q0 -27 -11.5 -38t-37.5 -11h-183q-80 0 -105.5 30.5t-25.5 106.5zM653 137v877q0 61 64 61h59q63 0 64 -61v-805q0 -33 9 -43t42 -10h78q27 0 37 -11.5t10 -35.5v-60 q0 -27 -11.5 -38t-37.5 -11h-183q-79 0 -105 30.5t-26 106.5z" />
<glyph unicode="&#xe42;" horiz-adv-x="704" d="M4 1403v45q0 31 14.5 43t44.5 12h551q29 0 42.5 -12t13.5 -41v-47q0 -29 -12.5 -39t-43.5 -10h-356l90 -70q55 -43 72.5 -103.5t17.5 -166.5v-805q0 -33 9.5 -43t41.5 -10h78q27 0 37 -11.5t10 -35.5v-60q0 -27 -11 -38t-38 -11h-182q-80 0 -105.5 30.5t-25.5 106.5v883 q0 90 -13.5 124t-64.5 77l-127 110q-25 20 -34 33.5t-9 38.5z" />
<glyph unicode="&#xe43;" horiz-adv-x="759" d="M-6 1221q0 94 50 165.5t135 110.5t183 39q170 0 266.5 -78t96.5 -221q0 -76 -36 -134.5t-107 -137.5q-61 -68 -91 -114t-30 -101v-541q0 -33 9 -43t42 -10h78q27 0 37 -11.5t10 -35.5v-60q0 -27 -11.5 -38t-37.5 -11h-182q-80 0 -106 30.5t-26 106.5v633q0 55 33 106.5 t101 129.5q70 80 102.5 131t32.5 108q0 68 -47 102.5t-131 34.5q-207 0 -207 -161q0 -16 -4 -21.5t-19 -5.5h-121q-10 0 -15 6t-5 21z" />
<glyph unicode="&#xe44;" horiz-adv-x="688" d="M4 1403v47q0 29 12.5 41t40.5 12h537q31 0 45 -12t14 -43v-45q0 -25 -9 -36t-36 -36l-112 -104q-59 -55 -77 -113.5t-18 -185.5v-719q0 -33 9.5 -43t42.5 -10h77q27 0 37.5 -11.5t10.5 -35.5v-60q0 -27 -11.5 -38t-38.5 -11h-182q-80 0 -105.5 30.5t-25.5 106.5v791 q0 127 22.5 200.5t81.5 133.5l93 92h-355q-29 0 -41 10t-12 39z" />
<glyph unicode="&#xe45;" horiz-adv-x="886" d="M37 1012q0 10 9 17t22 13q123 63 301 64q193 0 287 -90t94 -277v-1001q0 -57 -60 -57h-67q-60 0 -60 57v1003q0 119 -44 170.5t-163 51.5q-131 0 -237 -56q-20 -8 -23 -8q-14 0 -24 25l-31 73q-4 12 -4 15z" />
<glyph unicode="&#xe46;" horiz-adv-x="1105" d="M57 762q0 139 69 241.5t208 102.5q127 0 184 -98q74 98 197 98q104 0 159.5 -32t75 -96.5t19.5 -174.5v-742q0 -33 -12.5 -47t-47.5 -14h-73q-31 0 -43.5 14.5t-12.5 46.5v746q0 82 -20.5 115.5t-83.5 33.5q-55 0 -119 -63q-23 -23 -39 -23q-20 0 -41 23q-27 29 -53.5 47 t-58.5 21q-127 0 -127 -197q0 -170 165 -170q82 0 127 24q10 6 19 7q12 0 22 -23l21 -65q2 -4 2 -13q0 -18 -25 -28q-74 -37 -196 -37q-139 0 -227.5 81t-88.5 222z" />
<glyph unicode="&#xe47;" d="M-954 1495q0 125 78.5 191.5t224.5 66.5h342q27 0 35 -8t8 -33v-47q0 -25 -8.5 -31t-34.5 -6h-328q-98 0 -134 -30.5t-36 -102.5q0 -59 15.5 -87t56.5 -28q33 0 50 18.5t17 45.5v33q0 25 25 24h68q27 0 26 -24v-33q0 -63 66 -64q59 0 59 68v45q0 25 25 25h80q27 0 26 -25 v-57q0 -78 -46 -125t-128 -47q-100 0 -135 61q-55 -61 -156 -61q-86 0 -141 62.5t-55 168.5z" />
<glyph unicode="&#xe48;" d="M-309 1331v252q0 37 14 49.5t51 12.5h43q37 0 51.5 -12.5t14.5 -49.5v-252q0 -37 -14.5 -49t-51.5 -12h-43q-37 0 -51 12t-14 49z" />
<glyph unicode="&#xe49;" d="M-684 1524v55q0 23 9 33t32 10h213q33 0 41 -12.5t8 -48.5v-146l72 4q209 12 293 13q31 0 39 -10.5t8 -39.5v-55q0 -27 -9.5 -35t-33.5 -8h-441q-45 0 -61 14.5t-16 57.5v125h-113q-23 0 -32 10t-9 33z" />
<glyph unicode="&#xe4a;" d="M-807 1317v156q0 88 47 135t137 47q47 0 80 -16.5t51 -45.5q20 27 58.5 44.5t79.5 17.5q84 0 128 -49.5t44 -139.5v-51h112q35 0 35 -33v-69q0 -29 -33 -29h-182q-68 0 -67 70v90q0 41 -12.5 57.5t-43.5 16.5q-37 0 -48 -18.5t-11 -51.5v-41q0 -25 -25 -25h-63 q-27 0 -27 25v39q0 33 -11 52.5t-46 19.5t-46.5 -16.5t-11.5 -61.5v-123q0 -18 -7 -25.5t-25 -7.5h-80q-19 0 -26 7t-7 26z" />
<glyph unicode="&#xe4b;" d="M-510 1444v80q0 33 35 32h151v62q0 37 14.5 49t51.5 12h43q37 0 51 -12t14 -49v-62h152q35 0 35 -32v-80q0 -29 -33 -29h-154v-82q0 -37 -14 -49t-51 -12h-43q-37 0 -51.5 12t-14.5 49v82h-153q-33 0 -33 29z" />
<glyph unicode="&#xe4c;" d="M-625 1319v141q0 66 28 92.5t99 26.5h435q29 0 37 -9t8 -38v-57q0 -25 -12.5 -35t-45.5 -10q-150 0 -385 22v-133q0 -23 -7 -30t-28 -7h-94q-20 0 -27.5 7t-7.5 30z" />
<glyph unicode="&#xe4d;" d="M-506 1450q0 100 67.5 168t168.5 68q102 0 170.5 -68t68.5 -168t-68.5 -166.5t-170.5 -66.5q-101 0 -168.5 66.5t-67.5 166.5zM-395 1450q0 -51 36.5 -88t88.5 -37q51 0 88 37t37 88t-37 87t-88 36t-88 -36t-37 -87z" />
<glyph unicode="&#xe4e;" d="M-823 1436q0 80 59 110q-59 41 -59 115q0 78 54 117t151 39h133q31 0 30 -31v-51q0 -18 -6 -24.5t-24 -6.5h-123q-41 0 -59.5 -10.5t-18.5 -40.5q0 -55 61 -56h52q27 0 26 -28v-43q0 -16 -6 -22.5t-20 -6.5h-50q-31 0 -47 -10t-16 -41t16.5 -42t55.5 -11h143q31 0 31 -31 v-51q0 -18 -7.5 -24.5t-23.5 -6.5h-164q-86 0 -137 40t-51 116z" />
<glyph unicode="&#xe4f;" horiz-adv-x="1261" d="M96 492q0 240 140.5 381t394.5 141t394 -141.5t140 -380.5q0 -240 -140 -381.5t-394 -141.5t-394.5 141.5t-140.5 381.5zM227 492q0 -193 105.5 -299.5t298.5 -106.5q192 0 297.5 106.5t105.5 299.5t-105.5 299t-297.5 106q-193 0 -298.5 -106.5t-105.5 -298.5zM344 492 q0 129 76 205.5t211 76.5t211 -76.5t76 -205.5q0 -131 -75 -207t-212 -76t-212 75.5t-75 207.5zM455 492q0 -84 47 -131.5t129 -47.5t129 47.5t47 131.5t-47 131t-129 47t-129 -47.5t-47 -130.5z" />
<glyph unicode="&#xe50;" horiz-adv-x="1294" d="M96 492q0 242 144.5 382t406.5 140q264 0 407.5 -139.5t143.5 -382.5q0 -244 -143.5 -383.5t-407.5 -139.5q-262 0 -406.5 140.5t-144.5 382.5zM279 492q0 -184 95 -281.5t273 -97.5t273.5 97t95.5 282q0 184 -95.5 281t-273.5 97t-273 -97t-95 -281z" />
<glyph unicode="&#xe51;" horiz-adv-x="1273" d="M96 535q0 223 145.5 351t399.5 128q262 0 399.5 -133t137.5 -377q0 -219 -94.5 -373t-319.5 -285q-13 -6 -19 -6q-12 0 -18 13l-59 81q-6 6 -6 15q0 12 14 20q123 74 191.5 147.5t99 165t30.5 222.5q0 367 -360 366q-172 0 -267.5 -85t-95.5 -242q0 -150 72 -214.5 t180 -64.5q72 0 129 25q16 4 21 4q14 0 22 -23l21 -67q2 -4 2 -15q0 -23 -25 -32q-35 -18 -90 -30.5t-110 -12.5q-111 0 -201 48t-144.5 143t-54.5 231z" />
<glyph unicode="&#xe52;" horiz-adv-x="1421" d="M117 453v602q0 33 16.5 47t52.5 14h50q33 0 47 -15.5t14 -45.5v-600q0 -193 113.5 -267.5t328.5 -74.5q168 0 275.5 62.5t107.5 195.5v362q0 82 -22.5 111.5t-81.5 29.5q-63 0 -87 -30.5t-24 -83.5v-53q0 -49 -47 -50h-33q-49 0 -49 50v53q0 115 -106 114 q-74 0 -93.5 -60t-19.5 -159q0 -115 37 -169t115 -54q70 0 129 27q12 6 20 6q10 0 19 -21l22 -63q14 -35 -57.5 -54.5t-130.5 -19.5q-147 0 -231.5 87t-84.5 251q0 174 63.5 271.5t192.5 97.5q68 0 111 -22.5t78 -76.5q33 51 80 75t120 24q260 0 261 -277v-385 q0 -113 -71 -199.5t-198 -135t-295 -48.5q-323 0 -472.5 115t-149.5 369z" />
<glyph unicode="&#xe53;" horiz-adv-x="1318" d="M96 471q0 279 97.5 411t273.5 132q66 0 119 -26.5t80 -72.5q35 45 94 72t133 27q139 0 214 -74t75 -207v-672q0 -61 -64 -61h-53q-63 0 -64 61v654q0 80 -32.5 117.5t-110.5 37.5q-66 0 -98.5 -32.5t-32.5 -81.5v-189q0 -49 -47 -49h-33q-49 0 -49 49v189 q0 49 -27.5 81.5t-87.5 32.5q-111 0 -163 -93t-52 -308q0 -180 64.5 -272.5t202.5 -92.5q43 0 83.5 7.5t65.5 17.5l16 4q16 0 25 -24l20 -68q2 -4 3 -12q0 -14 -23 -27q-33 -14 -92.5 -23.5t-126.5 -9.5q-207 0 -308.5 134.5t-101.5 367.5z" />
<glyph unicode="&#xe54;" horiz-adv-x="1331" d="M96 440q0 258 149.5 406.5t448.5 148.5q135 0 197.5 5.5t113 30t105.5 81.5q16 18 27 18q8 0 22 -10l60 -55q14 -14 14 -25q0 -12 -10 -22q-68 -74 -134.5 -109t-151.5 -46t-228 -11q-227 0 -331 -104.5t-104 -307.5q0 -158 62.5 -244.5t171.5 -86.5q51 0 89 11t71 38 q-23 27 -37.5 70.5t-14.5 95.5q0 150 88.5 227.5t231.5 77.5q66 0 105.5 -8.5t80.5 -28.5q29 -12 29 -29q0 -6 -4 -18l-25 -56q-8 -25 -26 -24q-8 0 -21 6q-57 27 -119 27q-80 0 -129 -43t-49 -136q0 -100 60.5 -140t181.5 -40h139q29 0 41 -12t12 -41v-35q0 -29 -12 -40 t-41 -11h-158q-147 0 -235 57q-104 -88 -266 -88q-199 0 -301.5 129t-102.5 342z" />
<glyph unicode="&#xe55;" horiz-adv-x="1331" d="M96 440q0 225 113 365.5t340 165.5q-27 20 -40 55t-13 74q0 23 7 32t27 9h91q25 0 35 -7.5t10 -29.5q0 -51 23.5 -82t68.5 -31q125 0 201.5 21.5t150.5 99.5q16 18 27 18q8 0 22 -10l60 -55q14 -14 14 -25q0 -12 -10 -22q-68 -74 -134.5 -109t-151.5 -46t-228 -11 q-231 0 -333 -103.5t-102 -308.5q0 -158 62.5 -244.5t171.5 -86.5q102 0 160 49q-23 27 -37.5 70.5t-14.5 95.5q0 150 88.5 227.5t231.5 77.5q66 0 105.5 -8.5t80.5 -28.5q29 -12 29 -29q0 -6 -4 -18l-25 -56q-8 -25 -26 -24q-8 0 -21 6q-57 27 -119 27q-80 0 -129 -43 t-49 -136q0 -100 60.5 -140t181.5 -40h139q29 0 41 -12t12 -41v-35q0 -29 -12 -40t-41 -11h-158q-147 0 -235 57q-104 -88 -266 -88q-199 0 -301.5 129t-102.5 342z" />
<glyph unicode="&#xe56;" horiz-adv-x="1288" d="M55 1139q0 8 7.5 13t21.5 5h115q18 0 25 -4t14 -18l108 -279q61 61 155.5 94t200.5 33q250 0 370 -136t120 -376q0 -227 -140.5 -364.5t-396.5 -137.5q-116 0 -222.5 23.5t-160.5 56.5q-31 16 -30 33q0 8 6 16l43 74q12 20 20 21q6 0 27 -11q131 -70 293 -69 q186 0 282.5 90t96.5 270t-83 273.5t-245 93.5q-188 0 -303 -127q-20 -25 -35.5 -34t-46.5 -9t-47.5 10t-26.5 37l-164 407q-4 8 -4 15z" />
</font>
</defs>
</svg>
