<?xml version="1.0" standalone="no"?>
<!DOCTYPE svg PUBLIC "-//W3C//DTD SVG 1.1//EN" "http://www.w3.org/Graphics/SVG/1.1/DTD/svg11.dtd" >
<svg xmlns="http://www.w3.org/2000/svg" xmlns:xlink="http://www.w3.org/1999/xlink" version="1.1">
<metadata></metadata>
<defs>
<font id="mitrmedium" horiz-adv-x="0" >
<font-face units-per-em="2048" ascent="1536" descent="-512" />
<missing-glyph horiz-adv-x="737" />
<glyph unicode="fi" horiz-adv-x="1193" d="M23 834v63q0 47 18 66.5t68 19.5h81v43q0 184 119 290.5t330 106.5q217 0 336 -84q23 -16 22 -32q0 -12 -10 -29l-65 -113q-12 -20 -27 -20q-6 0 -27 8q-78 45 -153 45q-193 0 -193 -172v-43h473q51 0 73 -22.5t22 -67.5v-805q0 -45 -21.5 -66.5t-73.5 -21.5h-145 q-51 0 -72.5 21.5t-21.5 66.5v657h-234v-657q0 -45 -20.5 -66.5t-71.5 -21.5h-147q-50 0 -71.5 21.5t-21.5 66.5v657h-81q-49 0 -67.5 20.5t-18.5 68.5z" />
<glyph unicode="fl" horiz-adv-x="1210" d="M23 834v63q0 47 18 66.5t68 19.5h81v43q0 186 120 291.5t335 105.5q125 0 230.5 -26.5t177.5 -75.5q31 -20 42 -39.5t11 -58.5v-1135q0 -45 -21.5 -66.5t-72.5 -21.5h-146q-51 0 -72.5 21.5t-21.5 66.5v657h-250v-657q0 -45 -20.5 -66.5t-71.5 -21.5h-147 q-50 0 -71.5 21.5t-21.5 66.5v657h-81q-49 0 -67.5 20.5t-18.5 68.5zM514 983h268v176q-41 27 -118 27q-72 0 -111 -41t-39 -119v-43z" />
<glyph unicode="&#xe24;&#xe45;" horiz-adv-x="1830" d="M63 854q0 33 31 57q98 82 240.5 138.5t310.5 56.5q201 0 324 -64q133 63 315 64q223 0 331.5 -98.5t108.5 -302.5v-945q0 -80 -82 -79h-174q-82 0 -82 79v926q0 96 -34.5 136t-122.5 40q-31 0 -80 -8q37 -86 37 -205v-880q0 -45 -21.5 -66.5t-72.5 -21.5h-152 q-51 0 -72.5 21.5t-21.5 66.5v888q0 102 -48 152.5t-155 50.5q-135 0 -227 -72l24 -49q14 -29 20.5 -55.5t6.5 -65.5v-313q0 -31 9 -42t34 -11h35q37 0 51 -15.5t14 -50.5v-120q0 -43 -20.5 -54.5t-85.5 -11.5h-248q-74 0 -100.5 29.5t-26.5 97.5v545l-47 114q-18 47 -19 68 z" />
<glyph unicode="&#xe26;&#xe45;" horiz-adv-x="1839" d="M35 66v120q0 35 13 50.5t50 15.5h43q18 0 24.5 6t6.5 27v381l-78 120q-18 31 -18 68q0 29 33 59q92 82 233 137.5t311 55.5q199 0 326 -64q133 63 313 64q224 0 332.5 -98.5t108.5 -302.5v-945q0 -80 -82 -79h-174q-82 0 -82 79v926q0 96 -35 136t-123 40q-43 0 -76 -8 q37 -88 37 -197v-888q0 -47 -18.5 -67.5t-67.5 -20.5h-166q-49 0 -67.5 20t-18.5 68v888q0 102 -48 152.5t-155 50.5q-129 0 -221 -69l39 -58q23 -35 30 -63.5t7 -81.5v-502q0 -49 -13.5 -67.5t-58.5 -18.5h-342q-37 0 -50 14.5t-13 51.5z" />
<glyph unicode=" "  horiz-adv-x="737" />
<glyph unicode="&#x09;" horiz-adv-x="737" />
<glyph unicode="&#xa0;" horiz-adv-x="737" />
<glyph unicode="!" horiz-adv-x="493" d="M63 94v45q0 51 36 72.5t114 21.5h66q78 0 114.5 -22.5t36.5 -71.5v-45q0 -49 -37 -71.5t-114 -22.5h-66q-76 0 -113 22.5t-37 71.5zM78 1303q0 47 20.5 68.5t71.5 21.5h156q51 0 71.5 -21.5t20.5 -68.5l-15 -838q0 -45 -23.5 -66.5t-74.5 -21.5h-117q-51 0 -74.5 21.5 t-23.5 66.5z" />
<glyph unicode="&#x22;" horiz-adv-x="741" d="M63 1370q-2 39 13.5 52.5t58.5 13.5h109q43 0 58 -14.5t13 -51.5l-18 -305q-2 -37 -18.5 -52.5t-53.5 -15.5h-78q-32 0 -48.5 15.5t-18.5 52.5zM426 1370q-2 37 13.5 51.5t56.5 14.5h108q43 0 59.5 -14.5t14.5 -51.5l-21 -305q-2 -39 -18 -53.5t-53 -14.5h-78 q-33 0 -49.5 15.5t-18.5 52.5z" />
<glyph unicode="#" horiz-adv-x="1652" d="M63 393v68q0 55 15.5 71.5t64.5 16.5h170l103 256h-156q-49 0 -63.5 16.5t-14.5 69.5v67q0 55 15.5 72t64.5 17h246l121 305q10 23 25.5 32t52.5 9h211q35 0 34 -31q0 -6 -8 -31l-113 -284h281l121 305q10 23 25.5 32t52.5 9h211q35 0 34 -31q0 -6 -8 -31l-112 -284h73 q49 0 64.5 -16.5t15.5 -72.5v-67q0 -53 -14 -69.5t-64 -16.5h-165l-103 -256h191q49 0 64 -16.5t15 -71.5v-68q0 -53 -14 -69.5t-63 -16.5h-285l-107 -266q-10 -23 -25 -32t-52 -9h-211q-35 0 -35 31q0 6 8 30l96 246h-280l-105 -266q-10 -23 -25.5 -32t-52.5 -9h-210 q-35 0 -35 31q0 6 8 30l96 246h-80q-49 0 -63.5 16.5t-14.5 69.5zM637 549h281l102 254h-281z" />
<glyph unicode="$" horiz-adv-x="1224" d="M66 137q0 12 10 29l84 133q12 20 26 20t31 -10q78 -45 177.5 -70.5t199.5 -25.5q125 0 177 36t52 122q0 57 -29.5 94t-84 62.5t-162.5 62.5q-131 49 -221 100t-149.5 133t-59.5 199q0 162 93 258t255 123v94q0 47 20.5 68.5t71.5 21.5h127q51 0 72.5 -22.5t21.5 -67.5 v-84q193 -20 320 -104q31 -25 30 -41q0 -12 -10 -29l-82 -131q-14 -20 -28 -21q-10 0 -29 13q-119 80 -305 80q-111 0 -166 -38t-55 -122q0 -59 32.5 -96t82.5 -59.5t180 -69.5q150 -57 235.5 -109.5t131.5 -129.5t46 -198q0 -154 -97 -253t-286 -125v-82q0 -45 -21.5 -66.5 t-72.5 -21.5h-127q-51 0 -71.5 21.5t-20.5 66.5v86q-109 12 -208 40.5t-161 71.5q-31 23 -30 41z" />
<glyph unicode="%" horiz-adv-x="1570" d="M63 1104q0 92 42 164.5t115 113.5t161 41t160.5 -41t114.5 -113.5t42 -164.5t-42 -164t-114.5 -113t-160.5 -41t-161 41t-115 113t-42 164zM164 33q0 18 10 30l885 1289q14 20 28.5 30.5t38.5 10.5h238q18 0 27.5 -9.5t9.5 -23.5q0 -18 -10 -31l-891 -1296 q-12 -20 -23.5 -26.5t-36.5 -6.5h-239q-19 0 -28 9t-9 24zM242 1104q0 -61 40 -100t99 -39t99 38.5t40 100.5q0 61 -40 101t-99 40t-99 -40t-40 -101zM870 287q0 92 43 164.5t116 112.5t159 40q88 0 160.5 -40t115.5 -112.5t43 -164.5q0 -90 -43 -163t-115.5 -114 t-160.5 -41q-86 0 -159 41t-116 114t-43 163zM1049 287q0 -59 40.5 -99.5t98.5 -40.5q59 0 100 39t41 101q0 61 -41 100t-100 39q-57 0 -98 -40t-41 -99z" />
<glyph unicode="&#x26;" horiz-adv-x="1480" d="M66 406q0 109 48 199.5t144 139.5q-68 41 -104.5 116t-36.5 157q0 193 150.5 299t404.5 106q283 0 438 -127q18 -14 18 -34q0 -14 -10 -31l-74 -121q-14 -25 -30 -25q-8 0 -33 15q-104 76 -274 76q-137 0 -195.5 -38t-58.5 -128q0 -88 53 -120t162 -32h684 q49 0 67.5 -20.5t18.5 -67.5v-74q0 -47 -18.5 -67.5t-67.5 -20.5h-62v-106q0 -152 -72.5 -272.5t-212 -190.5t-333.5 -70q-154 0 -291 41t-226 139.5t-89 256.5zM399 420q0 -207 281 -207q295 0 295 307v88h-369q-207 0 -207 -188z" />
<glyph unicode="'" horiz-adv-x="409" d="M63 1370q-2 39 13.5 52.5t58.5 13.5h139q43 0 58.5 -14.5t13.5 -51.5l-18 -305q-2 -37 -18.5 -52.5t-53.5 -15.5h-109q-32 0 -48.5 15.5t-18.5 52.5z" />
<glyph unicode="(" horiz-adv-x="741" d="M63 647q0 207 56.5 392.5t160 317.5t242.5 185q61 25 105 25q80 0 80 -103q0 -63 -11.5 -87.5t-54.5 -59.5q-125 -98 -183.5 -266t-58.5 -404q0 -481 242 -670q43 -33 54.5 -58t11.5 -91q0 -102 -82 -102q-41 0 -103 24q-139 53 -242.5 186.5t-160 318.5t-56.5 392z" />
<glyph unicode=")" horiz-adv-x="741" d="M35 -172q0 66 11 91.5t54 57.5q242 186 242 670q0 236 -58.5 404t-183.5 266q-45 33 -55 57.5t-10 89.5q0 102 80 103q43 0 104 -25q139 -53 242.5 -185t160 -317.5t56.5 -392.5t-56.5 -392t-160 -318.5t-242.5 -186.5q-61 -24 -102 -24q-82 0 -82 102z" />
<glyph unicode="*" horiz-adv-x="884" d="M63 1176q0 6 5 18l55 111q10 18 24 18l19 -4l166 -74v168q0 49 47 49h127q47 0 47 -49v-170l164 72q12 6 20 6q16 0 25 -18l55 -111q4 -12 4 -18q0 -16 -24 -29l-183 -78l140 -147q12 -12 12 -25q0 -16 -16 -29l-95 -82q-14 -10 -22 -10q-14 0 -31 19l-160 172l-163 -174 q-14 -14 -27 -15q-12 0 -23 10l-94 82q-16 12 -16 29q0 12 12 25l139 147l-182 78q-25 12 -25 29z" />
<glyph unicode="+" horiz-adv-x="962" d="M63 571v91q0 49 19.5 64t69.5 15h192v170q0 43 15.5 59.5t64.5 16.5h111q49 0 64 -16.5t15 -59.5v-170h197q49 0 68.5 -15t19.5 -64v-91q0 -49 -19.5 -64t-68.5 -15h-197v-168q0 -43 -15 -59.5t-64 -16.5h-111q-49 0 -64.5 16.5t-15.5 59.5v168h-192q-49 0 -69 15t-20 64 z" />
<glyph unicode="," horiz-adv-x="524" d="M63 -209q0 6 5 23l106 352q12 39 29.5 51t58.5 12h135q63 0 64 -36q0 -18 -12 -50l-148 -346q-8 -20 -24.5 -30.5t-45.5 -10.5h-122q-46 0 -46 35z" />
<glyph unicode="-" horiz-adv-x="962" d="M63 571v91q0 41 16.5 60t61.5 19h680q43 0 60.5 -19.5t17.5 -59.5v-91q0 -41 -17.5 -60t-60.5 -19h-680q-45 0 -61.5 19t-16.5 60z" />
<glyph unicode="." horiz-adv-x="366" d="M63 102v41q0 45 28 75t71 30h43q43 0 70.5 -30t27.5 -75v-41q0 -43 -27.5 -72.5t-70.5 -29.5h-43q-43 0 -71 29.5t-28 72.5z" />
<glyph unicode="/" horiz-adv-x="1009" d="M63 29q0 18 9 34l528 1289q16 41 59 41h254q33 0 33 -31q0 -14 -6 -33l-528 -1288q-16 -41 -62 -41h-252q-35 0 -35 29z" />
<glyph unicode="0" horiz-adv-x="1517" d="M63 696q0 352 175.5 539.5t521.5 187.5q344 0 519 -187t175 -540q0 -352 -175 -539.5t-519 -187.5q-346 0 -521.5 187.5t-175.5 539.5zM399 696q0 -160 58 -247l487 684q-76 47 -184 47q-186 0 -273.5 -119t-87.5 -365zM571 256q74 -43 189 -43q186 0 272 119t86 364 q0 154 -55 252z" />
<glyph unicode="1" horiz-adv-x="999" d="M66 1126q0 20 22 33l354 213q18 12 35 16.5t47 4.5h97q49 0 70.5 -22.5t21.5 -67.5v-1055h178q49 0 67.5 -19.5t18.5 -66.5v-78q0 -45 -18.5 -64.5t-67.5 -19.5h-694q-50 0 -69 19.5t-19 64.5v78q0 45 19 65.5t69 20.5h176v784l-146 -90q-10 -8 -26 -8q-20 0 -31 18 l-96 148q-8 14 -8 26z" />
<glyph unicode="2" horiz-adv-x="1181" d="M70 82v94q0 127 95 247t298 245q143 86 199.5 126t84 87t27.5 118q0 88 -61.5 134.5t-175.5 46.5q-164 0 -308 -78q-20 -12 -34 -12t-29 22l-72 125q-12 18 -12 35q0 20 20 35q78 53 206 84.5t280 31.5q238 0 381 -104.5t143 -296.5q0 -156 -93 -263.5t-296 -223.5 q-127 -70 -211 -145t-96 -140h608q49 0 67.5 -20.5t18.5 -67.5v-76q0 -47 -18.5 -66.5t-67.5 -19.5h-874q-80 0 -80 82z" />
<glyph unicode="3" horiz-adv-x="1224" d="M63 115q0 18 13 37l74 124q14 23 28 23q12 0 35 -12q61 -33 147 -53.5t181 -20.5q285 0 284 203q0 176 -217 176h-168q-49 0 -70.5 20.5t-21.5 67.5v72q0 45 21.5 65.5t70.5 20.5h154q96 0 143 47t47 123q0 172 -249 172q-168 0 -299 -72q-20 -12 -35 -12q-14 0 -29 22 l-72 123q-12 18 -12 35q0 18 21 33q78 53 201.5 83.5t273.5 30.5q248 0 392 -109.5t144 -295.5q0 -92 -41 -171t-118 -126q100 -43 150 -125t50 -193q0 -197 -147.5 -315.5t-421.5 -118.5q-164 0 -294 29t-214 84q-20 14 -21 33z" />
<glyph unicode="4" horiz-adv-x="1249" d="M23 348v119q0 35 6 52.5t28 43.5l645 783q25 29 42.5 38t56.5 9h125q51 0 71.5 -21.5t20.5 -68.5v-764h123q49 0 67.5 -20.5t18.5 -67.5v-74q0 -47 -18.5 -66.5t-67.5 -19.5h-123v-209q0 -45 -20.5 -63.5t-71.5 -18.5h-154q-51 0 -71.5 18.5t-20.5 63.5v209h-598 q-59 0 -59 57zM365 539h380v477z" />
<glyph unicode="5" horiz-adv-x="1286" d="M63 129q0 16 13 35l74 127q12 23 28 22q10 0 35 -14q68 -39 161 -62.5t206 -23.5q147 0 226 62.5t79 187.5q0 139 -66.5 194.5t-206.5 55.5q-156 0 -260 -47q-45 -16 -90 -17q-68 0 -110.5 36t-38.5 103l32 525q4 41 23.5 60.5t67.5 19.5h831q49 0 68.5 -20.5t19.5 -65.5 v-76q0 -47 -19.5 -67.5t-68.5 -20.5h-643l-14 -236q49 14 119.5 23.5t138.5 9.5q264 0 409.5 -112.5t145.5 -364.5q0 -152 -79 -263.5t-221.5 -171t-326.5 -59.5q-154 0 -291 34t-221 93q-20 14 -21 33z" />
<glyph unicode="6" horiz-adv-x="1316" d="M63 612q0 281 91.5 463t238 265t316.5 83q254 0 419 -112q20 -14 21 -33q0 -16 -12 -35l-70 -121q-14 -25 -29 -24q-10 0 -34 14q-57 35 -122 51.5t-147 16.5q-145 0 -228 -74t-124 -232q70 55 157 77t201 22q158 0 273.5 -58.5t177 -163t61.5 -235.5 q0 -270 -158.5 -408.5t-443.5 -138.5q-262 0 -425 156t-163 487zM401 500q0 -287 250 -287q133 0 200 70.5t67 220.5q0 131 -69 199.5t-192 68.5q-109 0 -182.5 -67.5t-73.5 -204.5z" />
<glyph unicode="7" horiz-adv-x="1220" d="M43 1229v80q0 47 17.5 65.5t64.5 18.5h944q63 0 86 -19.5t23 -70.5q0 -49 -52 -148l-571 -1118q-10 -20 -23.5 -28.5t-37.5 -8.5h-261q-32 0 -32 31q0 16 8 32l555 1080h-639q-47 0 -64.5 19.5t-17.5 66.5z" />
<glyph unicode="8" horiz-adv-x="1314" d="M63 403q0 109 56.5 195t156.5 127q-86 45 -131 114.5t-45 161.5q0 203 144.5 312.5t412.5 109.5t411.5 -109.5t143.5 -312.5q0 -188 -174 -276q100 -41 156.5 -127t56.5 -195q0 -207 -157.5 -320.5t-436.5 -113.5q-278 0 -436 114t-158 320zM399 406q0 -193 258 -193 t258 193q0 197 -258 196q-258 0 -258 -196zM438 1001q0 -86 55.5 -123.5t163.5 -37.5q109 0 164.5 37.5t55.5 123.5q0 94 -53.5 136.5t-166.5 42.5t-166 -42t-53 -137z" />
<glyph unicode="9" horiz-adv-x="1310" d="M63 879q0 274 157 409t446 135q262 0 421.5 -158.5t159.5 -486.5q0 -289 -86 -470t-227 -260t-316 -79q-263 0 -425 109q-18 12 -19 33q0 16 12 36l70 121q14 23 29 23q14 0 34 -12q119 -66 277 -66q156 0 240 73.5t108 227.5q-68 -53 -153.5 -75.5t-206.5 -22.5 q-164 0 -282 59.5t-178.5 164.5t-60.5 239zM399 885q0 -266 263 -267q104 0 174.5 68t70.5 195q0 150 -62.5 224.5t-180.5 74.5q-133 0 -199 -71t-66 -224z" />
<glyph unicode=":" horiz-adv-x="415" d="M63 125v47q0 53 33 89t84 36h53q53 0 86 -35t33 -90v-47q0 -51 -32.5 -88t-86.5 -37h-53q-51 0 -84 37t-33 88zM63 838v47q0 53 33 89t84 36h53q53 0 86 -36t33 -89v-47q0 -51 -32.5 -88t-86.5 -37h-53q-51 0 -84 36.5t-33 88.5z" />
<glyph unicode=";" horiz-adv-x="528" d="M63 -209q0 6 5 23l106 352q12 39 29.5 51t58.5 12h135q63 0 64 -36q0 -18 -12 -50l-148 -346q-8 -20 -24.5 -30.5t-45.5 -10.5h-122q-46 0 -46 35zM174 838v47q0 53 33 89t84 36h53q53 0 86 -36t33 -89v-47q0 -51 -33 -88t-86 -37h-53q-51 0 -84 36.5t-33 88.5z" />
<glyph unicode="&#x3c;" horiz-adv-x="1110" d="M63 498v123q0 23 7.5 35t27.5 20l903 405q12 4 19 4q27 0 27 -28v-226q0 -25 -7.5 -34t-27.5 -17l-539 -219l539 -219q20 -8 27.5 -17.5t7.5 -33.5v-230q0 -29 -27 -28q-12 0 -19 4l-903 405q-20 8 -27.5 20.5t-7.5 35.5z" />
<glyph unicode="=" horiz-adv-x="948" d="M63 360v68q0 47 18.5 67.5t68.5 20.5h649q49 0 67.5 -20.5t18.5 -67.5v-68q0 -47 -18.5 -66.5t-67.5 -19.5h-649q-50 0 -68.5 19.5t-18.5 66.5zM63 760v69q0 47 18.5 68t68.5 21h649q49 0 67.5 -20.5t18.5 -68.5v-69q0 -47 -18.5 -66.5t-67.5 -19.5h-649 q-50 0 -68.5 19.5t-18.5 66.5z" />
<glyph unicode="&#x3e;" horiz-adv-x="1110" d="M63 61v211q0 23 7.5 33t27.5 19l551 237l-551 238q-20 8 -27.5 18t-7.5 33v207q0 29 25 28q6 0 18 -4l906 -405q18 -8 26.5 -20.5t8.5 -34.5v-123q0 -23 -8.5 -35t-26.5 -21l-906 -405q-12 -4 -18 -4q-25 0 -25 28z" />
<glyph unicode="?" horiz-adv-x="1132" d="M61 1262q0 18 23 32q190 129 473 129q229 0 370.5 -105.5t141.5 -293.5q0 -123 -57.5 -203t-184.5 -151q-100 -57 -137 -106.5t-37 -125.5v-22q0 -45 -20.5 -66.5t-71.5 -21.5h-153q-50 0 -71.5 21.5t-21.5 66.5v26q0 129 58.5 214t189.5 167q74 43 108 70t48 55.5 t14 73.5q0 76 -56 117t-163 41q-168 0 -301 -88q-25 -14 -33 -15q-18 0 -30 23l-80 137q-8 14 -9 25zM301 94v43q0 45 32 70.5t91 25.5h119q61 0 93 -25.5t32 -70.5v-43q0 -45 -32 -69.5t-93 -24.5h-119q-59 0 -91 25.5t-32 68.5z" />
<glyph unicode="@" horiz-adv-x="1927" d="M63 614q0 279 118 469.5t331 284.5t502 94q266 0 457.5 -90t292 -259t100.5 -398q0 -252 -109.5 -384t-290.5 -132q-84 0 -140 43t-75 112q-55 -76 -144 -115.5t-200 -39.5q-199 2 -316.5 109.5t-117.5 299.5q0 238 144.5 366t392.5 128q111 0 216 -40t171 -108v-469 q0 -51 17.5 -72.5t57.5 -21.5q63 0 98.5 85t35.5 241q0 174 -82 295t-218.5 180t-293.5 59q-315 0 -500.5 -157.5t-185.5 -479.5q0 -186 77.5 -316t215 -196.5t313.5 -66.5q98 0 187 24.5t149 69.5q10 6 16 6t12 -12l64 -162q4 -12 4 -14q0 -10 -14 -19 q-74 -51 -184.5 -80.5t-231.5 -29.5q-260 0 -456.5 96t-304.5 276.5t-108 423.5zM721 616q0 -201 213 -200q90 0 155.5 47t65.5 129v242q-31 18 -75 28t-91 10q-123 0 -195.5 -67.5t-72.5 -188.5z" />
<glyph unicode="A" horiz-adv-x="1515" d="M66 35q0 14 6 33l530 1263q14 35 31.5 48.5t50.5 13.5h150q33 0 49 -13.5t30 -48.5l531 -1263q6 -18 6 -33q0 -35 -37 -35h-248q-29 0 -42 9t-23 34l-94 242h-498l-92 -242q-10 -25 -23.5 -34t-42.5 -9h-248q-36 0 -36 35zM586 520h342l-170 443z" />
<glyph unicode="B" horiz-adv-x="1349" d="M104 88v1215q0 45 21.5 67.5t71.5 22.5h600q225 0 337.5 -103.5t112.5 -285.5q0 -96 -46 -172t-126 -109q211 -70 211 -309q0 -117 -54 -211t-164 -148.5t-271 -54.5h-600q-50 0 -71.5 21.5t-21.5 66.5zM442 248h330q90 0 134 48t44 126q0 88 -51 132t-143 44h-314v-350z M442 829h297q82 0 127 41t45 119q0 84 -42 120t-130 36h-297v-316z" />
<glyph unicode="C" horiz-adv-x="1388" d="M63 696q0 354 191.5 540.5t548.5 186.5q150 0 271.5 -29.5t205.5 -84.5q20 -14 20 -33q0 -16 -12 -35l-71 -125q-14 -23 -29 -22q-12 0 -35 12q-131 74 -309 74q-211 0 -328 -122t-117 -362q0 -242 122 -362.5t333 -120.5q193 0 324 74q23 12 34 12q14 0 29 -23l80 -137 q8 -14 8 -24q0 -12 -24 -31q-160 -115 -494 -115q-356 0 -552 187.5t-196 539.5z" />
<glyph unicode="D" horiz-adv-x="1404" d="M104 88v1215q0 45 21.5 67.5t71.5 22.5h430q350 0 532 -168t182 -529q0 -356 -184 -526t-530 -170h-430q-50 0 -71.5 21.5t-21.5 66.5zM442 248h201q182 0 272.5 101.5t90.5 346.5q0 246 -90.5 346.5t-272.5 100.5h-201v-895z" />
<glyph unicode="E" horiz-adv-x="1175" d="M104 88v1215q0 45 21.5 67.5t71.5 22.5h850q49 0 67.5 -19.5t18.5 -66.5v-76q0 -47 -18.5 -67.5t-67.5 -20.5h-605v-324h422q49 0 67.5 -19.5t18.5 -66.5v-71q0 -47 -18.5 -68t-67.5 -21h-422v-325h602q49 0 67.5 -20.5t18.5 -67.5v-74q0 -47 -18 -66.5t-68 -19.5h-847 q-50 0 -71.5 21.5t-21.5 66.5z" />
<glyph unicode="F" horiz-adv-x="1155" d="M104 88v1215q0 45 21.5 67.5t71.5 22.5h850q49 0 67.5 -19.5t18.5 -66.5v-76q0 -47 -18.5 -67.5t-67.5 -20.5h-605v-322h422q49 0 67.5 -19.5t18.5 -66.5v-76q0 -47 -18.5 -67.5t-67.5 -20.5h-422v-483q0 -45 -20.5 -66.5t-71.5 -21.5h-153q-50 0 -71.5 21.5t-21.5 66.5z " />
<glyph unicode="G" horiz-adv-x="1439" d="M63 696q0 352 197 539.5t551 187.5q150 0 274.5 -29.5t206.5 -84.5q23 -14 23 -33q0 -8 -10 -29l-78 -131q-14 -23 -29 -22q-10 0 -33 12q-135 74 -311 74q-213 0 -334 -121t-121 -363q0 -244 113 -362.5t317 -118.5q66 0 129.5 10.5t102.5 28.5v315h-223 q-49 0 -67.5 19.5t-18.5 66.5v74q0 45 18 64.5t68 19.5h434q57 0 80.5 -26.5t23.5 -81.5v-521q0 -35 -8 -53t-33 -35q-199 -127 -524 -127q-356 0 -552 187.5t-196 539.5z" />
<glyph unicode="H" horiz-adv-x="1456" d="M104 88v1215q0 45 21.5 67.5t71.5 22.5h153q51 0 71.5 -21.5t20.5 -68.5v-480h570v480q0 45 21.5 67.5t72.5 22.5h151q51 0 73 -22.5t22 -67.5v-1215q0 -45 -21.5 -66.5t-73.5 -21.5h-151q-51 0 -72.5 21.5t-21.5 66.5v487h-570v-487q0 -45 -20.5 -66.5t-71.5 -21.5h-153 q-50 0 -71.5 21.5t-21.5 66.5z" />
<glyph unicode="I" horiz-adv-x="546" d="M104 88v1215q0 45 21.5 67.5t71.5 22.5h153q51 0 71.5 -21.5t20.5 -68.5v-1215q0 -45 -20.5 -66.5t-71.5 -21.5h-153q-50 0 -71.5 21.5t-21.5 66.5z" />
<glyph unicode="J" horiz-adv-x="1024" d="M23 115q0 16 12 35l74 124q16 25 30 25q12 0 33 -14q106 -72 234 -72q96 0 140 48t44 147v895q0 45 21.5 67.5t72.5 22.5h152q51 0 72.5 -22.5t21.5 -67.5v-895q0 -201 -120 -320t-351 -119q-246 0 -416 113q-20 12 -20 33z" />
<glyph unicode="K" horiz-adv-x="1325" d="M104 88v1215q0 45 21.5 67.5t71.5 22.5h153q51 0 71.5 -21.5t20.5 -68.5v-529l7 8l438 584q12 16 25.5 21.5t41.5 5.5h252q37 0 37 -35q0 -16 -12 -33l-486 -625l500 -632q12 -15 12 -33q0 -35 -36 -35h-256q-25 0 -38.5 5t-25.5 20l-452 593l-7 9v-539 q0 -45 -20.5 -66.5t-71.5 -21.5h-153q-49 0 -71 21.5t-22 66.5z" />
<glyph unicode="L" horiz-adv-x="1128" d="M104 88v1215q0 45 21.5 67.5t71.5 22.5h153q51 0 71.5 -21.5t20.5 -68.5v-1055h578q49 0 67.5 -20.5t18.5 -67.5v-74q0 -47 -18.5 -66.5t-67.5 -19.5h-823q-50 0 -71.5 21.5t-21.5 66.5z" />
<glyph unicode="M" horiz-adv-x="1591" d="M104 88v1217q0 45 21.5 66.5t73.5 21.5h151q37 0 57.5 -9.5t32.5 -35.5l355 -836l356 836q12 27 32.5 36t57.5 9h152q51 0 72.5 -21.5t21.5 -66.5v-1217q0 -45 -21.5 -66.5t-70.5 -21.5h-125q-51 0 -72.5 21.5t-21.5 66.5v774l-275 -612q-20 -43 -39.5 -60.5t-66.5 -17.5 q-45 0 -66.5 17.5t-40.5 60.5l-272 612v-774q0 -45 -21.5 -66.5t-72.5 -21.5h-125q-50 0 -71.5 21.5t-21.5 66.5z" />
<glyph unicode="N" horiz-adv-x="1431" d="M104 88v1217q0 45 21.5 66.5t73.5 21.5h127q35 0 52 -9.5t38 -35.5l573 -809v764q0 45 21.5 67.5t70.5 22.5h154q51 0 71.5 -21.5t20.5 -68.5v-1215q0 -45 -20.5 -66.5t-71.5 -21.5h-129q-33 0 -50.5 9t-37.5 36l-576 807v-764q0 -45 -20.5 -66.5t-71.5 -21.5h-153 q-50 0 -71.5 21.5t-21.5 66.5z" />
<glyph unicode="O" horiz-adv-x="1554" d="M63 696q0 346 183.5 536.5t531.5 190.5q346 0 529.5 -190.5t183.5 -536.5t-183.5 -536.5t-529.5 -190.5q-348 0 -531.5 190.5t-183.5 536.5zM399 696q0 -240 95.5 -361.5t283.5 -121.5q187 0 282 122t95 361q0 240 -95 362t-282 122q-188 0 -283.5 -122t-95.5 -362z" />
<glyph unicode="P" horiz-adv-x="1257" d="M104 88v1215q0 45 21.5 67.5t71.5 22.5h512q526 0 526 -471q0 -469 -526 -469h-267v-365q0 -45 -20.5 -66.5t-71.5 -21.5h-153q-50 0 -71.5 21.5t-21.5 66.5zM444 700h242q213 0 213 222q0 221 -213 221h-242v-443z" />
<glyph unicode="Q" horiz-adv-x="1554" d="M63 696q0 346 183.5 536.5t531.5 190.5q346 0 529.5 -190.5t183.5 -536.5q0 -317 -155.5 -500.5t-452.5 -213.5q8 -70 64.5 -104t137.5 -34q104 0 187 54q14 8 22 8q12 0 21 -15l78 -122q8 -10 8 -23q0 -12 -21 -27q-63 -45 -134.5 -67.5t-168.5 -22.5q-192 0 -310 96.5 t-134 254.5q-279 37 -424.5 222t-145.5 494zM399 696q0 -240 95.5 -361.5t283.5 -121.5q187 0 282 122t95 361q0 240 -95 362t-282 122q-188 0 -283.5 -122t-95.5 -362z" />
<glyph unicode="R" horiz-adv-x="1298" d="M104 88v1215q0 45 21.5 67.5t71.5 22.5h518q520 0 520 -455q0 -145 -61.5 -246.5t-182.5 -154.5l215 -471q6 -14 6 -29q0 -37 -43 -37h-227q-29 0 -43 7t-25 32l-188 450h-244v-401q0 -45 -20.5 -66.5t-71.5 -21.5h-153q-50 0 -71.5 21.5t-21.5 66.5zM442 733h224 q117 0 175 49t58 156q0 106 -53 155.5t-160 49.5h-244v-410z" />
<glyph unicode="S" horiz-adv-x="1224" d="M66 139q0 12 10 29l84 133q12 20 26 21q12 0 31 -13q76 -43 174 -69.5t199 -26.5q119 0 176 38t57 120q0 55 -27.5 90t-82 61.5t-166.5 69.5q-131 49 -222.5 100t-149.5 132t-58 198q0 195 141 298t373 103q305 0 467 -114q31 -25 30 -41q0 -12 -10 -29l-84 -133 q-12 -20 -26 -21q-12 0 -31 13q-125 82 -303 82q-221 0 -221 -160q0 -53 25.5 -87t70.5 -57.5t141 -60.5l58 -22q150 -59 235.5 -111.5t131.5 -128.5t46 -195q0 -178 -134 -283.5t-388 -105.5q-160 0 -306.5 34t-236.5 95q-31 23 -30 41z" />
<glyph unicode="T" horiz-adv-x="1230" d="M23 1229v76q0 47 18 67.5t68 20.5h1011q49 0 68.5 -20.5t19.5 -67.5v-76q0 -45 -19.5 -65.5t-68.5 -20.5h-336v-1055q0 -45 -21.5 -66.5t-72.5 -21.5h-151q-52 0 -73.5 21.5t-21.5 66.5v1055h-335q-49 0 -67.5 19.5t-18.5 66.5z" />
<glyph unicode="U" horiz-adv-x="1466" d="M94 498v805q0 45 21.5 67.5t70.5 22.5h154q51 0 71.5 -21.5t20.5 -68.5v-811q0 -133 80 -206t221 -73t220 72.5t79 206.5v811q0 45 21.5 67.5t70.5 22.5h154q51 0 72.5 -22.5t21.5 -67.5v-805q0 -162 -81 -282t-225 -183.5t-333 -63.5q-188 0 -333.5 63.5t-225.5 183.5 t-80 282z" />
<glyph unicode="V" horiz-adv-x="1488" d="M66 1358q0 35 36 35h246q29 0 44.5 -12.5t23.5 -34.5l327 -879l328 879q16 47 70 47h245q37 0 37 -35q0 -14 -6 -33l-516 -1266q-14 -35 -31.5 -47t-50.5 -12h-149q-33 0 -49.5 12.5t-30.5 46.5l-518 1266q-6 18 -6 33z" />
<glyph unicode="W" horiz-adv-x="1800" d="M63 1358q0 35 48 35h227q33 0 47 -11.5t18 -35.5l164 -764l205 655q10 29 24.5 39t45.5 10h114q31 0 45.5 -10t24.5 -39l207 -655l162 764q4 25 18 36t47 11h230q47 0 47 -35q0 -4 -4 -21l-320 -1278q-8 -33 -27.5 -46t-54.5 -13h-147q-35 0 -53.5 13.5t-28.5 45.5 l-203 680l-201 -680q-10 -33 -28.5 -46t-53.5 -13h-149q-35 0 -54.5 13.5t-27.5 45.5l-317 1278q-4 16 -5 21z" />
<glyph unicode="X" horiz-adv-x="1497" d="M63 35q0 18 13 33l485 647l-455 610q-12 16 -12 35q0 14 9.5 23.5t27.5 9.5h254q25 0 38 -6.5t23 -20.5l302 -401l301 401q12 14 24 20.5t37 6.5h256q18 0 27.5 -9.5t9.5 -23.5q0 -16 -12 -35l-457 -610l485 -647q12 -18 13 -33q0 -16 -10.5 -25.5t-28.5 -9.5h-254 q-25 0 -37 5t-23 20l-331 440l-330 -440q-10 -14 -22.5 -19.5t-37.5 -5.5h-256q-18 0 -28.5 9t-10.5 26z" />
<glyph unicode="Y" horiz-adv-x="1478" d="M63 1358q0 14 11.5 24.5t29.5 10.5h246q29 0 41 -9.5t25 -31.5l323 -568l324 568q12 23 24.5 32t38.5 9h248q18 0 29.5 -10.5t11.5 -24.5q0 -16 -10 -33l-496 -852v-385q0 -45 -21.5 -66.5t-72.5 -21.5h-153q-50 0 -71.5 21.5t-21.5 66.5v387l-495 850q-10 16 -11 33z " />
<glyph unicode="Z" horiz-adv-x="1302" d="M63 84q0 45 10.5 73.5t43.5 73.5l674 912h-615q-49 0 -70.5 21.5t-21.5 66.5v76q0 45 21.5 65.5t70.5 20.5h979q47 0 63.5 -19.5t16.5 -64.5q0 -47 -10.5 -74t-44.5 -76l-670 -911h637q49 0 70.5 -20.5t21.5 -67.5v-74q0 -45 -21.5 -65.5t-70.5 -20.5h-1006 q-47 0 -62.5 18.5t-15.5 65.5z" />
<glyph unicode="[" horiz-adv-x="679" d="M63 -55v1501q0 45 21.5 67.5t69.5 22.5h397q49 0 67.5 -19.5t18.5 -66.5v-76q0 -47 -18.5 -67.5t-67.5 -20.5h-150v-1182h150q49 0 67.5 -20.5t18.5 -67.5v-73q0 -47 -18.5 -66.5t-67.5 -19.5h-397q-50 0 -70.5 21.5t-20.5 66.5z" />
<glyph unicode="\" horiz-adv-x="1021" d="M63 1393q0 31 35 30h252q27 0 40 -10t22 -31l540 -1319q8 -25 9 -32q0 -31 -35 -31h-254q-25 0 -38 10t-22 31l-540 1319q-8 25 -9 33z" />
<glyph unicode="]" horiz-adv-x="679" d="M43 16q0 47 18.5 67.5t67.5 20.5h147v1182h-147q-49 0 -67.5 20.5t-18.5 67.5v76q0 47 18.5 66.5t67.5 19.5h397q47 0 68.5 -22.5t21.5 -67.5v-1501q0 -45 -20.5 -66.5t-69.5 -21.5h-397q-49 0 -67.5 19.5t-18.5 66.5v73z" />
<glyph unicode="^" horiz-adv-x="1273" d="M63 729q0 14 13 33l407 641q27 41 45.5 55.5t61.5 14.5h94q43 0 62.5 -15.5t44.5 -54.5l407 -641q10 -14 10 -33q0 -35 -39 -35h-217q-29 0 -44 9.5t-29 31.5l-242 408l-242 -408q-16 -23 -31.5 -32t-44.5 -9h-217q-18 0 -28.5 9.5t-10.5 25.5z" />
<glyph unicode="_" horiz-adv-x="1083" d="M63 -111q0 41 16.5 60.5t61.5 19.5h801q43 0 60.5 -19.5t17.5 -60.5v-90q0 -41 -17.5 -60.5t-60.5 -19.5h-801q-45 0 -61.5 19.5t-16.5 60.5v90z" />
<glyph unicode="`" horiz-adv-x="583" d="M63 1487q0 20 17.5 30.5t46.5 10.5h207q43 0 57.5 -11.5t26.5 -43.5l96 -263q6 -14 6 -26q0 -43 -59 -43h-160q-35 0 -51.5 8t-30.5 33l-143 266q-12 23 -13 39z" />
<glyph unicode="a" horiz-adv-x="1263" d="M63 438q0 172 80 302t223.5 202t331.5 72q145 0 257 -33t204 -94v-828q0 -35 -13 -47t-52 -12h-162q-23 0 -34 8t-17 27l-23 71q-61 -72 -149 -104.5t-213 -32.5q-197 0 -315 123t-118 346zM399 444q0 -123 55.5 -182t166.5 -59q90 0 156.5 51t66.5 139v359 q-59 30 -143 30h-5q-135 0 -216 -89t-81 -249z" />
<glyph unicode="b" horiz-adv-x="1269" d="M104 109v1194q0 45 21.5 67.5t71.5 22.5h147q51 0 71.5 -21.5t20.5 -68.5v-365q47 37 123 56.5t158 19.5q238 0 363.5 -126t125.5 -358q0 -266 -150.5 -413.5t-443.5 -147.5q-147 0 -285.5 39t-222.5 101zM436 238q29 -16 72 -25.5t88 -9.5q139 0 206.5 81t67.5 242 q0 131 -52 192.5t-171 61.5q-86 0 -148.5 -44t-62.5 -128v-370z" />
<glyph unicode="c" horiz-adv-x="1153" d="M63 489q0 156 71 275t204 184.5t313 65.5q133 0 227.5 -26.5t172.5 -80.5q20 -14 20 -33q0 -16 -12 -34l-70 -121q-14 -25 -28 -25q-10 0 -35 15q-59 37 -114.5 55t-133.5 18q-129 0 -204 -78.5t-75 -214.5q0 -143 75 -214.5t216 -71.5q78 0 136.5 19.5t113.5 53.5 q25 14 35 15q14 0 29 -25l75 -129q10 -16 11 -26q0 -16 -25 -33q-86 -55 -183.5 -82t-230.5 -27q-280 0 -434 134.5t-154 385.5z" />
<glyph unicode="d" horiz-adv-x="1269" d="M63 496q0 154 58.5 271.5t171.5 182t268 64.5q88 0 159 -19.5t114 -56.5v365q0 47 20 68.5t72 21.5h147q49 0 70.5 -22.5t21.5 -67.5v-1194q-84 -61 -219 -100.5t-284 -39.5q-599 1 -599 527zM399 492q0 -156 68 -222.5t203 -66.5q101 0 164 35v374q0 84 -53.5 126 t-143.5 42q-121 0 -179.5 -76.5t-58.5 -211.5z" />
<glyph unicode="e" horiz-adv-x="1220" d="M63 477q0 262 144.5 399.5t413.5 137.5q264 0 400 -133t136 -379q0 -86 -78 -86h-696q0 -111 83 -171.5t228 -60.5q86 0 149.5 17.5t123.5 50.5q20 10 28 10q14 0 27 -22l59 -111q8 -14 9 -25q0 -16 -23 -32q-82 -53 -184.5 -78t-235.5 -25q-166 0 -298 56.5t-209 170 t-77 281.5zM383 592h471q0 102 -57.5 159.5t-173.5 57.5q-117 0 -178.5 -58.5t-61.5 -158.5z" />
<glyph unicode="f" horiz-adv-x="911" d="M23 834v63q0 47 18 66.5t68 19.5h81v53q0 184 99.5 285.5t300.5 101.5q203 0 317 -84q23 -16 23 -32q0 -12 -10 -29l-64 -104q-12 -20 -29 -21q-10 0 -24 8q-68 37 -135 37q-76 0 -108 -37t-32 -114v-64h213q49 0 67.5 -19.5t18.5 -66.5v-63q0 -47 -18 -68t-68 -21h-213 v-657q0 -45 -20.5 -66.5t-71.5 -21.5h-153q-50 0 -71.5 21.5t-21.5 66.5v657h-81q-49 0 -67.5 20.5t-18.5 68.5z" />
<glyph unicode="g" horiz-adv-x="1269" d="M63 494q0 254 155 387t452 133q143 0 276 -40t219 -100v-667q0 -252 -127 -403.5t-403 -151.5q-125 0 -242 24.5t-180 65.5q-14 12 -14 27q0 10 6 20l74 125q6 10 13 17.5t15 7.5q4 0 25 -9q96 -49 272 -49q117 0 173.5 53.5t56.5 178.5q-98 -92 -277 -93 q-238 0 -366 123t-128 351zM399 512q0 -129 56.5 -190.5t175.5 -61.5q94 0 148.5 48t54.5 136v308q-68 28 -176 28h-7q-125 -2 -188.5 -63.5t-63.5 -204.5z" />
<glyph unicode="h" horiz-adv-x="1230" d="M104 88v1245q0 35 12.5 47.5t49.5 12.5h190q37 0 50.5 -12.5t13.5 -47.5v-436q133 117 346 117q168 0 269.5 -91.5t101.5 -271.5v-563q0 -45 -21.5 -66.5t-71.5 -21.5h-153q-51 0 -72.5 21.5t-21.5 66.5v543q0 80 -37 114.5t-113 34.5q-84 0 -144.5 -46t-60.5 -120v-526 q0 -45 -20.5 -66.5t-71.5 -21.5h-151q-52 0 -73.5 21.5t-21.5 66.5z" />
<glyph unicode="i" horiz-adv-x="575" d="M104 1233v47q0 47 33 80t90 33h119q59 0 92 -33t33 -80v-47q0 -47 -32.5 -80t-92.5 -33h-119q-57 0 -90 33t-33 80zM119 88v805q0 47 20.5 68.5t71.5 21.5h151q51 0 73 -22.5t22 -67.5v-805q0 -45 -21.5 -66.5t-73.5 -21.5h-151q-51 0 -71.5 21.5t-20.5 66.5z" />
<glyph unicode="j" horiz-adv-x="688" d="M-270 -207q0 16 12 35l74 125q14 25 30 24q8 0 31 -14q47 -33 93 -50t102 -17q88 0 123.5 40.5t35.5 126.5v830q0 45 21.5 67.5t71.5 22.5h153q51 0 72.5 -22.5t21.5 -67.5v-836q0 -188 -110.5 -296.5t-323.5 -108.5q-119 0 -218 28.5t-169 79.5q-20 14 -20 33zM217 1233 v47q0 47 33 80t90 33h119q59 0 92 -33t33 -80v-47q0 -47 -33 -80t-92 -33h-119q-57 0 -90 33t-33 80z" />
<glyph unicode="k" horiz-adv-x="1185" d="M104 88v1215q0 45 21.5 67.5t71.5 22.5h153q51 0 71.5 -21.5t20.5 -68.5v-730l15 17l315 366q12 16 25.5 21.5t40.5 5.5h254q16 0 26 -10t10 -25q0 -18 -14 -33l-379 -407l391 -440q13 -15 13 -33q0 -14 -9.5 -24.5t-27.5 -10.5h-256q-25 0 -38 5t-26 20l-325 401 q-6 6 -15 18v-356q0 -45 -20.5 -66.5t-71.5 -21.5h-153q-49 0 -71 21.5t-22 66.5z" />
<glyph unicode="l" horiz-adv-x="546" d="M104 88v1215q0 45 21.5 67.5t71.5 22.5h153q51 0 71.5 -21.5t20.5 -68.5v-1215q0 -45 -20.5 -66.5t-71.5 -21.5h-153q-50 0 -71.5 21.5t-21.5 66.5z" />
<glyph unicode="m" horiz-adv-x="1669" d="M104 88v836q0 35 12.5 47t49.5 12h151q25 0 36.5 -8t13.5 -29l8 -74q59 68 133 105t176 37q178 0 252 -142q115 141 315 142q152 0 238 -89t86 -270v-567q0 -45 -21.5 -66.5t-70.5 -21.5h-129q-51 0 -71.5 21.5t-20.5 66.5v547q0 78 -30 111.5t-89 33.5q-68 0 -110 -45 t-42 -119v-528q0 -45 -21.5 -66.5t-70.5 -21.5h-117q-51 0 -72.5 21.5t-21.5 66.5v555q0 70 -27.5 103.5t-85.5 33.5q-70 0 -113.5 -46t-43.5 -122v-524q0 -45 -20.5 -66.5t-71.5 -21.5h-127q-52 0 -73.5 21.5t-21.5 66.5z" />
<glyph unicode="n" horiz-adv-x="1230" d="M104 88v836q0 35 12.5 47t49.5 12h164q25 0 37 -8t14 -29l6 -72q63 66 159.5 103t219.5 37q168 0 269.5 -91.5t101.5 -271.5v-563q0 -45 -21.5 -66.5t-71.5 -21.5h-153q-51 0 -72.5 21.5t-21.5 66.5v543q0 80 -35 114.5t-115 34.5q-86 0 -145.5 -46t-59.5 -120v-526 q0 -45 -20.5 -66.5t-71.5 -21.5h-151q-52 0 -73.5 21.5t-21.5 66.5z" />
<glyph unicode="o" horiz-adv-x="1275" d="M63 492q0 242 151 382t423 140q274 0 424.5 -140.5t150.5 -381.5q0 -242 -150.5 -382.5t-424.5 -140.5q-272 0 -423 140.5t-151 382.5zM399 492q0 -137 61.5 -208t176.5 -71q117 0 178.5 69.5t61.5 209.5q0 137 -61.5 206.5t-178.5 69.5q-115 0 -176.5 -69.5 t-61.5 -206.5z" />
<glyph unicode="p" horiz-adv-x="1269" d="M104 -326v1200q86 59 220.5 99.5t275.5 40.5q606 0 606 -525q0 -240 -130 -380t-363 -140q-86 0 -157 22.5t-120 67.5v-385q0 -45 -20.5 -66.5t-71.5 -21.5h-147q-50 0 -71.5 21.5t-21.5 66.5zM434 387q0 -88 56.5 -137t146.5 -49q117 0 175 77.5t58 217.5 q0 154 -69.5 219t-210.5 65q-98 0 -156 -28v-365z" />
<glyph unicode="q" horiz-adv-x="1269" d="M63 461q0 264 156 408.5t451 144.5q143 0 276 -40t219 -100v-1200q0 -45 -21.5 -66.5t-70.5 -21.5h-147q-52 0 -72 21.5t-20 66.5v385q-49 -45 -120 -67.5t-157 -22.5q-236 0 -365 130t-129 362zM399 467q0 -266 232 -266q90 0 146.5 49t56.5 137v365q-55 28 -149 28h-7 q-133 0 -206 -78.5t-73 -234.5z" />
<glyph unicode="r" horiz-adv-x="899" d="M104 88v836q0 35 12.5 47t49.5 12h164q25 0 36 -8t13 -29l8 -65q123 133 307 133q59 0 97 -9.5t67 -29.5q18 -14 19 -29q0 -6 -5 -18l-51 -154q-8 -25 -26 -24q-8 0 -21 6q-51 26 -118 26h-5q-90 0 -149.5 -51t-59.5 -137v-506q0 -45 -20.5 -66.5t-71.5 -21.5h-151 q-52 0 -73.5 21.5t-21.5 66.5z" />
<glyph unicode="s" horiz-adv-x="1083" d="M63 111q0 10 11 26l71 127q12 20 25 21q14 0 31 -11q59 -35 148 -59.5t163 -24.5q90 0 130 19.5t40 66.5q0 31 -25.5 52.5t-70.5 37t-156 48.5q-170 51 -248 116.5t-78 186.5q0 145 122 221t327 76q242 0 412 -99q33 -18 32 -38q0 -12 -12 -31l-70 -111q-12 -20 -24 -20 q-10 0 -29 12q-51 29 -120.5 47.5t-139.5 18.5q-86 0 -129 -19.5t-43 -68.5q0 -41 48 -65t161 -54l113 -33q104 -35 161.5 -72t82 -86t24.5 -125q0 -131 -119 -216t-346 -85q-131 0 -250 27t-209 78q-33 18 -33 37z" />
<glyph unicode="t" horiz-adv-x="966" d="M25 829v68q0 47 16 66.5t65 19.5h101v82q0 45 19.5 89t56.5 110q16 29 30.5 38t51.5 9h94q47 0 66.5 -20.5t19.5 -65.5v-242h203q49 0 65 -19.5t16 -66.5v-68q0 -47 -16 -65.5t-65 -18.5h-203v-383q0 -80 28.5 -114.5t96.5 -34.5q41 0 68.5 10t62.5 33q16 10 24 10 q18 0 31 -22l76 -129q10 -16 10 -27q0 -14 -24 -31q-129 -88 -332 -88q-187 0 -283 102.5t-96 282.5v391h-101q-49 0 -65 18.5t-16 65.5z" />
<glyph unicode="u" horiz-adv-x="1222" d="M94 344v549q0 45 21.5 67.5t70.5 22.5h154q51 0 71.5 -21.5t20.5 -68.5v-537q0 -80 40 -116.5t118 -36.5q84 0 136 45t52 123v522q0 45 21.5 67.5t72.5 22.5h152q51 0 72.5 -22.5t21.5 -67.5v-834q0 -35 -12 -47t-49 -12h-164q-47 0 -49 35l-8 76q-135 -141 -371 -142 q-168 0 -269.5 94.5t-101.5 280.5z" />
<glyph unicode="v" horiz-adv-x="1261" d="M63 946q0 16 10.5 26.5t28.5 10.5h236q29 0 43 -9t25 -38l225 -553l225 553q10 27 24.5 37t43.5 10h235q18 0 28.5 -10t10.5 -27q0 -10 -8 -31l-404 -856q-16 -35 -32.5 -47t-51.5 -12h-143q-33 0 -50 13.5t-34 45.5l-403 856q-8 20 -9 31z" />
<glyph unicode="w" horiz-adv-x="1587" d="M66 954q0 29 36 29h213q27 0 38.5 -8t15.5 -29l143 -547l172 457q8 23 19.5 32t35.5 9h109q25 0 36 -9t19 -32l170 -457l146 547q4 20 14 28.5t37 8.5h215q37 0 37 -29q0 -7 -2 -16l-275 -891q-8 -27 -21.5 -37t-39.5 -10h-160q-27 0 -39 10t-22 37l-170 461l-170 -461 q-10 -27 -22.5 -37t-39.5 -10h-158q-28 0 -41.5 10t-21.5 37l-272 891q-2 6 -2 16z" />
<glyph unicode="x" horiz-adv-x="1259" d="M63 35q0 18 15 33l362 432l-346 415q-12 16 -12 35q0 14 9 23.5t28 9.5h254q25 0 37 -6t24 -21l195 -229l196 229q12 14 24.5 20.5t37.5 6.5h254q18 0 27.5 -9t9.5 -24q0 -18 -13 -35l-348 -415l365 -432q14 -14 14 -33q0 -14 -11 -24.5t-30 -10.5h-254q-25 0 -36 5 t-23 20l-213 247l-211 -247q-12 -14 -23.5 -19.5t-36.5 -5.5h-254q-18 0 -29.5 10t-11.5 25z" />
<glyph unicode="y" horiz-adv-x="1230" d="M72 -197q0 10 10 31l70 121q12 23 28 22q14 0 33 -12q33 -23 63.5 -34t71.5 -11q53 0 83 32t56 103l-405 860q-8 16 -8 33q0 35 37 35h237q29 0 43.5 -10t24.5 -35l225 -555l225 555q10 25 24.5 35t43.5 10h237q37 0 37 -35q0 -16 -8 -33l-383 -815q-76 -160 -134 -246.5 t-133 -129.5t-183 -43q-168 0 -277 92q-18 14 -18 30z" />
<glyph unicode="z" horiz-adv-x="1114" d="M68 68q0 74 17 110.5t75 93.5l454 461h-444q-49 0 -70.5 21.5t-21.5 66.5v76q0 45 21.5 65.5t70.5 20.5h791q39 0 53 -13.5t14 -49.5q0 -74 -18.5 -112t-71.5 -97l-432 -463h452q49 0 71 -20.5t22 -67.5v-74q0 -45 -21.5 -65.5t-71.5 -20.5h-817q-43 0 -58 15.5t-15 52.5 z" />
<glyph unicode="{" horiz-adv-x="790" d="M23 666v61q0 47 18 67.5t68 20.5h122v631q0 47 20.5 68.5t72.5 21.5h338q49 0 67.5 -19.5t18.5 -66.5v-64q0 -47 -18.5 -67.5t-67.5 -20.5h-99v-1206h99q49 0 67.5 -20.5t18.5 -67.5v-61q0 -47 -18.5 -66.5t-67.5 -19.5h-338q-52 0 -72.5 21.5t-20.5 66.5v635h-122 q-49 0 -67.5 19t-18.5 67z" />
<glyph unicode="|" horiz-adv-x="464" d="M63 -96v1583q0 45 21.5 67.5t71.5 22.5h153q51 0 71.5 -21.5t20.5 -68.5v-1583q0 -45 -20.5 -66.5t-71.5 -21.5h-153q-50 0 -71.5 21.5t-21.5 66.5z" />
<glyph unicode="}" horiz-adv-x="790" d="M43 4q0 47 18.5 67.5t67.5 20.5h98v1206h-98q-49 0 -67.5 20.5t-18.5 67.5v64q0 47 18.5 66.5t67.5 19.5h338q51 0 71.5 -21.5t20.5 -68.5v-631h123q49 0 67.5 -20.5t18.5 -67.5v-61q0 -47 -18.5 -66.5t-67.5 -19.5h-123v-635q0 -45 -20.5 -66.5t-71.5 -21.5h-338 q-49 0 -67.5 19.5t-18.5 66.5v61z" />
<glyph unicode="~" horiz-adv-x="1257" d="M66 592q0 29 32 74q59 80 133 125t177 45q68 0 122 -20.5t123 -59.5q59 -33 96 -48.5t80 -15.5q51 0 80 19.5t70 66.5q25 31 55 31q37 0 103 -51q29 -23 42 -41.5t13 -36.5q0 -29 -33 -74q-125 -170 -297 -170q-65 0 -116.5 18.5t-122.5 57.5q-63 33 -104.5 49.5 t-90.5 16.5q-51 0 -78.5 -19.5t-70.5 -66.5q-25 -29 -56 -29q-39 0 -104 51q-53 41 -53 78z" />
<glyph unicode="&#xa1;" horiz-adv-x="493" d="M63 1061v47q0 49 37 71.5t113 22.5h66q78 0 114.5 -22.5t36.5 -71.5v-47q0 -49 -37 -71.5t-114 -22.5h-66q-76 0 -113 22.5t-37 71.5zM78 -100l12 837q0 45 23.5 66.5t74.5 21.5h117q51 0 74.5 -21.5t23.5 -66.5l15 -837q0 -47 -20.5 -68.5t-71.5 -21.5h-156 q-51 0 -71.5 21.5t-20.5 68.5z" />
<glyph unicode="&#xa2;" horiz-adv-x="1153" d="M63 489q0 199 113 334t309 170v111q0 45 21.5 67.5t73.5 22.5h127q51 0 72.5 -22.5t21.5 -67.5v-103q152 -25 250 -94q20 -14 20 -33q0 -16 -12 -34l-70 -121q-14 -25 -28 -25q-10 0 -35 15q-55 37 -110.5 55t-137.5 18q-127 0 -203 -78.5t-76 -214.5q0 -141 77 -213.5 t214 -72.5t250 73q25 14 35 15q14 0 29 -25l75 -129q10 -16 11 -26q0 -16 -25 -33q-117 -76 -264 -96v-105q0 -45 -21.5 -66.5t-72.5 -21.5h-127q-52 0 -73.5 21.5t-21.5 66.5v111q-203 33 -312.5 160.5t-109.5 340.5z" />
<glyph unicode="&#xa3;" horiz-adv-x="1161" d="M63 88v62q0 47 18.5 66.5t68.5 19.5q43 0 66.5 32.5t23.5 93.5v275h-82q-49 0 -67.5 20.5t-18.5 67.5v63q0 47 18.5 66.5t67.5 19.5h82v152q0 182 112.5 289.5t321.5 107.5q213 0 327 -84q23 -16 23 -32q0 -12 -10 -29l-64 -104q-12 -20 -28 -21q-10 0 -25 8 q-68 37 -152 37q-80 0 -123.5 -40t-43.5 -122v-162h237q49 0 67.5 -19t18.5 -67v-63q0 -47 -18.5 -67.5t-67.5 -20.5h-237v-225q0 -61 -12.5 -104.5t-43.5 -71.5h488q49 0 68.5 -20.5t19.5 -65.5v-62q0 -47 -19.5 -67.5t-68.5 -20.5h-860q-50 0 -68.5 20.5t-18.5 67.5z" />
<glyph unicode="&#xa4;" horiz-adv-x="1140" d="M63 303q0 20 23 43l76 76q-59 98 -60 203q0 102 60 204l-76 76q-23 23 -23 41t23 41l111 105q23 23 47 22q25 0 45 -20l94 -84q90 45 188 45q96 0 187 -45l92 84q20 20 43 20q27 0 51 -24l109 -103q23 -20 22 -41q0 -18 -22 -41l-74 -76q59 -94 59 -204q0 -104 -59 -203 l74 -76q23 -23 22 -41q0 -20 -22 -41l-109 -104q-23 -23 -49 -23q-25 0 -45 21l-92 84q-84 -45 -187 -45q-104 0 -188 45l-94 -84q-20 -21 -45 -21t-47 23l-111 104q-23 20 -23 39zM387 625q0 -76 54.5 -130.5t129.5 -54.5q76 0 129.5 54.5t53.5 130.5t-53.5 130t-129.5 54 t-130 -53.5t-54 -130.5z" />
<glyph unicode="&#xa5;" horiz-adv-x="1478" d="M63 1358q0 14 11.5 24.5t29.5 10.5h246q29 0 41 -9.5t25 -31.5l323 -572l324 572q10 20 23.5 30.5t39.5 10.5h248q18 0 29.5 -10.5t11.5 -24.5q0 -16 -10 -33l-389 -668h102q39 0 52.5 -14t13.5 -61v-50q0 -45 -13.5 -59t-52.5 -14h-209v-97h209q39 0 52.5 -15t13.5 -60 v-51q0 -45 -13.5 -59.5t-52.5 -14.5h-209v-74q0 -45 -21.5 -66.5t-72.5 -21.5h-153q-50 0 -71.5 21.5t-21.5 66.5v74h-231q-39 0 -52.5 14t-13.5 60v51q0 45 13.5 60t52.5 15h231v97h-231q-39 0 -52.5 14t-13.5 59v50q0 47 13.5 61t52.5 14h123l-387 668q-10 16 -11 33z" />
<glyph unicode="&#xa6;" horiz-adv-x="464" d="M63 240q0 45 21.5 67.5t71.5 22.5h153q51 0 71.5 -21.5t20.5 -68.5v-600q0 -45 -20.5 -67t-71.5 -22h-153q-50 0 -71.5 21.5t-21.5 67.5v600zM63 805v600q0 45 21.5 67.5t71.5 22.5h153q51 0 71.5 -21.5t20.5 -68.5v-600q0 -45 -20.5 -66.5t-71.5 -21.5h-153 q-50 0 -71.5 21.5t-21.5 66.5z" />
<glyph unicode="&#xa7;" horiz-adv-x="1224" d="M66 -152q0 12 10 29l82 131q12 20 26 21q12 0 31 -13q158 -92 375 -92q117 0 175 31t58 102q0 59 -44 91t-154 77l-119 49q-125 57 -200 100.5t-128 110t-53 160.5q0 72 11 121t38 98q-55 80 -55 189q0 113 63.5 196.5t179 128.5t269.5 45q305 0 467 -114q31 -25 30 -41 q0 -12 -10 -29l-84 -133q-12 -20 -26 -21q-12 0 -31 13q-125 82 -303 82q-111 0 -166 -34t-55 -112q0 -45 24.5 -75.5t65.5 -51t125 -51.5l96 -39q125 -53 202.5 -97t134 -121t56.5 -191q0 -96 -53 -164q31 -37 44 -82t13 -111q0 -170 -136 -270t-396 -100q-328 -1 -533 124 q-31 20 -30 43zM389 709q4 -55 25.5 -89t61.5 -57.5t126 -60.5l53 -23q158 -63 238 -110q2 4 2 14q0 12 -2 18q-8 68 -54 108t-151 81q-115 47 -177 74.5t-118 64.5q-4 -6 -4 -20z" />
<glyph unicode="&#xa8;" horiz-adv-x="825" d="M63 1237v45q0 49 31 83t80 34h47q49 0 80 -34t31 -83v-45q0 -49 -31 -83t-80 -34h-47q-49 0 -80 34t-31 83zM494 1237v45q0 49 30.5 83t79.5 34h47q49 0 80 -34t31 -83v-45q0 -49 -31 -83t-80 -34h-47q-49 0 -79.5 34t-30.5 83z" />
<glyph unicode="&#xa9;" horiz-adv-x="1605" d="M63 696q0 197 100.5 364t270.5 265t369 98t368.5 -98t270 -265t100.5 -364t-100.5 -363.5t-270.5 -265t-368 -98.5q-199 0 -369 98.5t-270.5 265.5t-100.5 363zM262 696q0 -158 68.5 -281.5t191.5 -193t281 -69.5q155 0 278 69.5t191.5 193.5t68.5 281q0 156 -68.5 280 t-191.5 194.5t-278 70.5q-158 0 -281 -70.5t-191.5 -194.5t-68.5 -280zM342 692q0 219 124 346t337 127q106 0 184 -22.5t135 -71.5q12 -12 13 -24q0 -10 -7 -23l-41 -82q-10 -16 -20 -16q-8 0 -23 10q-41 31 -90 45t-123 14q-127 0 -196.5 -79.5t-69.5 -223.5 q0 -147 72 -222t203 -75q70 0 118 15.5t93 46.5q14 10 22 10q10 0 21 -16l41 -82q6 -12 6 -25q0 -12 -13 -22q-129 -96 -315 -97q-223 0 -347 122t-124 345z" />
<glyph unicode="&#xaa;" horiz-adv-x="749" d="M63 952q0 100 67 154.5t181 54.5h195v17q0 104 -144 104q-72 0 -151 -35q-4 -2 -10 -2q-8 0 -15 10l-55 95q-2 2 -2 8q0 10 21 20q96 45 229 45q162 0 234.5 -65.5t72.5 -202.5v-356q0 -27 -31 -27h-106q-25 0 -31 27l-8 41q-76 -86 -223 -86q-101 0 -162.5 53t-61.5 145 zM250 963q0 -78 98 -78q70 0 114 36.5t44 98.5v18h-152q-53 0 -78.5 -18.5t-25.5 -56.5z" />
<glyph unicode="&#xab;" horiz-adv-x="1439" d="M63 559v39q0 16 9.5 30.5t25 32t21.5 23.5l389 403q35 35 59 35q20 0 43 -22l111 -111q29 -29 29 -47q0 -20 -29 -49l-315 -313l315 -316q29 -29 29 -47t-29 -47l-111 -111q-23 -22 -43 -22q-25 0 -59 35l-389 403q-35 37 -45.5 51.5t-10.5 32.5zM690 559v39 q0 16 9.5 30.5t24.5 32t21 23.5l390 403q35 35 59 35q20 0 43 -22l111 -111q29 -29 28 -49q0 -18 -28 -47l-316 -313l316 -316q29 -29 28 -47q0 -18 -28 -47l-111 -111q-23 -22 -43 -22q-25 0 -59 35l-390 403q-35 37 -45 51.5t-10 32.5z" />
<glyph unicode="&#xac;" horiz-adv-x="962" d="M63 580v73q0 47 18.5 67.5t68.5 20.5h661q49 0 68.5 -20.5t19.5 -67.5v-331q0 -49 -21.5 -67.5t-68.5 -18.5h-92q-47 0 -67.5 18t-20.5 68v170h-479q-49 0 -68 20t-19 68z" />
<glyph unicode="&#xad;" horiz-adv-x="962" d="M63 580v73q0 47 18.5 67.5t68.5 20.5h661q49 0 68.5 -20.5t19.5 -67.5v-73q0 -47 -19.5 -67.5t-68.5 -20.5h-661q-50 0 -68.5 20t-18.5 68z" />
<glyph unicode="&#xae;" horiz-adv-x="1605" d="M63 696q0 197 100.5 364t270.5 265t369 98t368.5 -98t270 -265t100.5 -364t-100.5 -363.5t-270.5 -265t-368 -98.5q-199 0 -369 98.5t-270.5 265.5t-100.5 363zM262 696q0 -158 68.5 -281.5t191.5 -193t281 -69.5q155 0 278 69.5t191.5 193.5t68.5 281q0 156 -68.5 280 t-191.5 194.5t-278 70.5q-158 0 -281 -70.5t-191.5 -194.5t-68.5 -280zM489 340v733q0 29 14.5 42t45.5 13h317q313 0 314 -274q0 -197 -176 -248l131 -280q6 -12 6 -21q0 -20 -27 -20h-135q-18 0 -27.5 4t-13.5 16l-117 275h-121v-240q0 -55 -57 -55h-94q-31 0 -45.5 13 t-14.5 42zM700 733h148q72 0 102.5 29t30.5 92q0 66 -29.5 93.5t-99.5 27.5h-152v-242z" />
<glyph unicode="&#xaf;" horiz-adv-x="856" d="M63 1278v74q0 47 18.5 67.5t68.5 20.5h555q49 0 68.5 -20.5t19.5 -67.5v-74q0 -47 -19.5 -67.5t-68.5 -20.5h-555q-50 0 -68.5 20.5t-18.5 67.5z" />
<glyph unicode="&#xb0;" horiz-adv-x="690" d="M63 1200q0 133 76 206t205 73q131 0 207 -73t76 -206q0 -135 -77 -207.5t-206 -72.5t-205 72.5t-76 207.5zM240 1200q0 -53 28.5 -80.5t75.5 -27.5q49 0 78 27.5t29 80.5t-29 81t-78 28q-47 0 -75.5 -28t-28.5 -81z" />
<glyph unicode="&#xb1;" horiz-adv-x="946" d="M55 80v88q0 41 16.5 60.5t61.5 19.5h680q43 0 60.5 -19.5t17.5 -60.5v-88q0 -41 -16.5 -60.5t-61.5 -19.5h-680q-45 0 -61.5 19.5t-16.5 60.5zM63 715v90q0 49 19.5 64.5t69.5 15.5h192v170q0 43 15.5 59t64.5 16h111q49 0 64 -16t15 -59v-170h197q49 0 68.5 -15.5 t19.5 -64.5v-90q0 -49 -19.5 -64.5t-68.5 -15.5h-197v-168q0 -43 -15 -59.5t-64 -16.5h-111q-49 0 -64.5 16.5t-15.5 59.5v168h-192q-49 0 -69 15.5t-20 64.5z" />
<glyph unicode="&#xb2;" horiz-adv-x="780" d="M68 635v63q0 76 56 141.5t179 143.5q76 45 108.5 69.5t46 48t13.5 60.5q0 43 -31.5 66.5t-93.5 23.5q-86 0 -180 -45q-12 -6 -21 -6q-6 0 -16 12l-49 99q-6 12 -6 20q0 10 12 19q49 33 134 53t183 20q139 0 223.5 -63.5t84.5 -173.5q0 -92 -44 -151.5t-155 -125.5 q-74 -41 -113 -72.5t-51 -64.5h320q27 0 38 -11t11 -40v-86q0 -27 -11.5 -38t-37.5 -11h-555q-45 0 -45 49z" />
<glyph unicode="&#xb3;" horiz-adv-x="786" d="M63 662q0 6 7 18l49 92q6 12 16 12q6 0 19 -6q90 -45 172 -45q78 0 112.5 24.5t34.5 76.5q0 49 -24.5 70.5t-77.5 21.5h-84q-31 0 -43.5 11t-12.5 40v63q0 27 12.5 38.5t43.5 11.5h78q84 0 84 88q0 41 -27 61.5t-90 20.5q-49 0 -86 -10.5t-80 -32.5q-16 -8 -21 -9 q-8 0 -14 13l-47 92q-8 16 -8 22q0 10 10 17q47 33 124 52t163 19q152 0 239.5 -64.5t87.5 -174.5q0 -59 -21.5 -100.5t-70.5 -71.5q115 -49 115 -185q0 -117 -90 -186.5t-262 -69.5q-84 0 -167 19.5t-128 50.5q-12 10 -13 21z" />
<glyph unicode="&#xb4;" horiz-adv-x="583" d="M63 1182q0 14 7 28l94 258q14 35 29.5 47.5t60.5 12.5h199q31 0 48 -10.5t17 -30.5q0 -16 -12 -39l-133 -250q-18 -35 -38 -46t-69 -11h-145q-58 0 -58 41z" />
<glyph unicode="&#xb5;" horiz-adv-x="1150" d="M63 -272v1165q0 51 24 70.5t83 19.5h139q49 0 70.5 -21.5t21.5 -68.5v-537q0 -74 41 -113.5t117 -39.5q94 0 141.5 44t47.5 124v522q0 55 28.5 72.5t106.5 17.5h110q51 0 72.5 -21.5t21.5 -68.5v-834q0 -35 -12 -47t-49 -12h-164q-25 0 -36 8t-13 27l-8 76 q-33 -72 -89.5 -107t-150.5 -35q-45 0 -91 9.5t-73 23.5v-274q0 -55 -27.5 -72.5t-105.5 -17.5h-112q-50 0 -71.5 22.5t-21.5 67.5z" />
<glyph unicode="&#xb6;" horiz-adv-x="1576" d="M63 942q0 233 133.5 342t426.5 109h802q49 0 68.5 -20.5t19.5 -67.5v-76q0 -45 -19 -65.5t-69 -20.5h-69v-1260q0 -45 -21.5 -66.5t-72.5 -21.5h-150q-49 0 -70.5 21.5t-21.5 66.5v1260h-180v-1260q0 -45 -21.5 -66.5t-73.5 -21.5h-149q-51 0 -72.5 21.5t-21.5 66.5v647 q-207 0 -323 106.5t-116 305.5z" />
<glyph unicode="&#xb7;" horiz-adv-x="366" d="M63 635v41q0 43 28 72.5t71 29.5h43q43 0 70.5 -29.5t27.5 -72.5v-41q0 -43 -27.5 -74t-70.5 -31h-43q-43 0 -71 31t-28 74z" />
<glyph unicode="&#xb8;" horiz-adv-x="585" d="M65.5 -440.5q-4.5 6.5 2.5 20.5l34 90q6 14 17 15q8 0 20 -7q45 -20 92 -20q39 0 56.5 12.5t17.5 38.5q0 35 -26.5 47.5t-88.5 12.5h-32q-16 0 -21.5 9t0.5 23l56 140q6 16 15 22t30 6h170q25 0 24 -16q0 -10 -4 -16l-47 -103q141 -18 141 -151q0 -78 -63.5 -126.5 t-184.5 -48.5q-51 0 -104 10.5t-82 24.5q-18 10 -22.5 16.5z" />
<glyph unicode="&#xb9;" horiz-adv-x="724" d="M63 1212q0 14 19 23l235 143q12 8 23.5 11.5t30.5 3.5h96q33 0 47 -14.5t14 -45.5v-575h119q31 0 43 -13.5t12 -44.5v-57q0 -31 -12 -44t-43 -13h-479q-33 0 -46 13t-13 44v57q0 31 13 44.5t46 13.5h119v403l-111 -69q-10 -6 -20 -7q-14 0 -25 17l-61 92q-6 10 -7 18z " />
<glyph unicode="&#xba;" horiz-adv-x="845" d="M63 1087q0 158 94.5 247t264.5 89t265 -89t95 -247q0 -156 -95 -244.5t-265 -88.5t-264.5 89t-94.5 244zM281 1087q0 -86 37.5 -130t103.5 -44q67 0 105 44t38 130q0 88 -38 131.5t-105 43.5q-68 0 -104.5 -43t-36.5 -132z" />
<glyph unicode="&#xbb;" horiz-adv-x="1439" d="M63 215q0 23 29 49l314 316l-314 313q-29 27 -29 49q0 20 27 47l111 111q23 23 43 22q25 0 59 -35l389 -403q35 -37 46.5 -52.5t11.5 -33.5v-39q0 -16 -9.5 -29.5t-25 -30t-23.5 -24.5l-389 -403q-35 -35 -59 -35q-20 0 -43 22l-111 111q-27 27 -27 45zM690 215 q0 23 29 49l313 316l-313 313q-29 27 -29 49q0 20 27 47l110 111q23 23 43 22q25 0 60 -35l389 -403q35 -37 46 -52.5t11 -33.5v-39q0 -16 -9 -29.5t-24.5 -30t-23.5 -24.5l-389 -403q-35 -35 -60 -35q-20 0 -43 22l-110 111q-27 27 -27 45z" />
<glyph unicode="&#xbc;" horiz-adv-x="1712" d="M23 1212q0 14 18 23l235 143q12 8 23.5 11.5t30.5 3.5h96q33 0 47 -14.5t14 -45.5v-575h119q31 0 43.5 -13.5t12.5 -44.5v-57q0 -31 -12.5 -44t-43.5 -13h-479q-33 0 -46 13t-13 44v57q0 31 13 44.5t46 13.5h119v403l-111 -69q-8 -6 -20 -7q-14 0 -25 17l-61 92 q-6 10 -6 18zM322 33q0 14 10 30l813 1289q12 20 27.5 30.5t37.5 10.5h203q18 0 27.5 -9.5t9.5 -23.5t-10 -31l-819 -1296q-14 -25 -37 -29t-76 -4h-150q-18 0 -27 9t-9 24zM887 203v57q0 35 7 53.5t32 48.5l334 412q16 20 32.5 26.5t59.5 6.5h125q31 0 41 -11.5t10 -43.5 v-416h65q33 0 45.5 -11.5t12.5 -41.5v-66q0 -29 -11.5 -38t-46.5 -9h-65v-115q0 -31 -14.5 -43t-49.5 -12h-127q-34 0 -48.5 12.5t-14.5 42.5v115h-352q-35 0 -35 33zM1147 336h174v225z" />
<glyph unicode="&#xbd;" horiz-adv-x="1826" d="M23 1212q0 14 18 23l235 143q12 8 23.5 11.5t30.5 3.5h96q33 0 47 -14.5t14 -45.5v-575h119q31 0 43.5 -13.5t12.5 -44.5v-57q0 -31 -12.5 -44t-43.5 -13h-479q-33 0 -46 13t-13 44v57q0 31 13 44.5t46 13.5h119v403l-111 -69q-8 -6 -20 -7q-14 0 -25 17l-61 92 q-6 10 -6 18zM322 33q0 14 10 30l813 1289q12 20 27.5 30.5t37.5 10.5h203q18 0 27.5 -9.5t9.5 -23.5t-10 -31l-819 -1296q-14 -25 -37 -29t-76 -4h-150q-18 0 -27 9t-9 24zM1112 49v64q0 76 56.5 141t179.5 143q76 45 108.5 70t46 48.5t13.5 59.5q0 43 -32 67t-93 24 q-86 0 -181 -45q-12 -6 -20 -7q-6 0 -16 13l-50 98q-6 12 -6 20q0 10 12 19q49 33 134.5 53.5t183.5 20.5q139 0 223 -63.5t84 -174.5q0 -92 -44 -151.5t-155 -124.5q-74 -41 -112.5 -73t-50.5 -65h319q27 0 38 -11t11 -40v-86q0 -27 -11 -38t-38 -11h-555q-45 0 -45 49z " />
<glyph unicode="&#xbe;" horiz-adv-x="1748" d="M53 662q0 6 6 18l50 92q6 12 16 12q6 0 18 -6q90 -45 172 -45q78 0 113 24.5t35 76.5q0 49 -24.5 70.5t-78.5 21.5h-84q-31 0 -43 11t-12 40v63q0 27 12.5 38.5t42.5 11.5h78q84 0 84 88q0 41 -26.5 61.5t-89.5 20.5q-49 0 -86 -10.5t-80 -32.5q-16 -8 -21 -9 q-8 0 -14 13l-47 92q-8 16 -8 22q0 10 10 17q47 33 123.5 52t162.5 19q152 0 240 -64.5t88 -174.5q0 -59 -21.5 -100.5t-70.5 -71.5q115 -49 115 -185q0 -117 -90.5 -186.5t-262.5 -69.5q-84 0 -166.5 19.5t-127.5 50.5q-12 10 -13 21zM322 33q0 14 10 30l813 1289 q12 20 27.5 30.5t37.5 10.5h203q18 0 27.5 -9.5t9.5 -23.5t-10 -31l-819 -1296q-14 -25 -37 -29t-76 -4h-150q-18 0 -27 9t-9 24zM887 203v57q0 35 7 53.5t32 48.5l334 412q16 20 32.5 26.5t59.5 6.5h125q31 0 41 -11.5t10 -43.5v-416h65q33 0 45.5 -11.5t12.5 -41.5v-66 q0 -29 -11.5 -38t-46.5 -9h-65v-115q0 -31 -14.5 -43t-49.5 -12h-127q-34 0 -48.5 12.5t-14.5 42.5v115h-352q-35 0 -35 33zM1147 336h174v225z" />
<glyph unicode="&#xbf;" horiz-adv-x="1132" d="M63 176q0 125 57.5 204t184.5 152q100 57 137 105.5t37 126.5v22q0 45 20.5 66.5t71.5 21.5h154q49 0 70.5 -21.5t21.5 -66.5v-28q0 -127 -58.5 -213t-189.5 -166q-74 -45 -107.5 -71.5t-48 -55.5t-14.5 -74q0 -76 56.5 -115.5t162.5 -39.5q168 0 302 88q25 14 32 14 q16 0 31 -25l74 -125q12 -18 12 -34q0 -20 -20 -35q-174 -127 -474 -127q-229 0 -370.5 104.5t-141.5 292.5zM465 1063v45q0 45 31.5 69.5t93.5 24.5h119q59 0 90.5 -24.5t31.5 -69.5v-45q0 -43 -31.5 -68.5t-90.5 -25.5h-119q-62 0 -93.5 24.5t-31.5 69.5z" />
<glyph unicode="&#xc0;" horiz-adv-x="1515" d="M66 35q0 14 6 33l530 1263q14 35 31.5 48.5t50.5 13.5h150q33 0 49 -13.5t30 -48.5l531 -1263q6 -18 6 -33q0 -35 -37 -35h-248q-29 0 -42 9t-23 34l-94 242h-498l-92 -242q-10 -25 -23.5 -34t-42.5 -9h-248q-36 0 -36 35zM449 1825q0 20 18 31.5t49 11.5h197 q47 0 63.5 -11.5t28.5 -48.5l94 -258q6 -14 6 -26q0 -43 -59 -43h-144q-49 0 -68.5 11t-37.5 46l-135 250q-12 23 -12 37zM586 520h342l-170 443z" />
<glyph unicode="&#xc1;" horiz-adv-x="1515" d="M66 35q0 14 6 33l530 1263q14 35 31.5 48.5t50.5 13.5h150q33 0 49 -13.5t30 -48.5l531 -1263q6 -18 6 -33q0 -35 -37 -35h-248q-29 0 -42 9t-23 34l-94 242h-498l-92 -242q-10 -25 -23.5 -34t-42.5 -9h-248q-36 0 -36 35zM586 520h342l-170 443zM616 1522q0 14 7 28 l92 258q12 35 29.5 47.5t62.5 12.5h199q31 0 48 -10.5t17 -30.5q0 -16 -12 -39l-133 -250q-18 -35 -39 -46t-70 -11h-143q-58 0 -58 41z" />
<glyph unicode="&#xc2;" horiz-adv-x="1515" d="M66 35q0 14 6 33l530 1263q14 35 31.5 48.5t50.5 13.5h150q33 0 49 -13.5t30 -48.5l531 -1263q6 -18 6 -33q0 -35 -37 -35h-248q-29 0 -42 9t-23 34l-94 242h-498l-92 -242q-10 -25 -23.5 -34t-42.5 -9h-248q-36 0 -36 35zM358 1516q0 20 19 45l205 272q27 31 40 40t54 9 h162q41 0 56 -9t38 -40l205 -272q18 -27 18 -45q0 -16 -13.5 -26.5t-39.5 -10.5h-125q-43 0 -61.5 10t-36.5 39l-121 180l-121 -180q-18 -29 -36.5 -39t-61.5 -10h-125q-27 0 -41.5 10t-14.5 27zM586 520h342l-170 443z" />
<glyph unicode="&#xc3;" horiz-adv-x="1515" d="M66 35q0 14 6 33l530 1263q14 35 31.5 48.5t50.5 13.5h150q33 0 49 -13.5t30 -48.5l531 -1263q6 -18 6 -33q0 -35 -37 -35h-248q-29 0 -42 9t-23 34l-94 242h-498l-92 -242q-10 -25 -23.5 -34t-42.5 -9h-248q-36 0 -36 35zM313 1630q0 25 25 58q57 76 110.5 112.5 t131.5 36.5q59 0 106 -16.5t107 -44.5q45 -23 75.5 -33t61.5 -10q39 0 63.5 15t57.5 56q18 25 45 25q33 0 88 -43t55 -76q0 -23 -25 -57q-57 -84 -113.5 -121t-144.5 -37q-47 0 -90 14.5t-100 42.5q-49 23 -83 35t-69 12q-39 0 -62.5 -14t-55.5 -51q-18 -23 -41 -23 q-31 0 -90 48q-51 39 -52 71zM586 520h342l-170 443z" />
<glyph unicode="&#xc4;" horiz-adv-x="1515" d="M66 35q0 14 6 33l530 1263q14 35 31.5 48.5t50.5 13.5h150q33 0 49 -13.5t30 -48.5l531 -1263q6 -18 6 -33q0 -35 -37 -35h-248q-29 0 -42 9t-23 34l-94 242h-498l-92 -242q-10 -25 -23.5 -34t-42.5 -9h-248q-36 0 -36 35zM414 1585v45q0 49 30.5 83t79.5 34h47 q49 0 80 -34t31 -83v-45q0 -49 -30.5 -83t-80.5 -34h-47q-49 0 -79.5 34t-30.5 83zM586 520h342l-170 443zM834 1585v45q0 49 31.5 83t78.5 34h49q49 0 80 -34t31 -83v-45q0 -49 -31 -83t-80 -34h-49q-47 0 -78.5 34t-31.5 83z" />
<glyph unicode="&#xc5;" horiz-adv-x="1515" d="M66 35q0 14 6 33l530 1263l8 19q-45 33 -71.5 85t-26.5 111q0 102 71.5 175t174.5 73q102 0 175 -72.5t73 -175.5q0 -61 -27 -112.5t-74 -85.5l8 -17l531 -1263q6 -19 6 -33q0 -35 -37 -35h-248q-29 0 -42 9t-23 34l-94 242h-498l-92 -242q-10 -25 -23.5 -34t-42.5 -9 h-248q-37 0 -36 35zM586 520h342l-170 443zM664 1546q0 -39 27.5 -66.5t66.5 -27.5t66.5 27.5t27.5 66.5t-27.5 66.5t-66.5 27.5t-66.5 -27.5t-27.5 -66.5z" />
<glyph unicode="&#xc6;" horiz-adv-x="1824" d="M63 37q0 6 9 31l530 1263q14 35 30.5 48.5t51.5 13.5h991q49 0 67.5 -19.5t18.5 -66.5v-76q0 -47 -18.5 -67.5t-67.5 -20.5h-540v-324h358q49 0 67.5 -19.5t18.5 -66.5v-71q0 -47 -18.5 -68t-67.5 -21h-358v-325h538q49 0 68.5 -20.5t19.5 -67.5v-74q0 -45 -19.5 -65.5 t-68.5 -20.5h-762q-49 0 -70.5 21.5t-21.5 66.5v201h-311l-94 -252q-8 -23 -18.5 -30t-39.5 -7h-254q-18 0 -28.5 10t-10.5 27zM578 520h241v623h-12z" />
<glyph unicode="&#xc7;" horiz-adv-x="1388" d="M63 696q0 354 191.5 540.5t548.5 186.5q150 0 271.5 -29.5t205.5 -84.5q20 -14 20 -33q0 -16 -12 -35l-71 -125q-14 -23 -29 -22q-12 0 -35 12q-131 74 -309 74q-211 0 -328 -122t-117 -362q0 -242 122 -362.5t333 -120.5q193 0 324 74q23 12 34 12q14 0 29 -23l80 -137 q8 -14 8 -24q0 -12 -24 -31q-131 -94 -381 -111q0 -2 -4 -14l-48 -102q141 -18 142 -152q0 -78 -63.5 -126t-184.5 -48q-51 0 -104.5 10t-81.5 25q-18 10 -22.5 16t1.5 21l35 90q6 14 16 14q8 0 21 -6q45 -20 92 -20q39 0 56.5 12t17.5 39q0 35 -27 47t-88 12h-33 q-16 0 -21 9.5t1 23.5l55 139l6 12q-299 31 -463 215.5t-164 505.5z" />
<glyph unicode="&#xc8;" horiz-adv-x="1175" d="M104 88v1215q0 45 21.5 67.5t71.5 22.5h850q49 0 67.5 -19.5t18.5 -66.5v-76q0 -47 -18.5 -67.5t-67.5 -20.5h-605v-324h422q49 0 67.5 -19.5t18.5 -66.5v-71q0 -47 -18.5 -68t-67.5 -21h-422v-325h602q49 0 67.5 -20.5t18.5 -67.5v-74q0 -47 -18 -66.5t-68 -19.5h-847 q-50 0 -71.5 21.5t-21.5 66.5zM346 1874q0 20 18.5 31.5t49.5 11.5h196q47 0 63.5 -11.5t28.5 -47.5l95 -259q6 -14 6 -26q0 -43 -60 -43h-143q-49 0 -68.5 11t-37.5 46l-136 250q-12 23 -12 37z" />
<glyph unicode="&#xc9;" horiz-adv-x="1175" d="M104 88v1215q0 45 21.5 67.5t71.5 22.5h850q49 0 67.5 -19.5t18.5 -66.5v-76q0 -47 -18.5 -67.5t-67.5 -20.5h-605v-324h422q49 0 67.5 -19.5t18.5 -66.5v-71q0 -47 -18.5 -68t-67.5 -21h-422v-325h602q49 0 67.5 -20.5t18.5 -67.5v-74q0 -47 -18 -66.5t-68 -19.5h-847 q-50 0 -71.5 21.5t-21.5 66.5zM436 1571q0 14 6 28l93 259q12 35 29.5 47t62.5 12h198q31 0 48.5 -10.5t17.5 -30.5q0 -16 -12 -39l-134 -250q-18 -35 -38.5 -46t-69.5 -11h-143q-58 0 -58 41z" />
<glyph unicode="&#xca;" horiz-adv-x="1175" d="M104 88v1215q0 45 21.5 67.5t71.5 22.5h850q49 0 67.5 -19.5t18.5 -66.5v-76q0 -47 -18.5 -67.5t-67.5 -20.5h-605v-324h422q49 0 67.5 -19.5t18.5 -66.5v-71q0 -47 -18.5 -68t-67.5 -21h-422v-325h602q49 0 67.5 -20.5t18.5 -67.5v-74q0 -47 -18 -66.5t-68 -19.5h-847 q-50 0 -71.5 21.5t-21.5 66.5zM215 1565q0 20 18 45l205 272q27 31 40.5 40t53.5 9h162q41 0 56.5 -9t37.5 -40l205 -272q18 -27 19 -45q0 -16 -13.5 -26.5t-40.5 -10.5h-124q-43 0 -61.5 10t-37.5 39l-121 180l-120 -180q-18 -29 -37 -39t-62 -10h-125q-26 0 -40.5 10 t-14.5 27z" />
<glyph unicode="&#xcb;" horiz-adv-x="1175" d="M104 88v1215q0 45 21.5 67.5t71.5 22.5h850q49 0 67.5 -19.5t18.5 -66.5v-76q0 -47 -18.5 -67.5t-67.5 -20.5h-605v-324h422q49 0 67.5 -19.5t18.5 -66.5v-71q0 -47 -18.5 -68t-67.5 -21h-422v-325h602q49 0 67.5 -20.5t18.5 -67.5v-74q0 -47 -18 -66.5t-68 -19.5h-847 q-50 0 -71.5 21.5t-21.5 66.5zM268 1640v46q0 49 31 82.5t80 33.5h47q49 0 80 -33.5t31 -82.5v-46q0 -49 -31 -82.5t-80 -33.5h-47q-49 0 -80 33.5t-31 82.5zM688 1640v46q0 49 32 82.5t79 33.5h49q49 0 79.5 -33.5t30.5 -82.5v-46q0 -49 -30.5 -82.5t-79.5 -33.5h-49 q-47 0 -79 33.5t-32 82.5z" />
<glyph unicode="&#xcc;" horiz-adv-x="546" d="M-41 1874q0 20 18.5 31.5t49.5 11.5h196q47 0 63.5 -11.5t28.5 -47.5l95 -259q6 -14 6 -26q0 -43 -60 -43h-143q-49 0 -68.5 11t-38.5 46l-135 250q-12 23 -12 37zM104 88v1215q0 45 21.5 67.5t71.5 22.5h153q51 0 71.5 -21.5t20.5 -68.5v-1215q0 -45 -20.5 -66.5 t-71.5 -21.5h-153q-50 0 -71.5 21.5t-21.5 66.5z" />
<glyph unicode="&#xcd;" horiz-adv-x="593" d="M129 88v1215q0 45 21.5 67.5t70.5 22.5h154q51 0 71.5 -21.5t20.5 -68.5v-1215q0 -45 -20.5 -66.5t-71.5 -21.5h-154q-49 0 -70.5 21.5t-21.5 66.5zM143 1571q0 14 7 28l92 259q12 35 29.5 47t62.5 12h198q31 0 48.5 -10.5t17.5 -30.5q0 -16 -12 -39l-133 -250 q-18 -35 -39 -46t-70 -11h-143q-58 0 -58 41z" />
<glyph unicode="&#xce;" horiz-adv-x="591" d="M-102 1579q0 20 18 45l205 272q27 31 40 40.5t54 9.5h162q41 0 56.5 -9.5t37.5 -40.5l205 -272q18 -27 18 -45q0 -16 -13 -26.5t-40 -10.5h-125q-43 0 -61.5 10.5t-36.5 38.5l-121 181l-121 -181q-18 -29 -36.5 -39t-61.5 -10h-125q-27 0 -41 10.5t-14 26.5zM129 88v1215 q0 45 21.5 67.5t70.5 22.5h154q51 0 71.5 -21.5t20.5 -68.5v-1215q0 -45 -20.5 -66.5t-71.5 -21.5h-154q-49 0 -70.5 21.5t-21.5 66.5z" />
<glyph unicode="&#xcf;" horiz-adv-x="567" d="M-61 1559v45q0 49 30.5 82.5t79.5 33.5h47q49 0 80 -33.5t31 -82.5v-45q0 -49 -31 -83t-80 -34h-47q-49 0 -79.5 33.5t-30.5 83.5zM106 88v1215q0 45 22 67.5t71 22.5h153q51 0 71.5 -21.5t20.5 -68.5v-1215q0 -45 -20.5 -66.5t-71.5 -21.5h-153q-49 0 -71 21.5t-22 66.5 zM358 1559v45q0 49 32 82.5t79 33.5h49q49 0 80 -33.5t31 -82.5v-45q0 -49 -31 -83t-80 -34h-49q-47 0 -79 33.5t-32 83.5z" />
<glyph unicode="&#xd0;" horiz-adv-x="1492" d="M23 657v78q0 47 17 66.5t64 19.5h89v482q0 47 20 68.5t72 21.5h430q348 0 531.5 -168t183.5 -529q0 -354 -184.5 -525t-530.5 -171h-430q-52 0 -72 21.5t-20 66.5v485h-89q-47 0 -64 18.5t-17 65.5zM530 248h201q182 0 272.5 101.5t90.5 346.5q0 246 -90.5 346.5 t-272.5 100.5h-201v-322h246q47 0 64.5 -19.5t17.5 -66.5v-78q0 -47 -17.5 -65.5t-64.5 -18.5h-246v-325z" />
<glyph unicode="&#xd1;" horiz-adv-x="1431" d="M104 88v1217q0 45 21.5 66.5t73.5 21.5h127q35 0 52 -9.5t38 -35.5l573 -809v764q0 45 21.5 67.5t70.5 22.5h154q51 0 71.5 -21.5t20.5 -68.5v-1215q0 -45 -20.5 -66.5t-71.5 -21.5h-129q-33 0 -50.5 9t-37.5 36l-576 807v-764q0 -45 -20.5 -66.5t-71.5 -21.5h-153 q-50 0 -71.5 21.5t-21.5 66.5zM264 1679q0 25 25 58q57 76 110.5 112.5t130.5 36.5q59 0 106.5 -15.5t106.5 -45.5q45 -23 76 -33t62 -10q39 0 63.5 15t56.5 56q18 25 46 25q33 0 88 -43t55 -76q0 -23 -25 -57q-57 -84 -113.5 -121t-144.5 -37q-47 0 -90 14.5t-100 43.5 q-49 23 -83 35t-69 12q-39 0 -62.5 -14.5t-56.5 -51.5q-18 -23 -40 -22q-31 0 -91 47q-51 39 -51 71z" />
<glyph unicode="&#xd2;" horiz-adv-x="1554" d="M63 696q0 346 183.5 536.5t531.5 190.5q346 0 529.5 -190.5t183.5 -536.5t-183.5 -536.5t-529.5 -190.5q-348 0 -531.5 190.5t-183.5 536.5zM399 696q0 -240 95.5 -361.5t283.5 -121.5q187 0 282 122t95 361q0 240 -95 362t-282 122q-188 0 -283.5 -122t-95.5 -362z M496 1874q0 20 18 31.5t49 11.5h197q47 0 63.5 -11.5t28.5 -47.5l94 -259q6 -14 6 -26q0 -43 -59 -43h-143q-50 0 -69 11t-38 46l-135 250q-12 23 -12 37z" />
<glyph unicode="&#xd3;" horiz-adv-x="1554" d="M63 696q0 346 183.5 536.5t531.5 190.5q346 0 529.5 -190.5t183.5 -536.5t-183.5 -536.5t-529.5 -190.5q-348 0 -531.5 190.5t-183.5 536.5zM399 696q0 -240 95.5 -361.5t283.5 -121.5q187 0 282 122t95 361q0 240 -95 362t-282 122q-188 0 -283.5 -122t-95.5 -362z M629 1571q0 14 6 28l92 259q12 35 29.5 47t62.5 12h199q31 0 48 -10.5t17 -30.5q0 -16 -12 -39l-133 -250q-18 -35 -38.5 -46t-70.5 -11h-143q-57 0 -57 41z" />
<glyph unicode="&#xd4;" horiz-adv-x="1554" d="M63 696q0 346 183.5 536.5t531.5 190.5q346 0 529.5 -190.5t183.5 -536.5t-183.5 -536.5t-529.5 -190.5q-348 0 -531.5 190.5t-183.5 536.5zM379 1565q0 20 18 45l205 272q27 31 40 40t54 9h162q41 0 56.5 -9t37.5 -40l205 -272q18 -27 19 -45q0 -16 -13.5 -26.5 t-40.5 -10.5h-125q-43 0 -61 10t-37 39l-121 180l-121 -180q-18 -29 -36.5 -39t-61.5 -10h-125q-26 0 -40.5 10t-14.5 27zM399 696q0 -240 95.5 -361.5t283.5 -121.5q187 0 282 122t95 361q0 240 -95 362t-282 122q-188 0 -283.5 -122t-95.5 -362z" />
<glyph unicode="&#xd5;" horiz-adv-x="1554" d="M63 696q0 346 183.5 536.5t531.5 190.5q346 0 529.5 -190.5t183.5 -536.5t-183.5 -536.5t-529.5 -190.5q-348 0 -531.5 190.5t-183.5 536.5zM334 1679q0 25 24 58q57 76 110.5 112.5t131.5 36.5q59 0 106.5 -15.5t106.5 -45.5q45 -23 76 -33t61 -10q39 0 63.5 15t57.5 56 q18 25 45 25q33 0 88 -43t56 -76q0 -23 -25 -57q-57 -84 -113.5 -121t-144.5 -37q-47 0 -90 14.5t-101 43.5q-49 23 -82.5 35t-68.5 12q-39 0 -62.5 -14.5t-56.5 -51.5q-18 -23 -41 -22q-31 0 -90 47q-51 39 -51 71zM399 696q0 -240 95.5 -361.5t283.5 -121.5q187 0 282 122 t95 361q0 240 -95 362t-282 122q-188 0 -283.5 -122t-95.5 -362z" />
<glyph unicode="&#xd6;" horiz-adv-x="1554" d="M63 696q0 346 183.5 536.5t531.5 190.5q346 0 529.5 -190.5t183.5 -536.5t-183.5 -536.5t-529.5 -190.5q-348 0 -531.5 190.5t-183.5 536.5zM399 696q0 -240 95.5 -361.5t283.5 -121.5q187 0 282 122t95 361q0 240 -95 362t-282 122q-188 0 -283.5 -122t-95.5 -362z M432 1614v45q0 49 31 83t80 34h47q49 0 79.5 -34t30.5 -83v-45q0 -49 -30.5 -83t-79.5 -34h-47q-49 0 -80 34t-31 83zM852 1614v45q0 49 31.5 83t79.5 34h49q49 0 79.5 -34t30.5 -83v-45q0 -49 -30.5 -83t-79.5 -34h-49q-48 0 -79.5 34t-31.5 83z" />
<glyph unicode="&#xd7;" horiz-adv-x="811" d="M102 416q0 25 31 55l146 145l-146 146q-31 31 -31 57q0 25 31 55l55 56q33 33 58 33t55 -31l145 -148l148 148q31 31 53 31q29 0 58 -33l55 -56q33 -29 33 -57q0 -25 -31 -55l-146 -146l146 -145q31 -31 31 -55q0 -29 -33 -58l-55 -53q-31 -31 -56 -31q-27 0 -55 29 l-148 146l-145 -146q-30 -31 -53 -31q-29 0 -58 33l-55 53q-33 33 -33 58z" />
<glyph unicode="&#xd8;" horiz-adv-x="1554" d="M63 696q0 346 183.5 536.5t531.5 190.5q80 0 140 -8l32 82q16 41 62 41h200q35 0 35 -29q0 -18 -8 -34l-59 -144q153 -86 232 -247.5t79 -387.5q0 -346 -183.5 -536.5t-529.5 -190.5q-70 0 -145 11l-47 -115q-16 -41 -60 -41h-202q-35 0 -35 31q0 8 8 32l72 179 q-150 86 -228 246.5t-78 383.5zM399 696q0 -225 86 -348l336 830q-14 2 -43 2q-188 0 -283.5 -122t-95.5 -362zM727 215q16 -2 51 -2q187 0 282 122t95 361q0 229 -88 353z" />
<glyph unicode="&#xd9;" horiz-adv-x="1466" d="M94 498v805q0 45 21.5 67.5t70.5 22.5h154q51 0 71.5 -21.5t20.5 -68.5v-811q0 -133 80 -206t221 -73t220 72.5t79 206.5v811q0 45 21.5 67.5t70.5 22.5h154q51 0 72.5 -22.5t21.5 -67.5v-805q0 -162 -81 -282t-225 -183.5t-333 -63.5q-188 0 -333.5 63.5t-225.5 183.5 t-80 282zM467 1874q0 20 18.5 31.5t49.5 11.5h196q47 0 63.5 -11.5t28.5 -47.5l95 -259q6 -14 6 -26q0 -43 -60 -43h-143q-49 0 -68.5 11t-38.5 46l-135 250q-12 23 -12 37z" />
<glyph unicode="&#xda;" horiz-adv-x="1466" d="M94 498v805q0 45 21.5 67.5t70.5 22.5h154q51 0 71.5 -21.5t20.5 -68.5v-811q0 -133 80 -206t221 -73t220 72.5t79 206.5v811q0 45 21.5 67.5t70.5 22.5h154q51 0 72.5 -22.5t21.5 -67.5v-805q0 -162 -81 -282t-225 -183.5t-333 -63.5q-188 0 -333.5 63.5t-225.5 183.5 t-80 282zM592 1571q0 14 6 28l92 259q12 35 29.5 47t62.5 12h199q31 0 48.5 -10.5t17.5 -30.5q0 -16 -13 -39l-133 -250q-18 -35 -38.5 -46t-69.5 -11h-144q-57 0 -57 41z" />
<glyph unicode="&#xdb;" horiz-adv-x="1466" d="M94 498v805q0 45 21.5 67.5t70.5 22.5h154q51 0 71.5 -21.5t20.5 -68.5v-811q0 -133 80 -206t221 -73t220 72.5t79 206.5v811q0 45 21.5 67.5t70.5 22.5h154q51 0 72.5 -22.5t21.5 -67.5v-805q0 -162 -81 -282t-225 -183.5t-333 -63.5q-188 0 -333.5 63.5t-225.5 183.5 t-80 282zM334 1565q0 20 18 45l205 272q27 31 40 40t54 9h162q41 0 56.5 -9t37.5 -40l205 -272q18 -27 18 -45q0 -16 -13 -26.5t-40 -10.5h-125q-43 0 -61.5 10t-36.5 39l-121 180l-121 -180q-18 -29 -36.5 -39t-61.5 -10h-125q-27 0 -41 10t-14 27z" />
<glyph unicode="&#xdc;" horiz-adv-x="1466" d="M94 498v805q0 45 21.5 67.5t70.5 22.5h154q51 0 71.5 -21.5t20.5 -68.5v-811q0 -133 80 -206t221 -73t220 72.5t79 206.5v811q0 45 21.5 67.5t70.5 22.5h154q51 0 72.5 -22.5t21.5 -67.5v-805q0 -162 -81 -282t-225 -183.5t-333 -63.5q-188 0 -333.5 63.5t-225.5 183.5 t-80 282zM389 1614v45q0 49 31 83t80 34h47q49 0 79.5 -34t30.5 -83v-45q0 -49 -30.5 -83t-79.5 -34h-47q-49 0 -80 34t-31 83zM809 1614v45q0 49 31.5 83t79.5 34h49q49 0 79.5 -34t30.5 -83v-45q0 -49 -30.5 -83t-79.5 -34h-49q-48 0 -79.5 34t-31.5 83z" />
<glyph unicode="&#xdd;" horiz-adv-x="1478" d="M63 1358q0 14 11.5 24.5t29.5 10.5h246q29 0 41 -9.5t25 -31.5l323 -568l324 568q12 23 24.5 32t38.5 9h248q18 0 29.5 -10.5t11.5 -24.5q0 -16 -10 -33l-496 -852v-385q0 -45 -21.5 -66.5t-72.5 -21.5h-153q-50 0 -71.5 21.5t-21.5 66.5v387l-495 850q-10 16 -11 33z M608 1571q0 14 6 28l93 259q12 35 29.5 47t62.5 12h198q31 0 48.5 -10.5t17.5 -30.5q0 -16 -12 -39l-133 -250q-18 -35 -39 -46t-70 -11h-143q-58 0 -58 41z" />
<glyph unicode="&#xde;" horiz-adv-x="1298" d="M104 88v1215q0 45 21.5 67.5t71.5 22.5h153q51 0 71.5 -21.5t20.5 -68.5v-136h267q526 0 526 -471q0 -469 -526 -469h-267v-139q0 -45 -20.5 -66.5t-71.5 -21.5h-153q-50 0 -71.5 21.5t-21.5 66.5zM444 475h242q213 0 213 221t-213 222h-242v-443z" />
<glyph unicode="&#xdf;" horiz-adv-x="1339" d="M94 88v899q0 225 140.5 356.5t435.5 131.5q287 0 427 -116t140 -321q0 -111 -46 -194.5t-126 -116.5q109 -37 160 -125t51 -211q0 -199 -111.5 -310.5t-318.5 -111.5q-215 0 -336 84q-16 12 -16 31q0 10 6 22l82 140q12 18 24 18q4 0 21 -8q53 -37 139 -37q82 0 121 52.5 t39 144.5q0 80 -31 121t-89 54t-155 13q-41 0 -60.5 14.5t-19.5 49.5v104q0 35 16.5 48.5t57.5 13.5q135 0 195.5 38.5t60.5 149.5q0 115 -53 162t-178 47q-238 0 -238 -230v-913q0 -45 -21.5 -66.5t-72.5 -21.5h-148q-53 0 -74.5 20.5t-21.5 67.5z" />
<glyph unicode="&#xe0;" horiz-adv-x="1263" d="M63 438q0 172 80 302t223.5 202t331.5 72q145 0 257 -33t204 -94v-828q0 -35 -13 -47t-52 -12h-162q-23 0 -34 8t-17 27l-23 71q-61 -72 -149 -104.5t-213 -32.5q-197 0 -315 123t-118 346zM399 444q0 -123 55.5 -182t166.5 -59q90 0 156.5 51t66.5 139v359 q-61 31 -148 30q-135 0 -216 -89t-81 -249zM434 1460q0 20 18.5 31.5t49.5 11.5h196q47 0 63.5 -11t29.5 -48l94 -258q6 -14 6 -27q0 -43 -60 -43h-143q-49 0 -68.5 11.5t-37.5 46.5l-136 249q-12 23 -12 37z" />
<glyph unicode="&#xe1;" horiz-adv-x="1263" d="M63 438q0 172 80 302t223.5 202t331.5 72q145 0 257 -33t204 -94v-828q0 -35 -13 -47t-52 -12h-162q-23 0 -34 8t-17 27l-23 71q-61 -72 -149 -104.5t-213 -32.5q-197 0 -315 123t-118 346zM399 444q0 -123 55.5 -182t166.5 -59q90 0 156.5 51t66.5 139v359 q-61 31 -148 30q-135 0 -216 -89t-81 -249zM518 1157q0 14 6 29l92 258q12 35 30 47t63 12h198q31 0 48.5 -10t17.5 -31q0 -16 -12 -39l-134 -249q-18 -35 -38.5 -46.5t-69.5 -11.5h-144q-57 0 -57 41z" />
<glyph unicode="&#xe2;" horiz-adv-x="1263" d="M63 438q0 172 80 302t223.5 202t331.5 72q145 0 257 -33t204 -94v-828q0 -35 -13 -47t-52 -12h-162q-23 0 -34 8t-17 27l-23 71q-61 -72 -149 -104.5t-213 -32.5q-197 0 -315 123t-118 346zM274 1151q0 20 19 45l205 272q27 31 40 40.5t54 9.5h162q41 0 56 -9.5t38 -40.5 l205 -272q18 -27 18 -45q0 -16 -13.5 -26.5t-39.5 -10.5h-125q-43 0 -61.5 10.5t-36.5 38.5l-121 180l-121 -180q-18 -29 -36.5 -39t-61.5 -10h-125q-27 0 -41.5 10.5t-14.5 26.5zM399 444q0 -123 55.5 -182t166.5 -59q90 0 156.5 51t66.5 139v359q-61 31 -148 30 q-135 0 -216 -89t-81 -249z" />
<glyph unicode="&#xe3;" horiz-adv-x="1282" d="M63 438q0 172 80 302t223.5 202t331.5 72q145 0 257 -33t204 -94v-828q0 -35 -13 -47t-52 -12h-162q-23 0 -34 8t-17 27l-23 71q-61 -72 -149 -104.5t-213 -32.5q-197 0 -315 123t-118 346zM252 1290q0 25 24 58q57 76 110.5 112.5t131.5 36.5q59 0 106.5 -15.5 t106.5 -45.5q45 -23 76 -33t61 -10q39 0 63.5 15t57.5 56q18 25 45 25q33 0 88 -43t56 -76q0 -23 -25 -57q-57 -84 -113.5 -121t-144.5 -37q-47 0 -90 14.5t-100 42.5q-49 23 -83 35.5t-69 12.5q-39 0 -62.5 -14.5t-56.5 -51.5q-18 -23 -41 -23q-31 0 -90 48q-51 39 -51 71z M399 444q0 -123 55.5 -182t166.5 -59q90 0 156.5 51t66.5 139v359q-61 31 -148 30q-135 0 -216 -89t-81 -249z" />
<glyph unicode="&#xe4;" horiz-adv-x="1263" d="M63 438q0 172 80 302t223.5 202t331.5 72q145 0 257 -33t204 -94v-828q0 -35 -13 -47t-52 -12h-162q-23 0 -34 8t-17 27l-23 71q-61 -72 -149 -104.5t-213 -32.5q-197 0 -315 123t-118 346zM352 1225v45q0 49 31 82.5t80 33.5h47q49 0 80 -33.5t31 -82.5v-45 q0 -49 -31 -83t-80 -34h-47q-49 0 -80 34t-31 83zM399 444q0 -123 55.5 -182t166.5 -59q90 0 156.5 51t66.5 139v359q-61 31 -148 30q-135 0 -216 -89t-81 -249zM772 1225v45q0 49 32 82.5t79 33.5h49q49 0 79.5 -33.5t30.5 -82.5v-45q0 -49 -30.5 -83t-79.5 -34h-49 q-47 0 -79 34t-32 83z" />
<glyph unicode="&#xe5;" horiz-adv-x="1263" d="M63 438q0 172 80 302t223.5 202t331.5 72q145 0 257 -33t204 -94v-828q0 -35 -13 -47t-52 -12h-162q-23 0 -34 8t-17 27l-23 71q-61 -72 -149 -104.5t-213 -32.5q-197 0 -315 123t-118 346zM399 444q0 -123 55.5 -182t166.5 -59q90 0 156.5 51t66.5 139v359 q-61 31 -148 30q-135 0 -216 -89t-81 -249zM451 1360q0 102 71.5 175t173.5 73t175 -73t73 -175t-72.5 -174t-175.5 -72q-102 0 -173.5 71.5t-71.5 174.5zM602 1360q0 -39 27.5 -66.5t66.5 -27.5t67 27.5t28 66.5t-28 66.5t-67 27.5t-66.5 -27.5t-27.5 -66.5z" />
<glyph unicode="&#xe6;" horiz-adv-x="1927" d="M63 283q0 317 418 317h291v31q0 82 -55 126t-197 44q-137 0 -254 -56q-16 -8 -28 -8q-18 0 -31 25l-55 106q-8 14 -9 27q0 16 23 31q147 88 383 88q287 0 393 -176q55 86 155.5 131t231.5 45q264 0 399.5 -133t135.5 -379q0 -86 -76 -86h-686q0 -109 80 -170.5t223 -61.5 q86 0 148.5 17.5t119.5 50.5q20 10 29 10q14 0 27 -22l59 -111q8 -14 8 -27q0 -16 -22 -30q-84 -53 -179.5 -78t-224.5 -25q-145 0 -257 50.5t-171 148.5q-74 -98 -192.5 -148.5t-268.5 -50.5q-192 0 -305 78t-113 236zM348 299q0 -115 170 -115q125 0 189.5 50.5 t64.5 148.5v41h-258q-166 0 -166 -125zM1102 592h463q0 217 -232 217q-231 0 -231 -217z" />
<glyph unicode="&#xe7;" horiz-adv-x="1153" d="M63 489q0 156 71 275t204 184.5t313 65.5q133 0 227.5 -26.5t172.5 -80.5q20 -14 20 -33q0 -16 -12 -34l-70 -121q-14 -25 -28 -25q-10 0 -35 15q-59 37 -114.5 55t-133.5 18q-129 0 -204 -78.5t-75 -214.5q0 -143 75 -214.5t216 -71.5q78 0 136.5 19.5t113.5 53.5 q25 14 35 15q14 0 29 -25l75 -129q11 -16 11 -26q0 -16 -25 -33q-137 -88 -311 -105q6 -10 -2 -24l-47 -103q141 -18 141 -151q0 -78 -63.5 -126t-184.5 -48q-51 0 -104.5 10t-81.5 25q-18 10 -22.5 16t1.5 20l35 91q6 14 16 14q8 0 21 -6q45 -20 92 -21q39 0 56.5 12.5 t17.5 38.5q0 35 -27 47.5t-88 12.5h-33q-16 0 -21 9t1 24l55 139q6 16 16 22q-225 29 -347 160t-122 354z" />
<glyph unicode="&#xe8;" horiz-adv-x="1220" d="M63 477q0 262 144.5 399.5t413.5 137.5q264 0 400 -133t136 -379q0 -86 -78 -86h-696q0 -111 83 -171.5t228 -60.5q86 0 149.5 17.5t123.5 50.5q20 10 28 10q14 0 27 -22l59 -111q8 -14 9 -25q0 -16 -23 -32q-82 -53 -184.5 -78t-235.5 -25q-166 0 -298 56.5t-209 170 t-77 281.5zM352 1460q0 20 18.5 31.5t49.5 11.5h196q47 0 63.5 -11t29.5 -48l94 -258q6 -14 6 -27q0 -43 -59 -43h-144q-49 0 -68.5 11.5t-37.5 46.5l-135 249q-12 23 -13 37zM383 592h471q0 102 -57.5 159.5t-173.5 57.5q-117 0 -178.5 -58.5t-61.5 -158.5z" />
<glyph unicode="&#xe9;" horiz-adv-x="1220" d="M63 477q0 262 144.5 399.5t413.5 137.5q264 0 400 -133t136 -379q0 -86 -78 -86h-696q0 -111 83 -171.5t228 -60.5q86 0 149.5 17.5t123.5 50.5q20 10 28 10q14 0 27 -22l59 -111q8 -14 9 -25q0 -16 -23 -32q-82 -53 -184.5 -78t-235.5 -25q-166 0 -298 56.5t-209 170 t-77 281.5zM383 592h471q0 102 -57.5 159.5t-173.5 57.5q-117 0 -178.5 -58.5t-61.5 -158.5zM479 1157q0 14 6 29l93 258q12 35 29.5 47t62.5 12h198q31 0 48.5 -10t17.5 -31q0 -16 -12 -39l-134 -249q-18 -35 -38.5 -46.5t-69.5 -11.5h-143q-58 0 -58 41z" />
<glyph unicode="&#xea;" horiz-adv-x="1220" d="M63 477q0 262 144.5 399.5t413.5 137.5q264 0 400 -133t136 -379q0 -86 -78 -86h-696q0 -111 83 -171.5t228 -60.5q86 0 149.5 17.5t123.5 50.5q20 10 28 10q14 0 27 -22l59 -111q8 -14 9 -25q0 -16 -23 -32q-82 -53 -184.5 -78t-235.5 -25q-166 0 -298 56.5t-209 170 t-77 281.5zM246 1151q0 20 18 45l205 272q27 31 40 40.5t54 9.5h162q41 0 56.5 -9.5t37.5 -40.5l205 -272q18 -27 18 -45q0 -16 -13 -26.5t-40 -10.5h-125q-43 0 -61.5 10.5t-36.5 38.5l-121 180l-121 -180q-18 -29 -36.5 -39t-61.5 -10h-125q-27 0 -41 10.5t-14 26.5z M383 592h471q0 102 -57.5 159.5t-173.5 57.5q-117 0 -178.5 -58.5t-61.5 -158.5z" />
<glyph unicode="&#xeb;" horiz-adv-x="1220" d="M63 477q0 262 144.5 399.5t413.5 137.5q264 0 400 -133t136 -379q0 -86 -78 -86h-696q0 -111 83 -171.5t228 -60.5q86 0 149.5 17.5t123.5 50.5q20 10 28 10q14 0 27 -22l59 -111q8 -14 9 -25q0 -16 -23 -32q-82 -53 -184.5 -78t-235.5 -25q-166 0 -298 56.5t-209 170 t-77 281.5zM301 1188v45q0 49 30.5 83t80.5 34h47q49 0 79.5 -34t30.5 -83v-45q0 -49 -30.5 -83t-79.5 -34h-47q-50 0 -80.5 34t-30.5 83zM383 592h471q0 102 -57.5 159.5t-173.5 57.5q-117 0 -178.5 -58.5t-61.5 -158.5zM721 1188v45q0 49 31.5 83t78.5 34h50 q49 0 79.5 -34t30.5 -83v-45q0 -49 -30.5 -83t-79.5 -34h-50q-47 0 -78.5 34t-31.5 83z" />
<glyph unicode="&#xec;" horiz-adv-x="583" d="M-10 1460q0 20 18.5 31.5t48.5 11.5h197q47 0 63.5 -11t28.5 -48l94 -258q6 -14 6 -27q0 -43 -59 -43h-143q-49 0 -68.5 11.5t-38.5 46.5l-135 249q-12 23 -12 37zM123 88v805q0 45 21.5 67.5t70.5 22.5h154q51 0 71.5 -21.5t20.5 -68.5v-805q0 -45 -20.5 -66.5 t-71.5 -21.5h-154q-49 0 -70.5 21.5t-21.5 66.5z" />
<glyph unicode="&#xed;" horiz-adv-x="563" d="M113 88v805q0 45 21.5 67.5t70.5 22.5h153q51 0 72 -21.5t21 -68.5v-805q0 -45 -20.5 -66.5t-72.5 -21.5h-153q-49 0 -70.5 21.5t-21.5 66.5zM119 1157q0 14 6 29l92 258q12 35 29.5 47t62.5 12h199q31 0 48 -10t17 -31q0 -16 -12 -39l-133 -249q-18 -35 -38.5 -46.5 t-70.5 -11.5h-143q-57 0 -57 41z" />
<glyph unicode="&#xee;" horiz-adv-x="583" d="M-109 1126q0 20 19 45l205 273q27 31 40 40t54 9h162q41 0 56 -9t38 -40l205 -273q18 -27 18 -45q0 -16 -13 -26t-40 -10h-125q-43 0 -61.5 10t-36.5 39l-121 180l-121 -180q-18 -29 -36.5 -39t-61.5 -10h-125q-27 0 -41.5 10t-14.5 26zM123 88v805q0 45 21.5 67.5 t70.5 22.5h154q51 0 71.5 -21.5t20.5 -68.5v-805q0 -45 -20.5 -66.5t-71.5 -21.5h-154q-49 0 -70.5 21.5t-21.5 66.5z" />
<glyph unicode="&#xef;" horiz-adv-x="583" d="M-53 1200v45q0 49 30.5 83t79.5 34h47q49 0 80 -34t31 -83v-45q0 -49 -30.5 -83t-80.5 -34h-47q-49 0 -79.5 34t-30.5 83zM123 88v805q0 45 21.5 67.5t70.5 22.5h154q51 0 71.5 -21.5t20.5 -68.5v-805q0 -45 -20.5 -66.5t-71.5 -21.5h-154q-49 0 -70.5 21.5t-21.5 66.5z M367 1200v45q0 49 31.5 83t78.5 34h49q49 0 80 -34t31 -83v-45q0 -49 -31 -83t-80 -34h-49q-47 0 -78.5 34t-31.5 83z" />
<glyph unicode="&#xf0;" horiz-adv-x="1378" d="M63 385q0 178 75 310t212 205t320 73q121 0 202.5 -33t145.5 -102q2 113 -15.5 181t-58.5 107l-63 -88q-14 -20 -35 -20h-182q-14 0 -19.5 8t0.5 18l100 140q-14 2 -40 2q-131 0 -265 -62q-25 -10 -34 -10q-16 0 -25 21l-47 122q-6 16 -6 27q0 25 28 41q168 98 418 98 q70 0 133 -12l25 35q14 20 37 20h182q14 0 18.5 -8t-2.5 -18l-73 -103q98 -63 153.5 -178t55.5 -280q0 -119 -31 -267q-72 -332 -267.5 -487.5t-457.5 -155.5q-254 0 -369 103.5t-115 312.5zM397 395q0 -90 51.5 -136t149.5 -46q123 0 207 84t110 242q4 18 5 51 q0 88 -57.5 136t-149.5 48q-315 0 -316 -379z" />
<glyph unicode="&#xf1;" horiz-adv-x="1230" d="M104 88v836q0 35 12.5 47t49.5 12h164q25 0 37 -8t14 -29l6 -72q63 66 159.5 103t219.5 37q168 0 269.5 -91.5t101.5 -271.5v-563q0 -45 -21.5 -66.5t-71.5 -21.5h-153q-51 0 -72.5 21.5t-21.5 66.5v543q0 80 -35 114.5t-115 34.5q-86 0 -145.5 -46t-59.5 -120v-526 q0 -45 -20.5 -66.5t-71.5 -21.5h-151q-52 0 -73.5 21.5t-21.5 66.5zM162 1290q0 25 24 58q57 76 110.5 112.5t131.5 36.5q59 0 106.5 -16.5t106.5 -44.5q45 -23 76 -33t61 -10q39 0 63.5 15t57.5 56q18 25 45 25q33 0 88 -43t55 -76q0 -23 -24 -57q-57 -84 -113.5 -121 t-144.5 -37q-47 0 -90 14.5t-101 42.5q-49 23 -82.5 35.5t-68.5 12.5q-39 0 -62.5 -14.5t-56.5 -51.5q-18 -23 -41 -23q-31 0 -90 48q-51 39 -51 71z" />
<glyph unicode="&#xf2;" horiz-adv-x="1275" d="M63 492q0 242 151 382t423 140q274 0 424.5 -140.5t150.5 -381.5q0 -242 -150.5 -382.5t-424.5 -140.5q-272 0 -423 140.5t-151 382.5zM344 1460q0 20 18.5 31.5t49.5 11.5h196q47 0 63.5 -11t28.5 -48l95 -258q6 -14 6 -27q0 -43 -60 -43h-143q-49 0 -68.5 11.5 t-37.5 46.5l-136 249q-12 23 -12 37zM399 492q0 -137 61.5 -208t176.5 -71q117 0 178.5 69.5t61.5 209.5q0 137 -61.5 206.5t-178.5 69.5q-115 0 -176.5 -69.5t-61.5 -206.5z" />
<glyph unicode="&#xf3;" horiz-adv-x="1275" d="M63 492q0 242 151 382t423 140q274 0 424.5 -140.5t150.5 -381.5q0 -242 -150.5 -382.5t-424.5 -140.5q-272 0 -423 140.5t-151 382.5zM399 492q0 -137 61.5 -208t176.5 -71q117 0 178.5 69.5t61.5 209.5q0 137 -61.5 206.5t-178.5 69.5q-115 0 -176.5 -69.5 t-61.5 -206.5zM457 1157q0 14 6 29l92 258q12 35 29.5 47t62.5 12h199q31 0 48 -10t17 -31q0 -16 -12 -39l-133 -249q-18 -35 -38.5 -46.5t-70.5 -11.5h-143q-57 0 -57 41z" />
<glyph unicode="&#xf4;" horiz-adv-x="1275" d="M63 492q0 242 151 382t423 140q274 0 424.5 -140.5t150.5 -381.5q0 -242 -150.5 -382.5t-424.5 -140.5q-272 0 -423 140.5t-151 382.5zM236 1151q0 20 18 45l205 272q27 31 40 40.5t54 9.5h162q41 0 56 -9.5t38 -40.5l205 -272q18 -27 18 -45q0 -16 -13 -26.5t-40 -10.5 h-125q-43 0 -61.5 10.5t-36.5 38.5l-121 180l-121 -180q-18 -29 -36.5 -39t-61.5 -10h-125q-27 0 -41 10.5t-14 26.5zM399 492q0 -137 61.5 -208t176.5 -71q117 0 178.5 69.5t61.5 209.5q0 137 -61.5 206.5t-178.5 69.5q-115 0 -176.5 -69.5t-61.5 -206.5z" />
<glyph unicode="&#xf5;" horiz-adv-x="1275" d="M63 492q0 242 151 382t423 140q274 0 424.5 -140.5t150.5 -381.5q0 -242 -150.5 -382.5t-424.5 -140.5q-272 0 -423 140.5t-151 382.5zM193 1278q0 25 24 57q57 76 110.5 113t131.5 37q59 0 106 -15.5t107 -46.5q45 -23 75.5 -33t61.5 -10q39 0 63.5 15.5t57.5 56.5 q18 25 45 25q33 0 88 -43t55 -76q0 -23 -24 -58q-57 -84 -113.5 -120.5t-144.5 -36.5q-48 0 -91 14t-100 43q-49 23 -83 35t-68 12q-39 0 -62.5 -14t-56.5 -51q-18 -23 -41 -23q-31 0 -90 47q-51 39 -51 72zM399 492q0 -137 61.5 -208t176.5 -71q117 0 178.5 69.5 t61.5 209.5q0 137 -61.5 206.5t-178.5 69.5q-115 0 -176.5 -69.5t-61.5 -206.5z" />
<glyph unicode="&#xf6;" horiz-adv-x="1275" d="M63 492q0 242 151 382t423 140q274 0 424.5 -140.5t150.5 -381.5q0 -242 -150.5 -382.5t-424.5 -140.5q-272 0 -423 140.5t-151 382.5zM291 1225v45q0 49 30.5 82.5t79.5 33.5h48q49 0 79.5 -33.5t30.5 -82.5v-45q0 -49 -30.5 -83t-79.5 -34h-48q-49 0 -79.5 34t-30.5 83 zM399 492q0 -137 61.5 -208t176.5 -71q117 0 178.5 69.5t61.5 209.5q0 137 -61.5 206.5t-178.5 69.5q-115 0 -176.5 -69.5t-61.5 -206.5zM711 1225v45q0 49 31.5 82.5t78.5 33.5h49q49 0 80 -33.5t31 -82.5v-45q0 -49 -30.5 -83t-80.5 -34h-49q-47 0 -78.5 34t-31.5 83z" />
<glyph unicode="&#xf7;" horiz-adv-x="962" d="M63 571v91q0 41 16.5 60t61.5 19h680q43 0 60.5 -19.5t17.5 -59.5v-91q0 -41 -17.5 -60t-60.5 -19h-680q-45 0 -61.5 19t-16.5 60zM354 272v43q0 43 28 73t71 30h43q43 0 70.5 -30t27.5 -73v-43q0 -43 -27.5 -72.5t-70.5 -29.5h-43q-43 0 -71 29.5t-28 72.5zM354 918v43 q0 43 28 72.5t71 29.5h43q43 0 70.5 -29.5t27.5 -72.5v-43q0 -43 -27.5 -73t-70.5 -30h-43q-43 0 -71 29.5t-28 73.5z" />
<glyph unicode="&#xf8;" horiz-adv-x="1275" d="M63 492q0 242 151 382t423 140q39 0 59 -2l49 121q16 41 62 41h201q35 0 34 -29q0 -18 -8 -35l-69 -168q120 -63 183.5 -180t63.5 -270q0 -242 -150.5 -382.5t-424.5 -140.5q-47 0 -70 2l-43 -106q-16 -41 -59 -41h-203q-35 0 -35 31q0 8 9 32l65 160q-117 63 -177.5 178 t-60.5 267zM399 492q0 -87 25 -146l172 420q-197 -25 -197 -274zM668 215q102 8 155.5 77.5t53.5 199.5q0 96 -31 159z" />
<glyph unicode="&#xf9;" horiz-adv-x="1222" d="M94 344v549q0 45 21.5 67.5t70.5 22.5h154q51 0 71.5 -21.5t20.5 -68.5v-537q0 -80 40 -116.5t118 -36.5q84 0 136 45t52 123v522q0 45 21.5 67.5t72.5 22.5h152q51 0 72.5 -22.5t21.5 -67.5v-834q0 -35 -12 -47t-49 -12h-164q-47 0 -49 35l-8 76q-135 -141 -371 -142 q-168 0 -269.5 94.5t-101.5 280.5zM350 1460q0 20 18.5 31.5t49.5 11.5h196q47 0 63.5 -11t29.5 -48l94 -258q6 -14 6 -27q0 -43 -59 -43h-144q-49 0 -68.5 11.5t-37.5 46.5l-136 249q-12 23 -12 37z" />
<glyph unicode="&#xfa;" horiz-adv-x="1222" d="M94 344v549q0 45 21.5 67.5t70.5 22.5h154q51 0 71.5 -21.5t20.5 -68.5v-537q0 -80 40 -116.5t118 -36.5q84 0 136 45t52 123v522q0 45 21.5 67.5t72.5 22.5h152q51 0 72.5 -22.5t21.5 -67.5v-834q0 -35 -12 -47t-49 -12h-164q-47 0 -49 35l-8 76q-135 -141 -371 -142 q-168 0 -269.5 94.5t-101.5 280.5zM442 1157q0 14 7 29l92 258q12 35 29.5 47t62.5 12h198q31 0 48.5 -10t17.5 -31q0 -16 -12 -39l-133 -249q-18 -35 -39 -46.5t-70 -11.5h-143q-58 0 -58 41z" />
<glyph unicode="&#xfb;" horiz-adv-x="1222" d="M94 344v549q0 45 21.5 67.5t70.5 22.5h154q51 0 71.5 -21.5t20.5 -68.5v-537q0 -80 40 -116.5t118 -36.5q84 0 136 45t52 123v522q0 45 21.5 67.5t72.5 22.5h152q51 0 72.5 -22.5t21.5 -67.5v-834q0 -35 -12 -47t-49 -12h-164q-47 0 -49 35l-8 76q-135 -141 -371 -142 q-168 0 -269.5 94.5t-101.5 280.5zM205 1151q0 20 18 45l205 272q27 31 40 40.5t54 9.5h162q41 0 56.5 -9.5t37.5 -40.5l205 -272q18 -27 18 -45q0 -16 -13 -26.5t-40 -10.5h-125q-43 0 -61.5 10.5t-36.5 38.5l-121 180l-121 -180q-18 -29 -36.5 -39t-61.5 -10h-125 q-27 0 -41 10.5t-14 26.5z" />
<glyph unicode="&#xfc;" horiz-adv-x="1222" d="M94 344v549q0 45 21.5 67.5t70.5 22.5h154q51 0 71.5 -21.5t20.5 -68.5v-537q0 -80 40 -116.5t118 -36.5q84 0 136 45t52 123v522q0 45 21.5 67.5t72.5 22.5h152q51 0 72.5 -22.5t21.5 -67.5v-834q0 -35 -12 -47t-49 -12h-164q-47 0 -49 35l-8 76q-135 -141 -371 -142 q-168 0 -269.5 94.5t-101.5 280.5zM268 1235v45q0 49 31 83t80 34h47q49 0 80 -34t31 -83v-45q0 -49 -31 -83t-80 -34h-47q-49 0 -80 34t-31 83zM688 1235v45q0 49 32 83t79 34h49q49 0 79.5 -34t30.5 -83v-45q0 -49 -30.5 -83t-79.5 -34h-49q-47 0 -79 34t-32 83z" />
<glyph unicode="&#xfd;" horiz-adv-x="1230" d="M72 -197q0 10 10 31l70 121q12 23 28 22q14 0 33 -12q33 -23 63.5 -34t71.5 -11q53 0 83 32t56 103l-405 860q-8 16 -8 33q0 35 37 35h237q29 0 43.5 -10t24.5 -35l225 -555l225 555q10 25 24.5 35t43.5 10h237q37 0 37 -35q0 -16 -8 -33l-383 -815q-76 -160 -134 -246.5 t-133 -129.5t-183 -43q-168 0 -277 92q-18 14 -18 30zM475 1182q0 14 6 28l92 258q12 35 30 47.5t63 12.5h198q31 0 48.5 -10.5t17.5 -30.5q0 -16 -12 -39l-134 -250q-18 -35 -38.5 -46t-69.5 -11h-144q-57 0 -57 41z" />
<glyph unicode="&#xfe;" horiz-adv-x="1269" d="M104 -326v1659q0 45 21.5 67.5t71.5 22.5h147q51 0 71.5 -21.5t20.5 -68.5v-350q39 14 92.5 22.5t102.5 8.5q276 0 425.5 -132t149.5 -393q0 -240 -130 -380t-363 -140q-86 0 -158 20.5t-119 61.5v-377q0 -45 -20.5 -66.5t-71.5 -21.5h-147q-50 0 -71.5 21.5t-21.5 66.5z M436 387q0 -88 56.5 -137t146.5 -49q117 0 174 77.5t57 217.5q0 154 -68.5 219t-209.5 65q-98 0 -156 -28v-365z" />
<glyph unicode="&#xff;" horiz-adv-x="1230" d="M72 -197q0 10 10 31l70 121q12 23 28 22q14 0 33 -12q33 -23 63.5 -34t71.5 -11q53 0 83 32t56 103l-405 860q-8 16 -8 33q0 35 37 35h237q29 0 43.5 -10t24.5 -35l225 -555l225 555q10 25 24.5 35t43.5 10h237q37 0 37 -35q0 -16 -8 -33l-383 -815q-76 -160 -134 -246.5 t-133 -129.5t-183 -43q-168 0 -277 92q-18 14 -18 30zM291 1225v45q0 49 30.5 82.5t79.5 33.5h48q49 0 79.5 -33.5t30.5 -82.5v-45q0 -49 -30.5 -83t-79.5 -34h-48q-49 0 -79.5 34t-30.5 83zM711 1225v45q0 49 31.5 82.5t78.5 33.5h49q49 0 80 -33.5t31 -82.5v-45 q0 -49 -30.5 -83t-80.5 -34h-49q-47 0 -78.5 34t-31.5 83z" />
<glyph unicode="&#x100;" horiz-adv-x="1515" d="M66 35q0 14 6 33l530 1263q14 35 31.5 48.5t50.5 13.5h150q33 0 49 -13.5t30 -48.5l531 -1263q6 -18 6 -33q0 -35 -37 -35h-248q-29 0 -42 9t-23 34l-94 242h-498l-92 -242q-10 -25 -23.5 -34t-42.5 -9h-248q-36 0 -36 35zM395 1655v74q0 47 18.5 67.5t67.5 20.5h555 q49 0 67.5 -20.5t18.5 -67.5v-74q0 -47 -18.5 -67.5t-67.5 -20.5h-555q-49 0 -67.5 20.5t-18.5 67.5zM586 520h342l-170 443z" />
<glyph unicode="&#x101;" horiz-adv-x="1263" d="M63 438q0 172 80 302t223.5 202t331.5 72q145 0 257 -33t204 -94v-828q0 -35 -13 -47t-52 -12h-162q-23 0 -34 8t-17 27l-23 71q-61 -72 -149 -104.5t-213 -32.5q-197 0 -315 123t-118 346zM330 1241v74q0 47 18.5 67.5t67.5 20.5h555q49 0 67.5 -20.5t18.5 -67.5v-74 q0 -47 -18.5 -67.5t-67.5 -20.5h-555q-49 0 -67.5 20.5t-18.5 67.5zM399 444q0 -123 55.5 -182t166.5 -59q90 0 156.5 51t66.5 139v359q-61 31 -148 30q-135 0 -216 -89t-81 -249z" />
<glyph unicode="&#x102;" horiz-adv-x="1515" d="M66 35q0 14 6 33l530 1263q14 35 31.5 48.5t50.5 13.5h150q33 0 49 -13.5t30 -48.5l531 -1263q6 -18 6 -33q0 -35 -37 -35h-248q-29 0 -42 9t-23 34l-94 242h-498l-92 -242q-10 -25 -23.5 -34t-42.5 -9h-248q-36 0 -36 35zM395 1880q0 16 9.5 26.5t23.5 10.5h178 q20 0 27.5 -9.5t7.5 -29.5q0 -127 117 -127t116 127q0 20 7.5 29.5t27.5 9.5h178q14 0 23.5 -10.5t9.5 -26.5q0 -154 -93 -249t-269 -95q-178 0 -270.5 95t-92.5 249zM586 520h342l-170 443z" />
<glyph unicode="&#x103;" horiz-adv-x="1263" d="M63 438q0 172 80 302t223.5 202t331.5 72q145 0 257 -33t204 -94v-828q0 -35 -13 -47t-52 -12h-162q-23 0 -34 8t-17 27l-23 71q-61 -72 -149 -104.5t-213 -32.5q-197 0 -315 123t-118 346zM332 1479q0 16 9 26.5t24 10.5h178q20 0 27.5 -9.5t7.5 -29.5q0 -127 116 -127 q117 0 117 127q0 20 7 29.5t28 9.5h178q14 0 23.5 -10.5t9.5 -26.5q0 -154 -93.5 -249t-269.5 -95q-178 0 -270 95t-92 249zM399 444q0 -123 55.5 -182t166.5 -59q90 0 156.5 51t66.5 139v359q-61 31 -148 30q-135 0 -216 -89t-81 -249z" />
<glyph unicode="&#x104;" horiz-adv-x="1515" d="M66 35q0 14 6 33l530 1263q14 35 31.5 48.5t50.5 13.5h150q33 0 49 -13.5t30 -48.5l531 -1263q6 -19 6 -33q0 -35 -37 -35h-74q8 -10 -4 -23q-74 -86 -98.5 -129t-24.5 -86q0 -55 50 -55q29 0 45 8q8 4 12 4q10 0 16 -14l37 -80q4 -8 4 -12q0 -12 -24 -23 q-57 -29 -181 -28q-94 0 -143 48t-49 122q0 57 29.5 116.5t95.5 135.5q20 20 26 22q-18 8 -30 37l-94 242h-498l-92 -242q-10 -25 -23.5 -34t-42.5 -9h-248q-37 0 -36 35zM586 520h342l-170 443z" />
<glyph unicode="&#x105;" horiz-adv-x="1263" d="M63 438q0 172 80 302t223.5 202t331.5 72q145 0 257 -33t204 -94v-828q0 -25 -7 -38t-26 -17q4 -10 -6 -18q-74 -86 -98.5 -129t-24.5 -86q0 -55 50 -56q29 0 45 9q8 4 12 4q10 0 16 -15l37 -80q4 -8 4 -12q0 -12 -24 -22q-57 -29 -181 -29q-94 0 -143 48t-49 122 q0 57 29.5 116.5t95.5 135.5l12 14q-14 6 -20 29l-23 71q-61 -72 -149 -104.5t-213 -32.5q-197 0 -315 123t-118 346zM399 444q0 -123 55.5 -182t166.5 -59q90 0 156.5 51t66.5 139v359q-61 31 -148 30q-135 0 -216 -89t-81 -249z" />
<glyph unicode="&#x106;" horiz-adv-x="1388" d="M63 696q0 354 191.5 540.5t548.5 186.5q150 0 271.5 -29.5t205.5 -84.5q20 -14 20 -33q0 -16 -12 -35l-71 -125q-14 -23 -29 -22q-12 0 -35 12q-131 74 -309 74q-211 0 -328 -122t-117 -362q0 -242 122 -362.5t333 -120.5q193 0 324 74q23 12 34 12q14 0 29 -23l80 -137 q8 -14 8 -24q0 -12 -24 -31q-160 -115 -494 -115q-356 0 -552 187.5t-196 539.5zM618 1571q0 14 7 28l92 259q12 35 29.5 47t62.5 12h199q31 0 48 -10.5t17 -30.5q0 -16 -12 -39l-133 -250q-18 -35 -39 -46t-70 -11h-143q-58 0 -58 41z" />
<glyph unicode="&#x107;" horiz-adv-x="1153" d="M63 489q0 156 71 275t204 184.5t313 65.5q133 0 227.5 -26.5t172.5 -80.5q20 -14 20 -33q0 -16 -12 -34l-70 -121q-14 -25 -28 -25q-10 0 -35 15q-59 37 -114.5 55t-133.5 18q-129 0 -204 -78.5t-75 -214.5q0 -143 75 -214.5t216 -71.5q78 0 136.5 19.5t113.5 53.5 q25 14 35 15q14 0 29 -25l75 -129q10 -16 11 -26q0 -16 -25 -33q-86 -55 -183.5 -82t-230.5 -27q-280 0 -434 134.5t-154 385.5zM465 1157q0 14 6 29l92 258q12 35 29.5 47t62.5 12h199q31 0 48.5 -10t17.5 -31q0 -16 -13 -39l-133 -249q-18 -35 -38.5 -46.5t-69.5 -11.5 h-144q-57 0 -57 41z" />
<glyph unicode="&#x108;" horiz-adv-x="1388" d="M63 696q0 354 191.5 540.5t548.5 186.5q150 0 271.5 -29.5t205.5 -84.5q20 -14 20 -33q0 -16 -12 -35l-71 -125q-14 -23 -29 -22q-12 0 -35 12q-131 74 -309 74q-211 0 -328 -122t-117 -362q0 -242 122 -362.5t333 -120.5q193 0 324 74q23 12 34 12q14 0 29 -23l80 -137 q8 -14 8 -24q0 -12 -24 -31q-160 -115 -494 -115q-356 0 -552 187.5t-196 539.5zM375 1540q0 20 18 45l205 273q27 31 40 40t54 9h162q41 0 56.5 -9.5t37.5 -39.5l205 -273q18 -27 18 -45q0 -16 -13 -26.5t-40 -10.5h-125q-43 0 -61.5 10.5t-36.5 38.5l-121 181l-121 -181 q-18 -29 -36.5 -39t-61.5 -10h-125q-27 0 -41 10.5t-14 26.5z" />
<glyph unicode="&#x109;" horiz-adv-x="1153" d="M63 489q0 156 71 275t204 184.5t313 65.5q133 0 227.5 -26.5t172.5 -80.5q20 -14 20 -33q0 -16 -12 -34l-70 -121q-14 -25 -28 -25q-10 0 -35 15q-59 37 -114.5 55t-133.5 18q-129 0 -204 -78.5t-75 -214.5q0 -143 75 -214.5t216 -71.5q78 0 136.5 19.5t113.5 53.5 q25 14 35 15q14 0 29 -25l75 -129q10 -16 11 -26q0 -16 -25 -33q-86 -55 -183.5 -82t-230.5 -27q-280 0 -434 134.5t-154 385.5zM236 1151q0 20 18 45l205 272q27 31 40 40.5t54 9.5h162q41 0 56 -9.5t38 -40.5l205 -272q18 -27 18 -45q0 -16 -13 -26.5t-40 -10.5h-125 q-43 0 -61.5 10.5t-36.5 38.5l-121 180l-121 -180q-18 -29 -36.5 -39t-61.5 -10h-125q-27 0 -41 10.5t-14 26.5z" />
<glyph unicode="&#x10a;" horiz-adv-x="1388" d="M63 696q0 354 191.5 540.5t548.5 186.5q150 0 271.5 -29.5t205.5 -84.5q20 -14 20 -33q0 -16 -12 -35l-71 -125q-14 -23 -29 -22q-12 0 -35 12q-131 74 -309 74q-211 0 -328 -122t-117 -362q0 -242 122 -362.5t333 -120.5q193 0 324 74q23 12 34 12q14 0 29 -23l80 -137 q8 -14 8 -24q0 -12 -24 -31q-160 -115 -494 -115q-356 0 -552 187.5t-196 539.5zM635 1675v45q0 49 30.5 83t79.5 34h50q47 0 78.5 -34t31.5 -83v-45q0 -49 -30.5 -82.5t-79.5 -33.5h-50q-49 0 -79.5 33.5t-30.5 82.5z" />
<glyph unicode="&#x10b;" horiz-adv-x="1153" d="M63 489q0 156 71 275t204 184.5t313 65.5q133 0 227.5 -26.5t172.5 -80.5q20 -14 20 -33q0 -16 -12 -34l-70 -121q-14 -25 -28 -25q-10 0 -35 15q-59 37 -114.5 55t-133.5 18q-129 0 -204 -78.5t-75 -214.5q0 -143 75 -214.5t216 -71.5q78 0 136.5 19.5t113.5 53.5 q25 14 35 15q14 0 29 -25l75 -129q10 -16 11 -26q0 -16 -25 -33q-86 -55 -183.5 -82t-230.5 -27q-280 0 -434 134.5t-154 385.5zM498 1262v45q0 49 30.5 82.5t79.5 33.5h49q47 0 79 -33.5t32 -82.5v-45q0 -49 -30.5 -83t-80.5 -34h-49q-49 0 -79.5 33.5t-30.5 83.5z" />
<glyph unicode="&#x10c;" horiz-adv-x="1388" d="M63 696q0 354 191.5 540.5t548.5 186.5q150 0 271.5 -29.5t205.5 -84.5q20 -14 20 -33q0 -16 -12 -35l-71 -125q-14 -23 -29 -22q-12 0 -35 12q-131 74 -309 74q-211 0 -328 -122t-117 -362q0 -242 122 -362.5t333 -120.5q193 0 324 74q23 12 34 12q14 0 29 -23l80 -137 q8 -14 8 -24q0 -12 -24 -31q-160 -115 -494 -115q-356 0 -552 187.5t-196 539.5zM412 1909q0 33 49 33h133q43 0 60.5 -9.5t35.5 -36.5l123 -182l121 182q18 27 35.5 36.5t60.5 9.5h133q49 0 49 -33q0 -20 -20 -47l-205 -273q-23 -31 -38 -40t-56 -9h-162q-41 0 -55 9.5 t-39 39.5l-205 273q-20 27 -20 47z" />
<glyph unicode="&#x10d;" horiz-adv-x="1153" d="M63 489q0 156 71 275t204 184.5t313 65.5q133 0 227.5 -26.5t172.5 -80.5q20 -14 20 -33q0 -16 -12 -34l-70 -121q-14 -25 -28 -25q-10 0 -35 15q-59 37 -114.5 55t-133.5 18q-129 0 -204 -78.5t-75 -214.5q0 -143 75 -214.5t216 -71.5q78 0 136.5 19.5t113.5 53.5 q25 14 35 15q14 0 29 -25l75 -129q10 -16 11 -26q0 -16 -25 -33q-86 -55 -183.5 -82t-230.5 -27q-280 0 -434 134.5t-154 385.5zM223 1495q0 33 49 33h134q43 0 60 -9.5t36 -35.5l123 -183l120 183q18 27 36 36t61 9h133q49 0 49 -33q0 -20 -20 -47l-205 -272 q-23 -31 -38.5 -40.5t-55.5 -9.5h-162q-41 0 -55.5 9.5t-38.5 40.5l-205 272q-20 27 -21 47z" />
<glyph unicode="&#x10e;" horiz-adv-x="1404" d="M104 88v1215q0 45 21.5 67.5t71.5 22.5h430q350 0 532 -168t182 -529q0 -356 -184 -526t-530 -170h-430q-50 0 -71.5 21.5t-21.5 66.5zM231 1909q0 33 50 33h133q43 0 60.5 -9.5t35.5 -36.5l123 -182l121 182q18 27 35.5 36.5t60.5 9.5h133q49 0 49 -33q0 -20 -20 -47 l-205 -273q-23 -31 -38 -40t-56 -9h-162q-41 0 -55.5 9.5t-38.5 39.5l-205 273q-20 27 -21 47zM442 248h201q182 0 272.5 101.5t90.5 346.5q0 246 -90.5 346.5t-272.5 100.5h-201v-895z" />
<glyph unicode="&#x10f;" horiz-adv-x="1607" d="M63 496q0 154 58.5 271.5t171.5 182t268 64.5q88 0 159 -19.5t114 -56.5v365q0 47 20 68.5t72 21.5h147q49 0 70.5 -22.5t21.5 -67.5v-1194q-84 -61 -219 -100.5t-284 -39.5q-599 1 -599 527zM399 492q0 -156 68 -222.5t203 -66.5q101 0 164 35v374q0 84 -53.5 126 t-143.5 42q-121 0 -179.5 -76.5t-58.5 -211.5zM1235 1196q0 12 6 27l94 258q14 35 29.5 47t62.5 12h172q31 0 49.5 -11t18.5 -32q0 -14 -12 -37l-135 -250q-18 -35 -38 -46t-69 -11h-119q-59 0 -59 43z" />
<glyph unicode="&#x110;" horiz-adv-x="1472" d="M2 659v74q0 47 18.5 67.5t67.5 20.5h84v482q0 47 20.5 68.5t71.5 21.5h430q348 0 531.5 -168t183.5 -529q0 -354 -184.5 -525t-530.5 -171h-430q-51 0 -71.5 21.5t-20.5 66.5v485h-84q-49 0 -67.5 19.5t-18.5 66.5zM510 248h201q182 0 272 101.5t90 346.5 q0 246 -90 346.5t-272 100.5h-201v-322h240q49 0 68.5 -20.5t19.5 -67.5v-74q0 -45 -19.5 -65.5t-68.5 -20.5h-240v-325z" />
<glyph unicode="&#x111;" horiz-adv-x="1294" d="M63 496q0 154 58.5 271.5t171.5 182t268 64.5q88 0 159 -19.5t114 -56.5v139h-220q-39 0 -53 13.5t-14 52.5v76q0 39 14 53t53 14h220v17q0 47 20 68.5t72 21.5h147q49 0 70.5 -22.5t21.5 -67.5v-17h60q39 0 53 -14.5t14 -52.5v-76q0 -39 -14 -52.5t-55 -13.5h-58v-968 q-84 -61 -219 -100.5t-284 -39.5q-599 1 -599 527zM399 492q0 -156 68 -222.5t203 -66.5q101 0 164 35v374q0 84 -53.5 126t-143.5 42q-121 0 -179.5 -76.5t-58.5 -211.5z" />
<glyph unicode="&#x112;" horiz-adv-x="1175" d="M104 88v1215q0 45 21.5 67.5t71.5 22.5h850q49 0 67.5 -19.5t18.5 -66.5v-76q0 -47 -18.5 -67.5t-67.5 -20.5h-605v-324h422q49 0 67.5 -19.5t18.5 -66.5v-71q0 -47 -18.5 -68t-67.5 -21h-422v-325h602q49 0 67.5 -20.5t18.5 -67.5v-74q0 -47 -18 -66.5t-68 -19.5h-847 q-50 0 -71.5 21.5t-21.5 66.5zM238 1655v74q0 47 18 67.5t68 20.5h555q49 0 67.5 -20.5t18.5 -67.5v-74q0 -47 -18.5 -67.5t-67.5 -20.5h-555q-50 0 -68 20.5t-18 67.5z" />
<glyph unicode="&#x113;" horiz-adv-x="1220" d="M63 477q0 262 144.5 399.5t413.5 137.5q264 0 400 -133t136 -379q0 -86 -78 -86h-696q0 -111 83 -171.5t228 -60.5q86 0 149.5 17.5t123.5 50.5q20 10 28 10q14 0 27 -22l59 -111q8 -14 9 -25q0 -16 -23 -32q-82 -53 -184.5 -78t-235.5 -25q-166 0 -298 56.5t-209 170 t-77 281.5zM279 1266v73q0 47 18 67.5t68 20.5h555q49 0 67.5 -20.5t18.5 -67.5v-73q0 -47 -18.5 -67.5t-67.5 -20.5h-555q-50 0 -68 20.5t-18 67.5zM383 592h471q0 102 -57.5 159.5t-173.5 57.5q-117 0 -178.5 -58.5t-61.5 -158.5z" />
<glyph unicode="&#x114;" horiz-adv-x="1175" d="M104 88v1215q0 45 21.5 67.5t71.5 22.5h850q49 0 67.5 -19.5t18.5 -66.5v-76q0 -47 -18.5 -67.5t-67.5 -20.5h-605v-324h422q49 0 67.5 -19.5t18.5 -66.5v-71q0 -47 -18.5 -68t-67.5 -21h-422v-325h602q49 0 67.5 -20.5t18.5 -67.5v-74q0 -47 -18 -66.5t-68 -19.5h-847 q-50 0 -71.5 21.5t-21.5 66.5zM270 1880q0 16 9.5 26.5t23.5 10.5h178q20 0 27.5 -9.5t7.5 -29.5q0 -127 117 -127t117 127q0 20 7 29.5t27 9.5h179q14 0 23 -10.5t9 -26.5q0 -154 -93 -249t-269 -95q-178 0 -270.5 95t-92.5 249z" />
<glyph unicode="&#x115;" horiz-adv-x="1220" d="M63 477q0 262 144.5 399.5t413.5 137.5q264 0 400 -133t136 -379q0 -86 -78 -86h-696q0 -111 83 -171.5t228 -60.5q86 0 149.5 17.5t123.5 50.5q20 10 28 10q14 0 27 -22l59 -111q8 -14 9 -25q0 -16 -23 -32q-82 -53 -184.5 -78t-235.5 -25q-166 0 -298 56.5t-209 170 t-77 281.5zM270 1466q0 16 9.5 26.5t23.5 10.5h178q20 0 27.5 -9t7.5 -30q0 -127 117 -127t117 127q0 20 7 29.5t27 9.5h179q14 0 23 -10t9 -27q0 -154 -93 -249t-269 -95q-178 0 -270.5 95.5t-92.5 248.5zM383 592h471q0 102 -57.5 159.5t-173.5 57.5q-117 0 -178.5 -58.5 t-61.5 -158.5z" />
<glyph unicode="&#x116;" horiz-adv-x="1175" d="M104 88v1215q0 45 21.5 67.5t71.5 22.5h850q49 0 67.5 -19.5t18.5 -66.5v-76q0 -47 -18.5 -67.5t-67.5 -20.5h-605v-324h422q49 0 67.5 -19.5t18.5 -66.5v-71q0 -47 -18.5 -68t-67.5 -21h-422v-325h602q49 0 67.5 -20.5t18.5 -67.5v-74q0 -47 -18 -66.5t-68 -19.5h-847 q-50 0 -71.5 21.5t-21.5 66.5zM489 1675v45q0 49 31 83t80 34h49q47 0 79 -34t32 -83v-45q0 -49 -31 -82.5t-80 -33.5h-49q-49 0 -80 33.5t-31 82.5z" />
<glyph unicode="&#x117;" horiz-adv-x="1220" d="M63 477q0 262 144.5 399.5t413.5 137.5q264 0 400 -133t136 -379q0 -86 -78 -86h-696q0 -111 83 -171.5t228 -60.5q86 0 149.5 17.5t123.5 50.5q20 10 28 10q14 0 27 -22l59 -111q8 -14 9 -25q0 -16 -23 -32q-82 -53 -184.5 -78t-235.5 -25q-166 0 -298 56.5t-209 170 t-77 281.5zM383 592h471q0 102 -57.5 159.5t-173.5 57.5q-117 0 -178.5 -58.5t-61.5 -158.5zM506 1262v45q0 49 30.5 82.5t79.5 33.5h50q47 0 78.5 -33.5t31.5 -82.5v-45q0 -49 -30.5 -83t-79.5 -34h-50q-49 0 -79.5 33.5t-30.5 83.5z" />
<glyph unicode="&#x118;" horiz-adv-x="1175" d="M104 88v1215q0 45 21.5 67.5t71.5 22.5h850q49 0 67.5 -19.5t18.5 -66.5v-76q0 -47 -18.5 -67.5t-67.5 -20.5h-605v-324h422q49 0 67.5 -19.5t18.5 -66.5v-71q0 -47 -18.5 -68t-67.5 -21h-422v-325h602q49 0 67.5 -20.5t18.5 -67.5v-74q0 -45 -17 -64.5t-62 -21.5v-4 q0 -8 -7 -16q-74 -86 -98 -129.5t-24 -86.5q0 -55 49 -55q29 0 45 8q8 4 12 4q10 0 16 -14l37 -80q4 -8 4 -12q0 -12 -24 -23q-57 -29 -180 -28q-94 0 -143.5 48t-49.5 122q0 57 30 116.5t95 135.5l14 14h-630q-49 0 -71 21.5t-22 66.5z" />
<glyph unicode="&#x119;" horiz-adv-x="1220" d="M63 477q0 262 144.5 399.5t413.5 137.5q264 0 400 -133t136 -379q0 -86 -78 -86h-696q0 -111 83 -171.5t228 -60.5q86 0 149.5 17.5t123.5 50.5q20 10 28 10q14 0 27 -22l59 -111q8 -14 9 -25q0 -12 -11 -22l-4 -6q-74 -86 -98.5 -129t-24.5 -86q0 -55 49 -56q29 0 46 9 q8 4 12 4q10 0 16 -15l37 -79q4 -8 4 -13q0 -12 -24 -22q-57 -29 -181 -29q-94 0 -143 48t-49 122t45 143q-74 -4 -117 -4q-166 0 -298 56.5t-209 170t-77 281.5zM383 592h471q0 102 -57.5 159.5t-173.5 57.5q-117 0 -178.5 -58.5t-61.5 -158.5z" />
<glyph unicode="&#x11a;" horiz-adv-x="1175" d="M104 88v1215q0 45 21.5 67.5t71.5 22.5h850q49 0 67.5 -19.5t18.5 -66.5v-76q0 -47 -18.5 -67.5t-67.5 -20.5h-605v-324h422q49 0 67.5 -19.5t18.5 -66.5v-71q0 -47 -18.5 -68t-67.5 -21h-422v-325h602q49 0 67.5 -20.5t18.5 -67.5v-74q0 -47 -18 -66.5t-68 -19.5h-847 q-50 0 -71.5 21.5t-21.5 66.5zM227 1909q0 33 49 33h134q43 0 60 -9.5t36 -36.5l123 -182l121 182q18 27 35.5 36.5t60.5 9.5h133q49 0 49 -33q0 -20 -20 -47l-205 -273q-23 -31 -38 -40t-56 -9h-162q-41 0 -55.5 9.5t-38.5 39.5l-205 273q-20 27 -21 47z" />
<glyph unicode="&#x11b;" horiz-adv-x="1220" d="M63 477q0 262 144.5 399.5t413.5 137.5q264 0 400 -133t136 -379q0 -86 -78 -86h-696q0 -111 83 -171.5t228 -60.5q86 0 149.5 17.5t123.5 50.5q20 10 28 10q14 0 27 -22l59 -111q8 -14 9 -25q0 -16 -23 -32q-82 -53 -184.5 -78t-235.5 -25q-166 0 -298 56.5t-209 170 t-77 281.5zM244 1495q0 33 49 33h133q43 0 60.5 -9.5t35.5 -35.5l123 -183l121 183q18 27 35.5 36t60.5 9h133q49 0 49 -33q0 -20 -20 -47l-205 -272q-23 -31 -38 -40.5t-56 -9.5h-162q-41 0 -55 9.5t-39 40.5l-205 272q-20 27 -20 47zM383 592h471q0 102 -57.5 159.5 t-173.5 57.5q-117 0 -178.5 -58.5t-61.5 -158.5z" />
<glyph unicode="&#x11c;" horiz-adv-x="1439" d="M63 696q0 352 197 539.5t551 187.5q150 0 274.5 -29.5t206.5 -84.5q23 -14 23 -33q0 -8 -10 -29l-78 -131q-14 -23 -29 -22q-10 0 -33 12q-135 74 -311 74q-213 0 -334 -121t-121 -363q0 -244 113 -362.5t317 -118.5q66 0 129.5 10.5t102.5 28.5v315h-223 q-49 0 -67.5 19.5t-18.5 66.5v74q0 45 18 64.5t68 19.5h434q57 0 80.5 -26.5t23.5 -81.5v-521q0 -35 -8 -53t-33 -35q-199 -127 -524 -127q-356 0 -552 187.5t-196 539.5zM412 1516q0 20 18 45l205 272q27 31 40 40t54 9h162q41 0 56.5 -9t37.5 -40l205 -272q18 -27 18 -45 q0 -16 -13 -26.5t-40 -10.5h-125q-43 0 -61.5 10t-36.5 39l-121 180l-121 -180q-18 -29 -36.5 -39t-61.5 -10h-125q-27 0 -41 10t-14 27z" />
<glyph unicode="&#x11d;" horiz-adv-x="1269" d="M63 494q0 254 155 387t452 133q143 0 276 -40t219 -100v-667q0 -252 -127 -403.5t-403 -151.5q-125 0 -242 24.5t-180 65.5q-14 12 -14 27q0 10 6 20l74 125q6 10 13 17.5t15 7.5q4 0 25 -9q96 -49 272 -49q117 0 173.5 53.5t56.5 178.5q-98 -92 -277 -93 q-238 0 -366 123t-128 351zM258 1151q0 20 18 45l205 272q27 31 40.5 40.5t53.5 9.5h162q41 0 56.5 -9.5t37.5 -40.5l205 -272q18 -27 19 -45q0 -16 -13.5 -26.5t-40.5 -10.5h-124q-43 0 -61.5 10.5t-37.5 38.5l-121 180l-120 -180q-18 -29 -37 -39t-62 -10h-125 q-26 0 -40.5 10.5t-14.5 26.5zM399 512q0 -129 56.5 -190.5t175.5 -61.5q94 0 148.5 48t54.5 136v308q-70 29 -183 28q-125 -2 -188.5 -63.5t-63.5 -204.5z" />
<glyph unicode="&#x11e;" horiz-adv-x="1439" d="M63 696q0 352 197 539.5t551 187.5q150 0 274.5 -29.5t206.5 -84.5q23 -14 23 -33q0 -8 -10 -29l-78 -131q-14 -23 -29 -22q-10 0 -33 12q-135 74 -311 74q-213 0 -334 -121t-121 -363q0 -244 113 -362.5t317 -118.5q66 0 129.5 10.5t102.5 28.5v315h-223 q-49 0 -67.5 19.5t-18.5 66.5v74q0 45 18 64.5t68 19.5h434q57 0 80.5 -26.5t23.5 -81.5v-521q0 -35 -8 -53t-33 -35q-199 -127 -524 -127q-356 0 -552 187.5t-196 539.5zM438 1831q0 16 9.5 26.5t23.5 10.5h178q20 0 27.5 -9.5t7.5 -29.5q0 -127 117 -127t117 127 q0 20 7 29.5t27 9.5h178q14 0 23.5 -10.5t9.5 -26.5q0 -154 -93 -249t-269 -95q-178 0 -270.5 95t-92.5 249z" />
<glyph unicode="&#x11f;" horiz-adv-x="1269" d="M63 494q0 254 155 387t452 133q143 0 276 -40t219 -100v-667q0 -252 -127 -403.5t-403 -151.5q-125 0 -242 24.5t-180 65.5q-14 12 -14 27q0 10 6 20l74 125q6 10 13 17.5t15 7.5q4 0 25 -9q96 -49 272 -49q117 0 173.5 53.5t56.5 178.5q-98 -92 -277 -93 q-238 0 -366 123t-128 351zM297 1454q0 16 9 26.5t24 10.5h178q20 0 27.5 -9t7.5 -30q0 -127 116 -127q117 0 117 127q0 20 7.5 29.5t27.5 9.5h178q14 0 23.5 -10.5t9.5 -26.5q0 -154 -93 -249t-270 -95q-178 0 -270 95t-92 249zM399 512q0 -129 56.5 -190.5t175.5 -61.5 q94 0 148.5 48t54.5 136v308q-70 29 -183 28q-125 -2 -188.5 -63.5t-63.5 -204.5z" />
<glyph unicode="&#x120;" horiz-adv-x="1439" d="M63 696q0 352 197 539.5t551 187.5q150 0 274.5 -29.5t206.5 -84.5q23 -14 23 -33q0 -8 -10 -29l-78 -131q-14 -23 -29 -22q-10 0 -33 12q-135 74 -311 74q-213 0 -334 -121t-121 -363q0 -244 113 -362.5t317 -118.5q66 0 129.5 10.5t102.5 28.5v315h-223 q-49 0 -67.5 19.5t-18.5 66.5v74q0 45 18 64.5t68 19.5h434q57 0 80.5 -26.5t23.5 -81.5v-521q0 -35 -8 -53t-33 -35q-199 -127 -524 -127q-356 0 -552 187.5t-196 539.5zM664 1642v46q0 49 30.5 82.5t79.5 33.5h49q47 0 79 -33.5t32 -82.5v-46q0 -49 -31 -82.5t-80 -33.5 h-49q-49 0 -79.5 33.5t-30.5 82.5z" />
<glyph unicode="&#x121;" horiz-adv-x="1269" d="M63 494q0 254 155 387t452 133q143 0 276 -40t219 -100v-667q0 -252 -127 -403.5t-403 -151.5q-125 0 -242 24.5t-180 65.5q-14 12 -14 27q0 10 6 20l74 125q6 10 13 17.5t15 7.5q4 0 25 -9q96 -49 272 -49q117 0 173.5 53.5t56.5 178.5q-98 -92 -277 -93 q-238 0 -366 123t-128 351zM399 512q0 -129 56.5 -190.5t175.5 -61.5q94 0 148.5 48t54.5 136v308q-70 29 -183 28q-125 -2 -188.5 -63.5t-63.5 -204.5zM535 1255v45q0 49 30.5 83t79.5 34h49q47 0 79 -33.5t32 -83.5v-45q0 -49 -31 -82.5t-80 -33.5h-49q-49 0 -79.5 33.5 t-30.5 82.5z" />
<glyph unicode="&#x122;" horiz-adv-x="1439" d="M63 696q0 352 197 539.5t551 187.5q150 0 274.5 -29.5t206.5 -84.5q23 -14 23 -33q0 -8 -10 -29l-78 -131q-14 -23 -29 -22q-10 0 -33 12q-135 74 -311 74q-213 0 -334 -121t-121 -363q0 -244 113 -362.5t317 -118.5q66 0 129.5 10.5t102.5 28.5v315h-223 q-49 0 -67.5 19.5t-18.5 66.5v74q0 45 18 64.5t68 19.5h434q57 0 80.5 -26.5t23.5 -81.5v-521q0 -35 -8 -53t-33 -35q-199 -127 -524 -127q-356 0 -552 187.5t-196 539.5zM618 -479q0 8 5 24l94 318q10 39 28.5 51t59.5 12h135q63 0 64 -37q0 -20 -13 -47l-135 -315 q-8 -20 -24.5 -30.5t-45.5 -10.5h-122q-46 0 -46 35z" />
<glyph unicode="&#x123;" horiz-adv-x="1269" d="M63 494q0 254 155 387t452 133q143 0 276 -40t219 -100v-667q0 -252 -127 -403.5t-403 -151.5q-125 0 -242 24.5t-180 65.5q-14 12 -14 27q0 10 6 20l74 125q6 10 13 17.5t15 7.5q4 0 25 -9q96 -49 272 -49q117 0 173.5 53.5t56.5 178.5q-98 -92 -277 -93 q-238 0 -366 123t-128 351zM399 512q0 -129 56.5 -190.5t175.5 -61.5q94 0 148.5 48t54.5 136v308q-70 29 -183 28q-125 -2 -188.5 -63.5t-63.5 -204.5zM528 1202q0 20 13 47l135 316q8 20 24.5 30.5t44.5 10.5h123q45 0 45 -35q0 -8 -4 -25l-94 -317q-10 -39 -28.5 -51.5 t-59.5 -12.5h-135q-64 0 -64 37z" />
<glyph unicode="&#x124;" horiz-adv-x="1456" d="M104 88v1215q0 45 21.5 67.5t71.5 22.5h153q51 0 71.5 -21.5t20.5 -68.5v-480h570v480q0 45 21.5 67.5t72.5 22.5h151q51 0 73 -22.5t22 -67.5v-1215q0 -45 -21.5 -66.5t-73.5 -21.5h-151q-51 0 -72.5 21.5t-21.5 66.5v487h-570v-487q0 -45 -20.5 -66.5t-71.5 -21.5h-153 q-50 0 -71.5 21.5t-21.5 66.5zM328 1565q0 20 18 45l205 272q27 31 40 40t54 9h162q41 0 56.5 -9t37.5 -40l205 -272q18 -27 18 -45q0 -16 -13 -26.5t-40 -10.5h-125q-43 0 -61.5 10t-36.5 39l-121 180l-121 -180q-18 -29 -36.5 -39t-61.5 -10h-125q-27 0 -41 10t-14 27z " />
<glyph unicode="&#x125;" horiz-adv-x="1230" d="M104 88v1245q0 35 12.5 47.5t49.5 12.5h190q37 0 50.5 -12.5t13.5 -47.5v-436q133 117 346 117q168 0 269.5 -91.5t101.5 -271.5v-563q0 -45 -21.5 -66.5t-71.5 -21.5h-153q-51 0 -72.5 21.5t-21.5 66.5v543q0 80 -37 114.5t-113 34.5q-84 0 -144.5 -46t-60.5 -120v-526 q0 -45 -20.5 -66.5t-71.5 -21.5h-151q-52 0 -73.5 21.5t-21.5 66.5zM139 1528q0 20 19 45l204 272q27 31 40.5 40t54.5 9h161q41 0 56.5 -9t38.5 -40l205 -272q18 -27 18 -45q0 -16 -13.5 -26.5t-39.5 -10.5h-125q-43 0 -61.5 10t-37.5 39l-120 180l-121 -180 q-18 -29 -37 -39t-62 -10h-124q-27 0 -41.5 10t-14.5 27z" />
<glyph unicode="&#x126;" horiz-adv-x="1484" d="M61 1057v82q0 37 13.5 50t52.5 13h35v101q0 45 21.5 67.5t70.5 22.5h154q51 0 71.5 -21.5t20.5 -68.5v-101h569v101q0 45 21.5 67.5t72.5 22.5h152q51 0 72.5 -22.5t21.5 -67.5v-101h27q39 0 52 -13t13 -50v-82q0 -37 -13 -49.5t-52 -12.5h-27v-907q0 -45 -21.5 -66.5 t-72.5 -21.5h-152q-51 0 -72.5 21.5t-21.5 66.5v487h-569v-487q0 -45 -20.5 -66.5t-71.5 -21.5h-154q-49 0 -70.5 21.5t-21.5 66.5v907h-35q-39 0 -52.5 12.5t-13.5 49.5zM500 823h569v172h-569v-172z" />
<glyph unicode="&#x127;" horiz-adv-x="1331" d="M23 1137v63q0 45 17 60.5t69 15.5h94v57q0 35 13 47.5t50 12.5h162q37 0 49 -12.5t12 -47.5v-57h138q51 0 69.5 -15.5t18.5 -60.5v-63q0 -43 -18.5 -58.5t-69.5 -15.5h-138v-189q66 63 162.5 101.5t214.5 38.5q168 0 269.5 -91.5t101.5 -271.5v-563q0 -45 -21.5 -66.5 t-72.5 -21.5h-152q-51 0 -72.5 21.5t-21.5 66.5v543q0 80 -37 114.5t-115 34.5q-82 0 -142 -46t-60 -120v-526q0 -45 -21.5 -66.5t-70.5 -21.5h-154q-51 0 -72.5 21.5t-21.5 66.5v975h-94q-51 0 -68.5 14.5t-17.5 59.5z" />
<glyph unicode="&#x128;" horiz-adv-x="546" d="M-188 1630q0 25 24 58q57 76 110.5 112.5t131.5 36.5q59 0 106 -16.5t107 -44.5q45 -23 75.5 -33t61.5 -10q39 0 63.5 15t57.5 56q18 25 45 25q33 0 88 -43t55 -76q0 -23 -24 -57q-57 -84 -113.5 -121t-144.5 -37q-47 0 -90 14.5t-101 42.5q-49 23 -83 35t-68 12 q-39 0 -62.5 -14t-56.5 -51q-18 -23 -41 -23q-31 0 -90 48q-51 39 -51 71zM104 88v1215q0 45 21.5 67.5t71.5 22.5h153q51 0 71.5 -21.5t20.5 -68.5v-1215q0 -45 -20.5 -66.5t-71.5 -21.5h-153q-50 0 -71.5 21.5t-21.5 66.5z" />
<glyph unicode="&#x129;" horiz-adv-x="583" d="M-162 1290q0 25 25 58q57 76 110.5 112.5t130.5 36.5q59 0 106.5 -15.5t106.5 -45.5q45 -23 76 -33t62 -10q39 0 63.5 15t56.5 56q18 25 46 25q33 0 88 -43t55 -76q0 -23 -25 -57q-57 -84 -113.5 -121t-144.5 -37q-47 0 -90 14.5t-100 42.5q-49 23 -83 35.5t-69 12.5 q-39 0 -62.5 -14.5t-56.5 -51.5q-18 -23 -40 -23q-31 0 -91 48q-51 39 -51 71zM123 88v805q0 45 21.5 67.5t70.5 22.5h154q51 0 71.5 -21.5t20.5 -68.5v-805q0 -45 -20.5 -66.5t-71.5 -21.5h-154q-49 0 -70.5 21.5t-21.5 66.5z" />
<glyph unicode="&#x12a;" horiz-adv-x="546" d="M-86 1626v76q0 47 18.5 67.5t67.5 20.5h555q49 0 68.5 -20.5t19.5 -67.5v-76q0 -45 -19.5 -65.5t-68.5 -20.5h-555q-49 0 -67.5 19.5t-18.5 66.5zM104 88v1215q0 47 20.5 68.5t72.5 21.5h151q51 0 72.5 -22.5t21.5 -67.5v-1215q0 -45 -21.5 -66.5t-72.5 -21.5h-151 q-52 0 -72.5 21.5t-20.5 66.5z" />
<glyph unicode="&#x12b;" horiz-adv-x="583" d="M-66 1266v73q0 47 18.5 67.5t67.5 20.5h555q49 0 68 -20.5t19 -67.5v-73q0 -47 -18.5 -67.5t-68.5 -20.5h-555q-49 0 -67.5 20.5t-18.5 67.5zM123 88v805q0 45 21.5 67.5t70.5 22.5h154q51 0 71.5 -21.5t20.5 -68.5v-805q0 -45 -20.5 -66.5t-71.5 -21.5h-154 q-49 0 -70.5 21.5t-21.5 66.5z" />
<glyph unicode="&#x12c;" horiz-adv-x="624" d="M-51 1874q0 16 9 26.5t24 10.5h178q20 0 27.5 -9.5t7.5 -29.5q0 -127 116 -127q117 0 117 127q0 20 7 29.5t28 9.5h178q14 0 23.5 -10.5t9.5 -26.5q0 -154 -93.5 -249t-269.5 -95q-178 0 -270 95t-92 249zM141 88v1215q0 45 21.5 67.5t70.5 22.5h154q51 0 71.5 -21.5 t20.5 -68.5v-1215q0 -45 -20.5 -66.5t-71.5 -21.5h-154q-49 0 -70.5 21.5t-21.5 66.5z" />
<glyph unicode="&#x12d;" horiz-adv-x="585" d="M-72 1491q0 16 9.5 26.5t23.5 10.5h178q20 0 27.5 -9.5t7.5 -29.5q0 -127 117 -127t117 127q0 20 7 29.5t27 9.5h179q14 0 23 -10.5t9 -26.5q0 -154 -93 -249t-269 -95q-178 0 -270.5 95t-92.5 249zM123 88v805q0 45 21.5 67.5t72.5 22.5h152q51 0 72.5 -22.5t21.5 -67.5 v-805q0 -45 -21.5 -66.5t-72.5 -21.5h-152q-51 0 -72.5 21.5t-21.5 66.5z" />
<glyph unicode="&#x12e;" horiz-adv-x="546" d="M29 -258q0 57 29.5 116.5t95.5 135.5l8 10q-57 12 -58 84v1215q0 45 21.5 67.5t71.5 22.5h153q51 0 71.5 -21.5t20.5 -68.5v-1215q0 -35 -11 -55.5t-40 -28.5q0 -10 -6 -16q-74 -86 -98.5 -129t-24.5 -86q0 -55 49 -56q29 0 45 9q8 4 13 4q10 0 16 -15l37 -80q4 -8 4 -12 q0 -12 -25 -22q-57 -29 -180 -29q-94 0 -143 48t-49 122z" />
<glyph unicode="&#x12f;" horiz-adv-x="612" d="M53 -258q0 57 30 116.5t95 135.5l10 10q-29 8 -40 28.5t-11 55.5v805q0 47 20.5 68.5t71.5 21.5h152q51 0 72.5 -22.5t21.5 -67.5v-805q0 -72 -59 -84q0 -8 -6 -16q-74 -86 -98.5 -129t-24.5 -86q0 -55 49 -56q29 0 45 9q8 4 12 4q10 0 17 -15l36 -80q4 -8 5 -12 q0 -12 -25 -22q-57 -29 -180 -29q-94 0 -143.5 48t-49.5 122zM123 1233v47q0 47 32.5 80t90.5 33h119q59 0 91.5 -33t32.5 -80v-47q0 -47 -32.5 -80t-91.5 -33h-119q-57 0 -90 33t-33 80z" />
<glyph unicode="&#x130;" horiz-adv-x="546" d="M104 88v1215q0 45 21.5 67.5t71.5 22.5h153q51 0 71.5 -21.5t20.5 -68.5v-1215q0 -45 -20.5 -66.5t-71.5 -21.5h-153q-50 0 -71.5 21.5t-21.5 66.5zM145 1626v45q0 49 31 83t80 34h49q47 0 79 -34t32 -83v-45q0 -49 -31 -83t-80 -34h-49q-49 0 -80 34t-31 83z" />
<glyph unicode="&#x131;" horiz-adv-x="546" d="M104 88v805q0 45 21.5 67.5t71.5 22.5h153q51 0 71.5 -21.5t20.5 -68.5v-805q0 -45 -20.5 -66.5t-71.5 -21.5h-153q-50 0 -71.5 21.5t-21.5 66.5z" />
<glyph unicode="&#x132;" horiz-adv-x="1482" d="M104 88v1215q0 45 21.5 67.5t71.5 22.5h153q51 0 71.5 -21.5t20.5 -68.5v-1215q0 -45 -20.5 -66.5t-71.5 -21.5h-153q-50 0 -71.5 21.5t-21.5 66.5zM471 115q0 16 12 35l74 124q16 25 31 25q12 0 33 -14q106 -72 233 -72q96 0 140 48t44 147v895q0 45 21.5 67.5 t73.5 22.5h151q51 0 72.5 -22.5t21.5 -67.5v-895q0 -201 -119.5 -320t-351.5 -119q-245 0 -415 113q-20 12 -21 33z" />
<glyph unicode="&#x133;" horiz-adv-x="1083" d="M92 1233v47q0 47 33 80t90 33h119q59 0 92 -33t33 -80v-47q0 -47 -33 -80t-92 -33h-119q-57 0 -90 33t-33 80zM106 88v805q0 47 20.5 68.5t72.5 21.5h151q51 0 72.5 -22.5t21.5 -67.5v-805q0 -45 -21.5 -66.5t-72.5 -21.5h-151q-52 0 -72.5 21.5t-20.5 66.5zM127 -281 q0 16 12 35l72 125q16 25 31 25q12 0 32 -15q47 -33 92.5 -50t100.5 -17q86 0 123 41t37 127v903q0 45 21.5 67.5t72.5 22.5h151q51 0 73 -22.5t22 -67.5v-909q0 -188 -109.5 -297t-325.5 -109q-238 0 -385 109q-20 14 -20 32zM612 1233v47q0 47 33 80t90 33h119 q59 0 92 -33t33 -80v-47q0 -47 -33 -80t-92 -33h-119q-57 0 -90 33t-33 80z" />
<glyph unicode="&#x134;" horiz-adv-x="1167" d="M23 115q0 16 12 35l74 124q16 25 30 25q12 0 33 -14q106 -72 234 -72q96 0 140 48t44 147v895q0 45 21.5 67.5t72.5 22.5h152q51 0 72.5 -22.5t21.5 -67.5v-895q0 -201 -120 -320t-351 -119q-246 0 -416 113q-20 12 -20 33zM367 1565q0 20 18 45l205 272q27 31 40 40 t54 9h162q41 0 56.5 -9t37.5 -40l205 -272q18 -27 18 -45q0 -16 -13 -26.5t-40 -10.5h-125q-43 0 -61.5 10t-36.5 39l-121 180l-121 -180q-18 -29 -36.5 -39t-61.5 -10h-125q-27 0 -41 10t-14 27z" />
<glyph unicode="&#x135;" horiz-adv-x="806" d="M-270 -207q0 16 12 35l74 125q14 25 30 24q8 0 31 -14q49 -33 94 -50t101 -17q86 0 122.5 40.5t36.5 126.5v830q0 45 21.5 67.5t71.5 22.5h153q51 0 72.5 -22.5t21.5 -67.5v-836q0 -188 -110.5 -296.5t-323.5 -108.5q-119 0 -218 28.5t-169 79.5q-20 14 -20 33zM6 1176 q0 20 19 45l204 272q27 31 40.5 40t54.5 9h161q41 0 56.5 -9t38.5 -40l204 -272q18 -27 19 -45q0 -16 -13.5 -26.5t-39.5 -10.5h-125q-43 0 -61.5 10t-37.5 39l-120 180l-121 -180q-18 -29 -37 -39t-62 -10h-125q-26 0 -40.5 10t-14.5 27z" />
<glyph unicode="&#x136;" horiz-adv-x="1325" d="M104 88v1215q0 45 21.5 67.5t71.5 22.5h153q51 0 71.5 -21.5t20.5 -68.5v-529l7 8l438 584q12 16 25.5 21.5t41.5 5.5h252q37 0 37 -35q0 -16 -12 -33l-486 -625l500 -632q12 -15 12 -33q0 -35 -36 -35h-256q-25 0 -38.5 5t-25.5 20l-452 593l-7 9v-539 q0 -45 -20.5 -66.5t-71.5 -21.5h-153q-49 0 -71 21.5t-22 66.5zM410 -479q0 8 4 24l94 318q10 39 28.5 51t59.5 12h135q64 0 64 -37q0 -20 -13 -47l-135 -315q-8 -20 -24.5 -30.5t-44.5 -10.5h-123q-45 0 -45 35z" />
<glyph unicode="&#x137;" horiz-adv-x="1185" d="M104 88v1215q0 45 21.5 67.5t71.5 22.5h153q51 0 71.5 -21.5t20.5 -68.5v-730l15 17l315 366q12 16 25.5 21.5t40.5 5.5h254q16 0 26 -10t10 -25q0 -18 -14 -33l-379 -407l391 -440q13 -15 13 -33q0 -14 -9.5 -24.5t-27.5 -10.5h-256q-25 0 -38 5t-26 20l-325 401 q-6 6 -15 18v-356q0 -45 -20.5 -66.5t-71.5 -21.5h-153q-49 0 -71 21.5t-22 66.5zM373 -479q0 8 4 24l94 318q10 39 28.5 51t59.5 12h135q64 0 64 -37q0 -20 -13 -47l-135 -315q-8 -20 -24.5 -30.5t-44.5 -10.5h-123q-45 0 -45 35z" />
<glyph unicode="&#x138;" horiz-adv-x="1177" d="M104 119v774q0 57 29 73.5t113 16.5h104q51 0 71.5 -21.5t20.5 -68.5v-320l15 17l315 366q12 16 25.5 21.5t40.5 5.5h254q16 0 26 -10t10 -25q0 -18 -14 -33l-379 -407l391 -440q13 -15 13 -33q0 -14 -9.5 -24.5t-27.5 -10.5h-256q-25 0 -38 5t-26 20l-325 401 q-6 6 -15 18v-356q0 -55 -28.5 -71.5t-112.5 -16.5h-104q-55 0 -74 29.5t-19 89.5z" />
<glyph unicode="&#x139;" horiz-adv-x="1128" d="M104 88v1215q0 45 21.5 67.5t71.5 22.5h153q51 0 71.5 -21.5t20.5 -68.5v-1055h578q49 0 67.5 -20.5t18.5 -67.5v-74q0 -47 -18.5 -66.5t-67.5 -19.5h-823q-50 0 -71.5 21.5t-21.5 66.5zM166 1522q0 14 6 28l92 258q12 35 29.5 47.5t62.5 12.5h199q31 0 48.5 -10.5 t17.5 -30.5q0 -16 -13 -39l-133 -250q-18 -35 -38.5 -46t-69.5 -11h-144q-57 0 -57 41z" />
<glyph unicode="&#x13a;" horiz-adv-x="604" d="M104 88v1215q0 45 21.5 67.5t71.5 22.5h153q51 0 71.5 -21.5t20.5 -68.5v-1215q0 -45 -20.5 -66.5t-71.5 -21.5h-153q-50 0 -71.5 21.5t-21.5 66.5zM125 1606q0 14 6 28l92 258q12 35 29.5 47.5t62.5 12.5h199q31 0 48.5 -10.5t17.5 -30.5q0 -16 -13 -39l-133 -250 q-18 -35 -38.5 -46t-69.5 -11h-144q-57 0 -57 41z" />
<glyph unicode="&#x13b;" horiz-adv-x="1128" d="M104 88v1215q0 45 21.5 67.5t71.5 22.5h153q51 0 71.5 -21.5t20.5 -68.5v-1055h578q49 0 67.5 -20.5t18.5 -67.5v-74q0 -47 -18.5 -66.5t-67.5 -19.5h-823q-50 0 -71.5 21.5t-21.5 66.5zM383 -479q0 8 4 24l94 318q10 39 28.5 51t59.5 12h136q63 0 63 -37q0 -20 -12 -47 l-135 -315q-8 -20 -24.5 -30.5t-45.5 -10.5h-123q-45 0 -45 35z" />
<glyph unicode="&#x13c;" horiz-adv-x="610" d="M29 -479q0 8 4 24l94 318q10 39 28.5 51t59.5 12h135q63 0 64 -37q0 -20 -13 -47l-135 -315q-8 -20 -24.5 -30.5t-44.5 -10.5h-123q-45 0 -45 35zM121 88v1215q0 45 21.5 67.5t70.5 22.5h154q51 0 71.5 -21.5t20.5 -68.5v-1215q0 -45 -20.5 -66.5t-71.5 -21.5h-154 q-49 0 -70.5 21.5t-21.5 66.5z" />
<glyph unicode="&#x13d;" horiz-adv-x="1177" d="M104 88v1215q0 45 21.5 67.5t71.5 22.5h153q51 0 71.5 -21.5t20.5 -68.5v-1055h578q49 0 67.5 -20.5t18.5 -67.5v-74q0 -47 -18.5 -66.5t-67.5 -19.5h-823q-50 0 -71.5 21.5t-21.5 66.5zM694 1083q0 8 4 25l95 317q10 39 28.5 51.5t59.5 12.5h135q63 0 63 -37 q0 -18 -12 -47l-135 -315q-8 -20 -24.5 -30.5t-45.5 -10.5h-123q-45 -1 -45 34z" />
<glyph unicode="&#x13e;" horiz-adv-x="974" d="M104 88v1215q0 45 21.5 67.5t71.5 22.5h153q51 0 71.5 -21.5t20.5 -68.5v-1215q0 -45 -20.5 -66.5t-71.5 -21.5h-153q-50 0 -71.5 21.5t-21.5 66.5zM586 1178q0 8 4 24l94 318q10 39 28.5 51t59.5 12h135q63 0 64 -37q0 -18 -13 -47l-135 -315q-8 -20 -24.5 -30.5 t-44.5 -10.5h-123q-45 0 -45 35z" />
<glyph unicode="&#x13f;" horiz-adv-x="1128" d="M104 88v1215q0 45 21.5 67.5t71.5 22.5h153q51 0 71.5 -21.5t20.5 -68.5v-1055h578q49 0 67.5 -20.5t18.5 -67.5v-74q0 -47 -18.5 -66.5t-67.5 -19.5h-823q-50 0 -71.5 21.5t-21.5 66.5zM649 688v45q0 49 31 83t80 34h47q49 0 80 -34t31 -83v-45q0 -49 -31 -83t-80 -34 h-47q-49 0 -80 34t-31 83z" />
<glyph unicode="&#x140;" horiz-adv-x="837" d="M104 88v1215q0 45 21.5 67.5t71.5 22.5h153q51 0 71.5 -21.5t20.5 -68.5v-1215q0 -45 -20.5 -66.5t-71.5 -21.5h-153q-50 0 -71.5 21.5t-21.5 66.5zM567 659v46q0 49 31 82.5t80 33.5h47q49 0 80 -33.5t31 -82.5v-46q0 -49 -31 -82.5t-80 -33.5h-47q-49 0 -80 33.5 t-31 82.5z" />
<glyph unicode="&#x141;" horiz-adv-x="1300" d="M2 565q0 20 27 33l247 141v564q0 47 20.5 68.5t72.5 21.5h151q51 0 72.5 -22.5t21.5 -67.5v-371l119 67q16 10 27 11q16 0 35 -27l75 -125q8 -10 9 -22q0 -18 -29 -35l-236 -135v-418h578q49 0 67.5 -20.5t18.5 -67.5v-74q0 -47 -18.5 -66.5t-67.5 -19.5h-823 q-51 0 -72 21.5t-21 66.5v385l-129 -74q-20 -10 -30 -10q-16 0 -31 23l-74 125q-10 16 -10 28z" />
<glyph unicode="&#x142;" horiz-adv-x="837" d="M2 573q0 20 27 33l211 121v576q0 45 21.5 67.5t72.5 22.5h151q51 0 73 -22.5t22 -67.5v-381l108 61q16 10 27 10q16 0 35 -26l77 -123q9 -11 9 -23q0 -18 -29 -35l-227 -131v-567q0 -45 -21.5 -66.5t-73.5 -21.5h-151q-51 0 -72.5 21.5t-21.5 66.5v373l-90 -51 q-20 -10 -29 -11q-18 0 -33 23l-76 123q-10 16 -10 28z" />
<glyph unicode="&#x143;" horiz-adv-x="1431" d="M104 88v1217q0 45 21.5 66.5t73.5 21.5h127q35 0 52 -9.5t38 -35.5l573 -809v764q0 45 21.5 67.5t70.5 22.5h154q51 0 71.5 -21.5t20.5 -68.5v-1215q0 -45 -20.5 -66.5t-71.5 -21.5h-129q-33 0 -50.5 9t-37.5 36l-576 807v-764q0 -45 -20.5 -66.5t-71.5 -21.5h-153 q-50 0 -71.5 21.5t-21.5 66.5zM555 1546q0 14 6 29l92 258q12 35 29.5 47t62.5 12h199q31 0 48.5 -10t17.5 -31q0 -16 -13 -39l-133 -249q-18 -35 -38.5 -46.5t-69.5 -11.5h-144q-57 0 -57 41z" />
<glyph unicode="&#x144;" horiz-adv-x="1230" d="M104 88v836q0 35 12.5 47t49.5 12h164q25 0 37 -8t14 -29l6 -72q63 66 159.5 103t219.5 37q168 0 269.5 -91.5t101.5 -271.5v-563q0 -45 -21.5 -66.5t-71.5 -21.5h-153q-51 0 -72.5 21.5t-21.5 66.5v543q0 80 -35 114.5t-115 34.5q-86 0 -145.5 -46t-59.5 -120v-526 q0 -45 -20.5 -66.5t-71.5 -21.5h-151q-52 0 -73.5 21.5t-21.5 66.5zM481 1182q0 14 6 28l93 258q12 35 29.5 47.5t62.5 12.5h198q31 0 48.5 -10.5t17.5 -30.5q0 -16 -12 -39l-133 -250q-18 -35 -39 -46t-70 -11h-143q-58 0 -58 41z" />
<glyph unicode="&#x145;" horiz-adv-x="1431" d="M104 88v1217q0 45 21.5 66.5t73.5 21.5h127q35 0 52 -9.5t38 -35.5l573 -809v764q0 45 21.5 67.5t70.5 22.5h154q51 0 71.5 -21.5t20.5 -68.5v-1215q0 -45 -20.5 -66.5t-71.5 -21.5h-129q-33 0 -50.5 9t-37.5 36l-576 807v-764q0 -45 -20.5 -66.5t-71.5 -21.5h-153 q-50 0 -71.5 21.5t-21.5 66.5zM510 -479q0 8 4 24l94 318q10 39 28.5 51t59.5 12h135q63 0 64 -37q0 -20 -12 -47l-135 -315q-8 -20 -24.5 -30.5t-45.5 -10.5h-123q-45 0 -45 35z" />
<glyph unicode="&#x146;" horiz-adv-x="1230" d="M104 88v836q0 35 12.5 47t49.5 12h164q25 0 37 -8t14 -29l6 -72q63 66 159.5 103t219.5 37q168 0 269.5 -91.5t101.5 -271.5v-563q0 -45 -21.5 -66.5t-71.5 -21.5h-153q-51 0 -72.5 21.5t-21.5 66.5v543q0 80 -35 114.5t-115 34.5q-86 0 -145.5 -46t-59.5 -120v-526 q0 -45 -20.5 -66.5t-71.5 -21.5h-151q-52 0 -73.5 21.5t-21.5 66.5zM440 -479q0 8 4 24l95 318q10 39 28.5 51t59.5 12h135q63 0 63 -37q0 -20 -12 -47l-135 -315q-8 -20 -24.5 -30.5t-45.5 -10.5h-123q-45 0 -45 35z" />
<glyph unicode="&#x147;" horiz-adv-x="1431" d="M104 88v1217q0 45 21.5 66.5t73.5 21.5h127q35 0 52 -9.5t38 -35.5l573 -809v764q0 45 21.5 67.5t70.5 22.5h154q51 0 71.5 -21.5t20.5 -68.5v-1215q0 -45 -20.5 -66.5t-71.5 -21.5h-129q-33 0 -50.5 9t-37.5 36l-576 807v-764q0 -45 -20.5 -66.5t-71.5 -21.5h-153 q-50 0 -71.5 21.5t-21.5 66.5zM315 1884q0 33 50 33h133q43 0 60 -9.5t36 -35.5l123 -182l121 182q18 27 35.5 36t60.5 9h133q49 0 49 -33q0 -20 -20 -47l-205 -272q-23 -31 -38 -40t-56 -9h-162q-41 0 -55.5 9t-38.5 40l-205 272q-20 27 -21 47z" />
<glyph unicode="&#x148;" horiz-adv-x="1230" d="M104 88v836q0 35 12.5 47t49.5 12h164q25 0 37 -8t14 -29l6 -72q63 66 159.5 103t219.5 37q168 0 269.5 -91.5t101.5 -271.5v-563q0 -45 -21.5 -66.5t-71.5 -21.5h-153q-51 0 -72.5 21.5t-21.5 66.5v543q0 80 -35 114.5t-115 34.5q-86 0 -145.5 -46t-59.5 -120v-526 q0 -45 -20.5 -66.5t-71.5 -21.5h-151q-52 0 -73.5 21.5t-21.5 66.5zM244 1483q0 33 49 33h133q43 0 60.5 -9.5t35.5 -36.5l123 -182l121 182q18 27 35.5 36.5t60.5 9.5h133q49 0 49 -33q0 -20 -20 -47l-205 -273q-23 -31 -38 -40t-56 -9h-162q-41 0 -55 9.5t-39 39.5 l-205 273q-20 27 -20 47z" />
<glyph unicode="&#x149;" horiz-adv-x="1406" d="M0 1083q0 8 4 25l94 317q10 39 28.5 51.5t59.5 12.5h136q63 0 63 -37q0 -18 -12 -47l-135 -315q-8 -20 -24.5 -30.5t-45.5 -10.5h-123q-45 -1 -45 34zM281 88v836q0 35 12 47t49 12h164q25 0 37 -8t14 -29l6 -72q63 66 159.5 103t219.5 37q168 0 269.5 -91.5 t101.5 -271.5v-563q0 -45 -21.5 -66.5t-70.5 -21.5h-154q-51 0 -72.5 21.5t-21.5 66.5v543q0 80 -35 114.5t-115 34.5q-86 0 -145.5 -46t-59.5 -120v-526q0 -45 -20 -66.5t-72 -21.5h-151q-51 0 -72.5 21.5t-21.5 66.5z" />
<glyph unicode="&#x14a;" horiz-adv-x="1431" d="M104 88v1217q0 45 21.5 66.5t73.5 21.5h127q35 0 52 -9.5t38 -35.5l573 -809v764q0 45 21.5 67.5t70.5 22.5h154q51 0 71.5 -21.5t20.5 -68.5v-1364q0 -201 -118.5 -320t-350.5 -119q-254 1 -418 107q-20 12 -20 33q0 16 12 34l74 125q16 25 33 25q12 0 30 -12 q45 -31 106.5 -49.5t129.5 -18.5q96 0 140 49t44 148v145l-547 766v-764q0 -45 -20.5 -66.5t-71.5 -21.5h-153q-49 0 -71 21.5t-22 66.5z" />
<glyph unicode="&#x14b;" horiz-adv-x="1230" d="M104 88v836q0 35 12.5 47t49.5 12h164q25 0 36 -8t13 -29l8 -72q63 63 161.5 101.5t217.5 38.5q168 0 269.5 -91.5t101.5 -271.5v-778q0 -190 -109.5 -299t-325.5 -109q-116 0 -214.5 29t-170.5 80q-20 14 -20 33q0 18 12 37l72 123q16 25 33 24q10 0 30 -14 q47 -33 92.5 -50.5t100.5 -17.5q86 0 123 41t37 127v756q0 78 -38 112.5t-112 34.5q-84 0 -144.5 -46t-60.5 -120v-526q0 -45 -20.5 -66.5t-71.5 -21.5h-151q-51 0 -73 21.5t-22 66.5z" />
<glyph unicode="&#x14c;" horiz-adv-x="1554" d="M63 696q0 346 183.5 536.5t531.5 190.5q346 0 529.5 -190.5t183.5 -536.5t-183.5 -536.5t-529.5 -190.5q-348 0 -531.5 190.5t-183.5 536.5zM399 696q0 -240 95.5 -361.5t283.5 -121.5q187 0 282 122t95 361q0 240 -95 362t-282 122q-188 0 -283.5 -122t-95.5 -362z M416 1630v74q0 47 18.5 67.5t67.5 20.5h555q49 0 67.5 -20.5t18.5 -67.5v-74q0 -47 -18.5 -67.5t-67.5 -20.5h-555q-49 0 -67.5 20.5t-18.5 67.5z" />
<glyph unicode="&#x14d;" horiz-adv-x="1275" d="M63 492q0 242 151 382t423 140q274 0 424.5 -140.5t150.5 -381.5q0 -242 -150.5 -382.5t-424.5 -140.5q-272 0 -423 140.5t-151 382.5zM272 1266v73q0 47 18.5 67.5t67.5 20.5h555q49 0 67.5 -20.5t18.5 -67.5v-73q0 -47 -18 -67.5t-68 -20.5h-555q-49 0 -67.5 20.5 t-18.5 67.5zM399 492q0 -137 61.5 -208t176.5 -71q117 0 178.5 69.5t61.5 209.5q0 137 -61.5 206.5t-178.5 69.5q-115 0 -176.5 -69.5t-61.5 -206.5z" />
<glyph unicode="&#x14e;" horiz-adv-x="1554" d="M63 696q0 346 183.5 536.5t531.5 190.5q346 0 529.5 -190.5t183.5 -536.5t-183.5 -536.5t-529.5 -190.5q-348 0 -531.5 190.5t-183.5 536.5zM399 696q0 -240 95.5 -361.5t283.5 -121.5q187 0 282 122t95 361q0 240 -95 362t-282 122q-188 0 -283.5 -122t-95.5 -362z M416 1855q0 16 9 26.5t24 10.5h178q20 0 27.5 -9t7.5 -30q0 -127 116 -127q117 0 117 127q0 20 7 29.5t28 9.5h178q14 0 23.5 -10t9.5 -27q0 -154 -93.5 -249t-269.5 -95q-178 0 -270 95.5t-92 248.5z" />
<glyph unicode="&#x14f;" horiz-adv-x="1275" d="M63 492q0 242 151 382t423 140q274 0 424.5 -140.5t150.5 -381.5q0 -242 -150.5 -382.5t-424.5 -140.5q-272 0 -423 140.5t-151 382.5zM272 1466q0 16 9.5 26.5t23.5 10.5h178q20 0 27.5 -9t7.5 -30q0 -127 117 -127t117 127q0 20 7 29.5t27 9.5h179q14 0 23 -10t9 -27 q0 -154 -93 -249t-269 -95q-178 0 -270.5 95.5t-92.5 248.5zM399 492q0 -137 61.5 -208t176.5 -71q117 0 178.5 69.5t61.5 209.5q0 137 -61.5 206.5t-178.5 69.5q-115 0 -176.5 -69.5t-61.5 -206.5z" />
<glyph unicode="&#x150;" horiz-adv-x="1554" d="M63 696q0 346 183.5 536.5t531.5 190.5q346 0 529.5 -190.5t183.5 -536.5t-183.5 -536.5t-529.5 -190.5q-348 0 -531.5 190.5t-183.5 536.5zM399 696q0 -240 95.5 -361.5t283.5 -121.5q187 0 282 122t95 361q0 240 -95 362t-282 122q-188 0 -283.5 -122t-95.5 -362z M424 1559q0 8 8 28l127 258q18 35 33.5 47.5t58.5 12.5h174q31 0 49.5 -11.5t18.5 -31.5q0 -16 -14 -37l-168 -250q-27 -37 -44.5 -47t-64.5 -10h-119q-28 0 -43.5 11t-15.5 30zM877 1561q0 12 6 26l129 258q18 37 32.5 48.5t59.5 11.5h172q31 0 50.5 -11.5t19.5 -31.5 q0 -16 -15 -37l-170 -250q-25 -35 -42 -46t-64 -11h-119q-29 0 -44 11t-15 32z" />
<glyph unicode="&#x151;" horiz-adv-x="1275" d="M63 492q0 242 151 382t423 140q274 0 424.5 -140.5t150.5 -381.5q0 -242 -150.5 -382.5t-424.5 -140.5q-272 0 -423 140.5t-151 382.5zM231 1157q0 8 9 29l127 258q18 35 33.5 47t58.5 12h174q31 0 49 -11t18 -32q0 -16 -14 -37l-168 -249q-27 -37 -44 -47.5t-64 -10.5 h-119q-29 0 -44.5 11.5t-15.5 29.5zM399 492q0 -137 61.5 -208t176.5 -71q117 0 178.5 69.5t61.5 209.5q0 137 -61.5 206.5t-178.5 69.5q-115 0 -176.5 -69.5t-61.5 -206.5zM684 1159q0 12 6 27l129 258q18 37 32.5 48t59.5 11h172q31 0 50.5 -11t19.5 -32q0 -16 -14 -37 l-170 -249q-25 -35 -42.5 -46.5t-64.5 -11.5h-119q-28 0 -43.5 11.5t-15.5 31.5z" />
<glyph unicode="&#x152;" horiz-adv-x="2387" d="M63 696q0 346 183.5 536.5t531.5 190.5q137 0 236.5 -41t148.5 -110v31q0 45 21.5 67.5t70.5 22.5h850q49 0 67.5 -19.5t18.5 -66.5v-76q0 -47 -18.5 -67.5t-67.5 -20.5h-604v-324h422q49 0 67.5 -19.5t18.5 -66.5v-71q0 -47 -18.5 -68t-67.5 -21h-422v-325h602 q49 0 67.5 -20.5t18.5 -67.5v-74q0 -47 -18.5 -66.5t-67.5 -19.5h-848q-49 0 -70.5 21.5t-21.5 66.5v29q-51 -76 -155.5 -112t-229.5 -36q-348 0 -531.5 190.5t-183.5 536.5zM399 696q0 -240 95.5 -361.5t283.5 -121.5q187 0 282 122t95 361q0 240 -95 362t-282 122 q-188 0 -283.5 -122t-95.5 -362z" />
<glyph unicode="&#x153;" horiz-adv-x="2048" d="M63 492q0 242 151 382t423 140q139 0 239.5 -43t170.5 -146q68 104 166 146.5t235 42.5q264 0 400.5 -133t136.5 -379q0 -86 -78 -86h-697q0 -111 83 -171.5t229 -60.5q86 0 149.5 17.5t122.5 50.5q20 10 29 10q14 0 26 -22l60 -111q8 -14 8 -25q0 -16 -23 -32 q-82 -53 -184 -78t-235 -25q-135 0 -241 43t-181 150q-70 -104 -172.5 -148.5t-243.5 -44.5q-272 0 -423 140.5t-151 382.5zM399 492q0 -137 61.5 -208t176.5 -71q117 0 178.5 69.5t61.5 209.5q0 137 -61.5 206.5t-178.5 69.5q-115 0 -176.5 -69.5t-61.5 -206.5zM1210 592 h471q0 102 -57 159.5t-174 57.5t-178.5 -58.5t-61.5 -158.5z" />
<glyph unicode="&#x154;" horiz-adv-x="1298" d="M104 88v1215q0 45 21.5 67.5t71.5 22.5h518q520 0 520 -455q0 -145 -61.5 -246.5t-182.5 -154.5l215 -471q6 -14 6 -29q0 -37 -43 -37h-227q-29 0 -43 7t-25 32l-188 450h-244v-401q0 -45 -20.5 -66.5t-71.5 -21.5h-153q-50 0 -71.5 21.5t-21.5 66.5zM442 733h224 q117 0 175 49t58 156q0 106 -53 155.5t-160 49.5h-244v-410zM483 1546q0 14 6 29l93 258q12 35 29.5 47t62.5 12h198q31 0 48.5 -10t17.5 -31q0 -16 -12 -39l-133 -249q-18 -35 -39 -46.5t-70 -11.5h-143q-58 0 -58 41z" />
<glyph unicode="&#x155;" horiz-adv-x="899" d="M104 88v836q0 35 12.5 47t49.5 12h164q25 0 36 -8t13 -29l8 -65q123 133 307 133q59 0 97 -9.5t67 -29.5q18 -14 19 -29q0 -6 -5 -18l-51 -154q-8 -25 -26 -24q-8 0 -21 6q-53 27 -123 26q-90 0 -149.5 -51t-59.5 -137v-506q0 -45 -20.5 -66.5t-71.5 -21.5h-151 q-52 0 -73.5 21.5t-21.5 66.5zM252 1182q0 14 6 28l92 258q12 35 29.5 47.5t62.5 12.5h199q31 0 48.5 -10.5t17.5 -30.5q0 -16 -13 -39l-133 -250q-18 -35 -38.5 -46t-69.5 -11h-144q-57 0 -57 41z" />
<glyph unicode="&#x156;" horiz-adv-x="1298" d="M104 88v1215q0 45 21.5 67.5t71.5 22.5h518q520 0 520 -455q0 -145 -61.5 -246.5t-182.5 -154.5l215 -471q6 -14 6 -29q0 -37 -43 -37h-227q-29 0 -43 7t-25 32l-188 450h-244v-401q0 -45 -20.5 -66.5t-71.5 -21.5h-153q-50 0 -71.5 21.5t-21.5 66.5zM442 -479q0 8 4 24 l95 318q10 39 28.5 51t59.5 12h135q63 0 63 -37q0 -20 -12 -47l-135 -315q-8 -20 -24.5 -30.5t-45.5 -10.5h-123q-45 0 -45 35zM442 733h224q117 0 175 49t58 156q0 106 -53 155.5t-160 49.5h-244v-410z" />
<glyph unicode="&#x157;" horiz-adv-x="899" d="M10 -479q0 8 4 24l95 318q10 39 28.5 51t59.5 12h135q63 0 63 -37q0 -20 -12 -47l-135 -315q-8 -20 -24.5 -30.5t-45.5 -10.5h-123q-45 0 -45 35zM104 88v836q0 35 12.5 47t49.5 12h164q25 0 36 -8t13 -29l8 -65q123 133 307 133q59 0 97 -9.5t67 -29.5q18 -14 19 -29 q0 -6 -5 -18l-51 -154q-8 -25 -26 -24q-8 0 -21 6q-53 27 -123 26q-90 0 -149.5 -51t-59.5 -137v-506q0 -45 -20.5 -66.5t-71.5 -21.5h-151q-52 0 -73.5 21.5t-21.5 66.5z" />
<glyph unicode="&#x158;" horiz-adv-x="1298" d="M104 88v1215q0 45 21.5 67.5t71.5 22.5h518q520 0 520 -455q0 -145 -61.5 -246.5t-182.5 -154.5l215 -471q6 -14 6 -29q0 -37 -43 -37h-227q-29 0 -43 7t-25 32l-188 450h-244v-401q0 -45 -20.5 -66.5t-71.5 -21.5h-153q-50 0 -71.5 21.5t-21.5 66.5zM262 1884 q0 33 49 33h133q43 0 60.5 -9.5t36.5 -35.5l123 -182l120 182q18 27 36 36t61 9h133q49 0 49 -33q0 -20 -21 -47l-204 -272q-23 -31 -38.5 -40t-56.5 -9h-161q-41 0 -55.5 9t-39.5 40l-204 272q-20 27 -21 47zM442 733h224q117 0 175 49t58 156q0 106 -53 155.5t-160 49.5 h-244v-410z" />
<glyph unicode="&#x159;" horiz-adv-x="899" d="M53 1495q0 33 49 33h134q43 0 60 -9.5t36 -35.5l123 -183l120 183q18 27 36 36t61 9h133q49 0 49 -33q0 -20 -20 -47l-205 -272q-23 -31 -38.5 -40.5t-55.5 -9.5h-162q-41 0 -55.5 9.5t-38.5 40.5l-205 272q-20 27 -21 47zM104 88v836q0 35 12.5 47t49.5 12h164 q25 0 36 -8t13 -29l8 -65q123 133 307 133q59 0 97 -9.5t67 -29.5q18 -14 19 -29q0 -6 -5 -18l-51 -154q-8 -25 -26 -24q-8 0 -21 6q-53 27 -123 26q-90 0 -149.5 -51t-59.5 -137v-506q0 -45 -20.5 -66.5t-71.5 -21.5h-151q-52 0 -73.5 21.5t-21.5 66.5z" />
<glyph unicode="&#x15a;" horiz-adv-x="1224" d="M66 139q0 12 10 29l84 133q12 20 26 21q12 0 31 -13q76 -43 174 -69.5t199 -26.5q119 0 176 38t57 120q0 55 -27.5 90t-82 61.5t-166.5 69.5q-131 49 -222.5 100t-149.5 132t-58 198q0 195 141 298t373 103q305 0 467 -114q31 -25 30 -41q0 -12 -10 -29l-84 -133 q-12 -20 -26 -21q-12 0 -31 13q-125 82 -303 82q-221 0 -221 -160q0 -53 25.5 -87t70.5 -57.5t141 -60.5l58 -22q150 -59 235.5 -111.5t131.5 -128.5t46 -195q0 -178 -134 -283.5t-388 -105.5q-160 0 -306.5 34t-236.5 95q-31 23 -30 41zM520 1546q0 14 6 29l92 258 q12 35 30 47t63 12h198q31 0 48.5 -10t17.5 -31q0 -16 -12 -39l-134 -249q-18 -35 -38.5 -46.5t-69.5 -11.5h-143q-58 0 -58 41z" />
<glyph unicode="&#x15b;" horiz-adv-x="1083" d="M63 111q0 10 11 26l71 127q12 20 25 21q14 0 31 -11q59 -35 148 -59.5t163 -24.5q90 0 130 19.5t40 66.5q0 31 -25.5 52.5t-70.5 37t-156 48.5q-170 51 -248 116.5t-78 186.5q0 145 122 221t327 76q242 0 412 -99q33 -18 32 -38q0 -12 -12 -31l-70 -111q-12 -20 -24 -20 q-10 0 -29 12q-51 29 -120.5 47.5t-139.5 18.5q-86 0 -129 -19.5t-43 -68.5q0 -41 48 -65t161 -54l113 -33q104 -35 161.5 -72t82 -86t24.5 -125q0 -131 -119 -216t-346 -85q-131 0 -250 27t-209 78q-33 18 -33 37zM412 1157q0 14 6 29l92 258q12 35 29.5 47t62.5 12h199 q31 0 48 -10t17 -31q0 -16 -12 -39l-133 -249q-18 -35 -38.5 -46.5t-70.5 -11.5h-143q-57 0 -57 41z" />
<glyph unicode="&#x15c;" horiz-adv-x="1224" d="M66 139q0 12 10 29l84 133q12 20 26 21q12 0 31 -13q76 -43 174 -69.5t199 -26.5q119 0 176 38t57 120q0 55 -27.5 90t-82 61.5t-166.5 69.5q-131 49 -222.5 100t-149.5 132t-58 198q0 195 141 298t373 103q305 0 467 -114q31 -25 30 -41q0 -12 -10 -29l-84 -133 q-12 -20 -26 -21q-12 0 -31 13q-125 82 -303 82q-221 0 -221 -160q0 -53 25.5 -87t70.5 -57.5t141 -60.5l58 -22q150 -59 235.5 -111.5t131.5 -128.5t46 -195q0 -178 -134 -283.5t-388 -105.5q-160 0 -306.5 34t-236.5 95q-31 23 -30 41zM231 1540q0 20 19 45l205 273 q27 31 40 40t54 9h162q41 0 56 -9.5t38 -39.5l205 -273q18 -27 18 -45q0 -16 -13.5 -26.5t-39.5 -10.5h-125q-43 0 -61.5 10.5t-36.5 38.5l-121 181l-121 -181q-18 -29 -36.5 -39t-61.5 -10h-125q-27 0 -41.5 10.5t-14.5 26.5z" />
<glyph unicode="&#x15d;" horiz-adv-x="1083" d="M63 111q0 10 11 26l71 127q12 20 25 21q14 0 31 -11q59 -35 148 -59.5t163 -24.5q90 0 130 19.5t40 66.5q0 31 -25.5 52.5t-70.5 37t-156 48.5q-170 51 -248 116.5t-78 186.5q0 145 122 221t327 76q242 0 412 -99q33 -18 32 -38q0 -12 -12 -31l-70 -111q-12 -20 -24 -20 q-10 0 -29 12q-51 29 -120.5 47.5t-139.5 18.5q-86 0 -129 -19.5t-43 -68.5q0 -41 48 -65t161 -54l113 -33q104 -35 161.5 -72t82 -86t24.5 -125q0 -131 -119 -216t-346 -85q-131 0 -250 27t-209 78q-33 18 -33 37zM156 1151q0 20 18 45l205 272q27 31 40 40.5t54 9.5h162 q41 0 56.5 -9.5t37.5 -40.5l205 -272q18 -27 18 -45q0 -16 -13 -26.5t-40 -10.5h-125q-43 0 -61.5 10.5t-36.5 38.5l-121 180l-121 -180q-18 -29 -36.5 -39t-61.5 -10h-125q-27 0 -41 10.5t-14 26.5z" />
<glyph unicode="&#x15e;" horiz-adv-x="1224" d="M66 139q0 12 10 29l84 133q12 20 26 21q12 0 31 -13q74 -45 173 -70.5t200 -25.5q119 0 176 38t57 120q0 55 -27.5 90t-82 61.5t-166.5 69.5q-131 49 -222.5 100t-149.5 132t-58 198q0 195 141 298t373 103q299 0 467 -114q31 -25 30 -41q0 -12 -10 -29l-84 -133 q-12 -20 -26 -21q-12 0 -31 13q-119 82 -303 82q-221 0 -221 -160q0 -53 25.5 -87t70.5 -57.5t141 -60.5l58 -22q150 -59 235.5 -111.5t131.5 -128.5t46 -195q0 -147 -93 -246.5t-273 -129.5q0 -3 -4 -15l-48 -102q141 -18 142 -152q0 -78 -64.5 -126t-185.5 -48 q-51 0 -104.5 10.5t-81.5 24.5q-18 10 -22.5 16.5t1.5 20.5l37 90q6 14 16 14q8 0 21 -6q35 -20 90 -20q39 0 56.5 12t17.5 39q0 35 -27 47t-88 12h-33q-16 0 -21 9.5t1 23.5l55 139q-135 8 -257 41t-200 86q-31 23 -30 41z" />
<glyph unicode="&#x15f;" horiz-adv-x="1083" d="M63 111q0 10 11 26l71 127q12 20 25 21q14 0 31 -11q59 -35 148 -59.5t163 -24.5q90 0 130 19.5t40 66.5q0 31 -25.5 52.5t-70.5 37t-156 48.5q-170 51 -248 116.5t-78 186.5q0 145 122 221t327 76q246 0 412 -99q33 -18 32 -38q0 -12 -12 -31l-70 -111q-12 -20 -24 -20 q-10 0 -29 12q-51 29 -120.5 47.5t-139.5 18.5q-86 0 -129 -19.5t-43 -68.5q0 -41 48 -65t161 -54l113 -33q104 -35 161.5 -72t82 -86t24.5 -125q0 -109 -84 -187.5t-246 -102.5q0 -5 -4 -13l-47 -102q141 -18 141 -152q0 -78 -63.5 -126t-184.5 -48q-51 0 -104 10.5 t-82 24.5q-18 10 -22.5 16.5t2.5 20.5l34 90q6 14 19 14q8 0 18 -6q39 -20 92 -20q39 0 56.5 12t17.5 39q0 35 -26.5 47t-87.5 12h-33q-16 0 -21.5 9.5t0.5 23.5l56 139v2q-211 16 -355 101q-33 18 -33 37z" />
<glyph unicode="&#x160;" horiz-adv-x="1224" d="M66 139q0 12 10 29l84 133q12 20 26 21q12 0 31 -13q76 -43 174 -69.5t199 -26.5q119 0 176 38t57 120q0 55 -27.5 90t-82 61.5t-166.5 69.5q-131 49 -222.5 100t-149.5 132t-58 198q0 195 141 298t373 103q305 0 467 -114q31 -25 30 -41q0 -12 -10 -29l-84 -133 q-12 -20 -26 -21q-12 0 -31 13q-125 82 -303 82q-221 0 -221 -160q0 -53 25.5 -87t70.5 -57.5t141 -60.5l58 -22q150 -59 235.5 -111.5t131.5 -128.5t46 -195q0 -178 -134 -283.5t-388 -105.5q-160 0 -306.5 34t-236.5 95q-31 23 -30 41zM246 1909q0 33 49 33h133 q43 0 60.5 -9.5t35.5 -36.5l123 -182l121 182q18 27 35.5 36.5t60.5 9.5h133q49 0 50 -33q0 -20 -21 -47l-205 -273q-23 -31 -38 -40t-56 -9h-162q-41 0 -55 9.5t-39 39.5l-205 273q-20 27 -20 47z" />
<glyph unicode="&#x161;" horiz-adv-x="1083" d="M63 111q0 10 11 26l71 127q12 20 25 21q14 0 31 -11q59 -35 148 -59.5t163 -24.5q90 0 130 19.5t40 66.5q0 31 -25.5 52.5t-70.5 37t-156 48.5q-170 51 -248 116.5t-78 186.5q0 145 122 221t327 76q242 0 412 -99q33 -18 32 -38q0 -12 -12 -31l-70 -111q-12 -20 -24 -20 q-10 0 -29 12q-51 29 -120.5 47.5t-139.5 18.5q-86 0 -129 -19.5t-43 -68.5q0 -41 48 -65t161 -54l113 -33q104 -35 161.5 -72t82 -86t24.5 -125q0 -131 -119 -216t-346 -85q-131 0 -250 27t-209 78q-33 18 -33 37zM156 1483q0 33 49 33h133q43 0 60.5 -9.5t35.5 -36.5 l123 -182l121 182q18 27 35.5 36.5t60.5 9.5h133q49 0 49 -33q0 -20 -20 -47l-205 -273q-23 -31 -38 -40t-56 -9h-162q-41 0 -55 9.5t-39 39.5l-205 273q-20 27 -20 47z" />
<glyph unicode="&#x162;" horiz-adv-x="1230" d="M23 1229v76q0 47 18 67.5t68 20.5h1011q49 0 68.5 -20.5t19.5 -67.5v-76q0 -45 -19.5 -65.5t-68.5 -20.5h-336v-1055q0 -57 -36 -78q8 -2 8 -12l-4 -16l-47 -103q141 -18 141 -151q0 -78 -63.5 -126t-184.5 -48q-51 0 -104.5 10t-81.5 24q-18 10 -22.5 16.5t1.5 20.5 l35 90q6 14 16 15q8 0 21 -6q45 -20 92 -21q39 0 56.5 12.5t17.5 38.5q0 35 -27 47.5t-88 12.5h-33q-16 0 -21 9t1 23l55 140l6 14q-43 2 -60.5 23.5t-17.5 64.5v1055h-335q-49 0 -67.5 19.5t-18.5 66.5z" />
<glyph unicode="&#x163;" horiz-adv-x="966" d="M25 829v68q0 47 16 66.5t65 19.5h101v82q0 45 19.5 89t56.5 110q16 29 30.5 38t51.5 9h94q47 0 66.5 -20.5t19.5 -65.5v-242h203q49 0 65 -19.5t16 -66.5v-68q0 -47 -16 -65.5t-65 -18.5h-203v-383q0 -80 28.5 -114.5t96.5 -34.5q41 0 68.5 10t62.5 33q16 10 24 10 q18 0 31 -22l76 -129q10 -17 10 -27q0 -14 -24 -31q-96 -66 -224 -82q2 -6 -4 -18l-47 -102q141 -18 141 -152q0 -78 -63.5 -126t-183.5 -48q-51 0 -104.5 10t-82.5 25q-18 10 -22 16t2 21l35 90q6 14 16 14q8 0 20 -6q45 -20 93 -21q39 0 56 12.5t17 39.5q0 35 -26.5 47 t-87.5 12h-33q-16 0 -21.5 9t0.5 24l56 139q6 16 12 21q-129 31 -194.5 127t-65.5 245v391h-101q-49 0 -65 18.5t-16 65.5z" />
<glyph unicode="&#x164;" horiz-adv-x="1230" d="M23 1229v76q0 47 18 67.5t68 20.5h1011q49 0 68.5 -20.5t19.5 -67.5v-76q0 -45 -19.5 -65.5t-68.5 -20.5h-336v-1055q0 -45 -21.5 -66.5t-72.5 -21.5h-151q-52 0 -73.5 21.5t-21.5 66.5v1055h-335q-49 0 -67.5 19.5t-18.5 66.5zM219 1884q0 33 49 33h133q43 0 60.5 -9.5 t36.5 -35.5l123 -182l120 182q18 27 36 36t61 9h133q49 0 49 -33q0 -20 -21 -47l-204 -272q-23 -31 -38.5 -40t-56.5 -9h-161q-41 0 -55.5 9t-39.5 40l-204 272q-20 27 -21 47z" />
<glyph unicode="&#x165;" horiz-adv-x="1095" d="M25 829v68q0 47 16 66.5t65 19.5h101v82q0 45 19.5 89t56.5 110q16 29 30.5 38t51.5 9h94q47 0 66.5 -20.5t19.5 -65.5v-242h203q49 0 65 -19.5t16 -66.5v-68q0 -47 -16 -65.5t-65 -18.5h-203v-383q0 -80 28.5 -114.5t96.5 -34.5q41 0 68.5 10t62.5 33q16 10 24 10 q18 0 31 -22l76 -129q10 -16 10 -27q0 -14 -24 -31q-129 -88 -332 -88q-187 0 -283 102.5t-96 282.5v391h-101q-49 0 -65 18.5t-16 65.5zM686 1249q0 8 4 25l94 317q10 39 28.5 51.5t59.5 12.5h136q63 0 63 -37q0 -18 -12 -47l-135 -316q-8 -20 -24.5 -30.5t-45.5 -10.5 h-123q-45 0 -45 35z" />
<glyph unicode="&#x166;" horiz-adv-x="1230" d="M23 1229v76q0 47 18 67.5t68 20.5h1011q49 0 68.5 -20.5t19.5 -67.5v-76q0 -45 -19.5 -65.5t-68.5 -20.5h-336v-258h107q49 0 68.5 -20.5t19.5 -67.5v-74q0 -47 -19.5 -67.5t-68.5 -20.5h-107v-547q0 -45 -21.5 -66.5t-72.5 -21.5h-151q-51 0 -73 21.5t-22 66.5v547h-108 q-49 0 -67.5 20.5t-18.5 67.5v74q0 47 18.5 67.5t67.5 20.5h108v258h-335q-49 0 -67.5 19.5t-18.5 66.5z" />
<glyph unicode="&#x167;" horiz-adv-x="966" d="M25 829v68q0 47 16 66.5t65 19.5h101v82q0 45 19.5 89t56.5 110q16 29 30.5 38t51.5 9h94q47 0 66.5 -20.5t19.5 -65.5v-242h203q49 0 65 -19.5t16 -66.5v-68q0 -47 -16 -65.5t-65 -18.5h-203v-131h180q47 0 62.5 -14t15.5 -61v-107q0 -47 -14.5 -61.5t-63.5 -14.5h-180 q2 -76 30.5 -109.5t94.5 -33.5q41 0 68.5 10t62.5 33q16 10 24 10q18 0 31 -22l76 -129q10 -17 10 -27q0 -14 -24 -31q-129 -88 -332 -88q-186 0 -282.5 102.5t-96.5 282.5v2h-74q-49 0 -63.5 14.5t-14.5 61.5v107q0 47 15.5 61t62.5 14h74v131h-101q-49 0 -65 18.5 t-16 65.5z" />
<glyph unicode="&#x168;" horiz-adv-x="1466" d="M94 498v805q0 45 21.5 67.5t70.5 22.5h154q51 0 71.5 -21.5t20.5 -68.5v-811q0 -133 80 -206t221 -73t220 72.5t79 206.5v811q0 45 21.5 67.5t70.5 22.5h154q51 0 72.5 -22.5t21.5 -67.5v-805q0 -162 -81 -282t-225 -183.5t-333 -63.5q-188 0 -333.5 63.5t-225.5 183.5 t-80 282zM311 1655q0 25 25 57q57 76 110.5 113t131.5 37q59 0 106 -16.5t107 -45.5q45 -23 75.5 -33t61.5 -10q39 0 63.5 15.5t57.5 56.5q18 25 45 24q33 0 88 -43t55 -75q0 -23 -25 -58q-57 -84 -113.5 -120.5t-144.5 -36.5q-47 0 -90 14t-100 43q-49 23 -83 35t-69 12 q-39 0 -62.5 -14.5t-55.5 -50.5q-18 -23 -41 -23q-31 0 -91 47q-51 39 -51 72z" />
<glyph unicode="&#x169;" horiz-adv-x="1222" d="M94 344v549q0 45 21.5 67.5t70.5 22.5h154q51 0 71.5 -21.5t20.5 -68.5v-537q0 -80 40 -116.5t118 -36.5q84 0 136 45t52 123v522q0 45 21.5 67.5t72.5 22.5h152q51 0 72.5 -22.5t21.5 -67.5v-834q0 -35 -12 -47t-49 -12h-164q-47 0 -49 35l-8 76q-135 -141 -371 -142 q-168 0 -269.5 94.5t-101.5 280.5zM168 1290q0 25 25 58q57 76 110 112.5t131 36.5q59 0 106.5 -15.5t106.5 -45.5q45 -23 76 -33t61 -10q39 0 63.5 15t57.5 56q18 25 45 25q33 0 88 -43t56 -76q0 -23 -25 -57q-57 -84 -113.5 -121t-144.5 -37q-47 0 -90 14.5t-100 42.5 q-49 23 -83 35.5t-69 12.5q-39 0 -62.5 -14.5t-56.5 -51.5q-18 -23 -41 -23q-31 0 -90 48q-51 39 -51 71z" />
<glyph unicode="&#x16a;" horiz-adv-x="1466" d="M94 498v805q0 45 21.5 67.5t70.5 22.5h154q51 0 71.5 -21.5t20.5 -68.5v-811q0 -133 80 -206t221 -73t220 72.5t79 206.5v811q0 45 21.5 67.5t70.5 22.5h154q51 0 72.5 -22.5t21.5 -67.5v-805q0 -162 -81 -282t-225 -183.5t-333 -63.5q-188 0 -333.5 63.5t-225.5 183.5 t-80 282zM375 1630v74q0 47 18.5 67.5t67.5 20.5h555q49 0 67.5 -20.5t18.5 -67.5v-74q0 -47 -18.5 -67.5t-67.5 -20.5h-555q-49 0 -67.5 20.5t-18.5 67.5z" />
<glyph unicode="&#x16b;" horiz-adv-x="1222" d="M94 344v549q0 45 21.5 67.5t70.5 22.5h154q51 0 71.5 -21.5t20.5 -68.5v-537q0 -80 40 -116.5t118 -36.5q84 0 136 45t52 123v522q0 45 21.5 67.5t72.5 22.5h152q51 0 72.5 -22.5t21.5 -67.5v-834q0 -35 -12 -47t-49 -12h-164q-47 0 -49 35l-8 76q-135 -141 -371 -142 q-168 0 -269.5 94.5t-101.5 280.5zM219 1266v73q0 47 18.5 67.5t67.5 20.5h555q49 0 67.5 -20.5t18.5 -67.5v-73q0 -47 -18.5 -67.5t-67.5 -20.5h-555q-49 0 -67.5 20.5t-18.5 67.5z" />
<glyph unicode="&#x16c;" horiz-adv-x="1466" d="M94 498v805q0 45 21.5 67.5t70.5 22.5h154q51 0 71.5 -21.5t20.5 -68.5v-811q0 -133 80 -206t221 -73t220 72.5t79 206.5v811q0 45 21.5 67.5t70.5 22.5h154q51 0 72.5 -22.5t21.5 -67.5v-805q0 -162 -81 -282t-225 -183.5t-333 -63.5q-188 0 -333.5 63.5t-225.5 183.5 t-80 282zM371 1855q0 16 9 26.5t23 10.5h179q20 0 27 -9t7 -30q0 -127 117 -127t117 127q0 20 7 29.5t28 9.5h178q14 0 23.5 -10t9.5 -27q0 -154 -93.5 -249t-269.5 -95q-178 0 -270 95.5t-92 248.5z" />
<glyph unicode="&#x16d;" horiz-adv-x="1222" d="M94 344v549q0 45 21.5 67.5t70.5 22.5h154q51 0 71.5 -21.5t20.5 -68.5v-537q0 -80 40 -116.5t118 -36.5q84 0 136 45t52 123v522q0 45 21.5 67.5t72.5 22.5h152q51 0 72.5 -22.5t21.5 -67.5v-834q0 -35 -12 -47t-49 -12h-164q-47 0 -49 35l-8 76q-135 -141 -371 -142 q-168 0 -269.5 94.5t-101.5 280.5zM242 1466q0 16 9 26.5t23 10.5h179q20 0 27 -9t7 -30q0 -127 117 -127t117 127q0 20 7 29.5t28 9.5h178q14 0 23.5 -10t9.5 -27q0 -154 -93.5 -249t-269.5 -95q-178 0 -270 95.5t-92 248.5z" />
<glyph unicode="&#x16e;" horiz-adv-x="1466" d="M94 498v805q0 45 21.5 67.5t70.5 22.5h154q51 0 71.5 -21.5t20.5 -68.5v-811q0 -133 80 -206t221 -73t220 72.5t79 206.5v811q0 45 21.5 67.5t70.5 22.5h154q51 0 72.5 -22.5t21.5 -67.5v-805q0 -162 -81 -282t-225 -183.5t-333 -63.5q-188 0 -333.5 63.5t-225.5 183.5 t-80 282zM487 1724q0 102 72 175t174 73t175 -72.5t73 -175.5q0 -102 -72.5 -173.5t-175.5 -71.5q-102 0 -174 71.5t-72 173.5zM639 1724q0 -39 27.5 -66.5t66.5 -27.5t66.5 28t27.5 66q0 39 -27.5 67t-66.5 28t-66.5 -28t-27.5 -67z" />
<glyph unicode="&#x16f;" horiz-adv-x="1222" d="M94 344v549q0 45 21.5 67.5t70.5 22.5h154q51 0 71.5 -21.5t20.5 -68.5v-537q0 -80 40 -116.5t118 -36.5q84 0 136 45t52 123v522q0 45 21.5 67.5t72.5 22.5h152q51 0 72.5 -22.5t21.5 -67.5v-834q0 -35 -12 -47t-49 -12h-164q-47 0 -49 35l-8 76q-135 -141 -371 -142 q-168 0 -269.5 94.5t-101.5 280.5zM358 1335q0 102 72 175t174 73t175 -72.5t73 -175.5q0 -102 -72.5 -173.5t-175.5 -71.5q-102 0 -174 71.5t-72 173.5zM510 1335q0 -39 27.5 -66.5t66.5 -27.5t66.5 27.5t27.5 66.5t-27.5 67t-66.5 28t-66.5 -28t-27.5 -67z" />
<glyph unicode="&#x170;" horiz-adv-x="1466" d="M94 498v805q0 45 21.5 67.5t70.5 22.5h154q51 0 71.5 -21.5t20.5 -68.5v-811q0 -133 80 -206t221 -73t220 72.5t79 206.5v811q0 45 21.5 67.5t70.5 22.5h154q51 0 72.5 -22.5t21.5 -67.5v-805q0 -162 -81 -282t-225 -183.5t-333 -63.5q-188 0 -333.5 63.5t-225.5 183.5 t-80 282zM385 1559q0 8 8 28l127 258q18 35 33.5 47.5t58.5 12.5h174q31 0 49.5 -11.5t18.5 -31.5q0 -16 -14 -37l-168 -250q-27 -37 -44.5 -47t-64.5 -10h-119q-28 0 -43.5 11t-15.5 30zM838 1561q0 12 6 26l129 258q18 37 32.5 48.5t59.5 11.5h172q31 0 50.5 -11.5 t19.5 -31.5q0 -16 -15 -37l-170 -250q-25 -35 -42 -46t-64 -11h-119q-29 0 -44 11t-15 32z" />
<glyph unicode="&#x171;" horiz-adv-x="1241" d="M94 344v549q0 45 21.5 67.5t70.5 22.5h154q51 0 71.5 -21.5t20.5 -68.5v-537q0 -80 40 -116.5t118 -36.5q84 0 136 45t52 123v522q0 45 21.5 67.5t72.5 22.5h152q51 0 72.5 -22.5t21.5 -67.5v-834q0 -35 -12 -47t-49 -12h-164q-47 0 -49 35l-8 76q-135 -141 -371 -142 q-168 0 -269.5 94.5t-101.5 280.5zM215 1169q0 8 8 29l127 258q18 35 33.5 47.5t58.5 12.5h174q31 0 49.5 -11.5t18.5 -31.5q0 -16 -14 -37l-168 -250q-27 -37 -44.5 -47.5t-64.5 -10.5h-119q-28 0 -43.5 11.5t-15.5 29.5zM668 1171q0 12 6 27l129 258q18 37 32.5 48.5 t59.5 11.5h172q31 0 50.5 -11.5t19.5 -31.5q0 -16 -15 -37l-170 -250q-25 -35 -42 -46.5t-64 -11.5h-119q-29 0 -44 11.5t-15 31.5z" />
<glyph unicode="&#x172;" horiz-adv-x="1466" d="M94 498v805q0 45 21.5 67.5t70.5 22.5h154q51 0 71.5 -21.5t20.5 -68.5v-811q0 -133 80 -206t221 -73t220 72.5t79 206.5v811q0 45 21.5 67.5t70.5 22.5h154q51 0 72.5 -22.5t21.5 -67.5v-805q0 -211 -135 -348.5t-363 -169.5l-6 -11q-74 -86 -98.5 -129t-24.5 -86 q0 -55 50 -55q29 0 45 8q8 4 12 4q10 0 16 -14l37 -80q4 -8 4 -12q0 -12 -24 -23q-57 -29 -180 -28q-94 0 -143.5 48t-49.5 122q0 55 28.5 115.5t94.5 133.5q-248 25 -394.5 163t-146.5 362z" />
<glyph unicode="&#x173;" horiz-adv-x="1222" d="M94 344v549q0 45 21.5 67.5t70.5 22.5h154q51 0 71.5 -21.5t20.5 -68.5v-537q0 -80 40 -116.5t118 -36.5q84 0 136 45t52 123v522q0 45 21.5 67.5t72.5 22.5h152q51 0 72.5 -22.5t21.5 -67.5v-834q0 -35 -12 -47t-49 -12h-2q0 -6 -6 -12q-74 -86 -98.5 -129t-24.5 -86 q0 -55 49 -56q29 0 45 9q8 4 12 4q10 0 17 -15l36 -80q4 -8 5 -12q0 -12 -25 -22q-57 -29 -180 -29q-94 0 -143.5 48t-49.5 122q0 57 30 116.5t95 135.5q4 4 12.5 12t18.5 12q-4 8 -4 17l-8 76q-135 -141 -371 -142q-168 0 -269.5 94.5t-101.5 280.5z" />
<glyph unicode="&#x174;" horiz-adv-x="1800" d="M63 1358q0 35 48 35h227q33 0 47 -11.5t18 -35.5l164 -764l205 655q10 29 24.5 39t45.5 10h114q31 0 45.5 -10t24.5 -39l207 -655l162 764q4 25 18 36t47 11h230q47 0 47 -35q0 -4 -4 -21l-320 -1278q-8 -33 -27.5 -46t-54.5 -13h-147q-35 0 -53.5 13.5t-28.5 45.5 l-203 680l-201 -680q-10 -33 -28.5 -46t-53.5 -13h-149q-35 0 -54.5 13.5t-27.5 45.5l-317 1278q-4 16 -5 21zM500 1540q0 20 18 45l205 273q27 31 40 40t54 9h162q41 0 56.5 -9.5t37.5 -39.5l205 -273q18 -27 18 -45q0 -16 -13 -26.5t-40 -10.5h-125q-43 0 -61.5 10.5 t-36.5 38.5l-121 181l-121 -181q-18 -29 -36.5 -39t-61.5 -10h-125q-27 0 -41 10.5t-14 26.5z" />
<glyph unicode="&#x175;" horiz-adv-x="1587" d="M66 954q0 29 36 29h213q27 0 38.5 -8t15.5 -29l143 -547l172 457q8 23 19.5 32t35.5 9h109q25 0 36 -9t19 -32l170 -457l146 547q4 20 14 28.5t37 8.5h215q47 0 35 -45l-275 -891q-8 -27 -21.5 -37t-39.5 -10h-160q-27 0 -39 10t-22 37l-170 461l-170 -461 q-10 -27 -22.5 -37t-39.5 -10h-158q-28 0 -41.5 10t-21.5 37l-272 891q-2 6 -2 16zM395 1151q0 20 19 45l204 272q27 31 40.5 40.5t54.5 9.5h161q41 0 56.5 -9.5t38.5 -40.5l205 -272q18 -27 18 -45q0 -16 -13.5 -26.5t-39.5 -10.5h-125q-43 0 -61.5 10.5t-37.5 38.5 l-120 180l-121 -180q-18 -29 -37 -39t-62 -10h-124q-27 0 -41.5 10.5t-14.5 26.5z" />
<glyph unicode="&#x176;" horiz-adv-x="1478" d="M63 1358q0 14 11.5 24.5t29.5 10.5h246q29 0 41 -9.5t25 -31.5l323 -568l324 568q12 23 24.5 32t38.5 9h248q18 0 29.5 -10.5t11.5 -24.5q0 -16 -10 -33l-496 -852v-385q0 -45 -21.5 -66.5t-72.5 -21.5h-153q-50 0 -71.5 21.5t-21.5 66.5v387l-495 850q-10 16 -11 33z M340 1540q0 20 18 45l205 273q27 31 40 40t54 9h162q41 0 56.5 -9.5t37.5 -39.5l205 -273q18 -27 19 -45q0 -16 -13.5 -26.5t-40.5 -10.5h-125q-43 0 -61 10.5t-37 38.5l-121 181l-121 -181q-18 -29 -36.5 -39t-61.5 -10h-125q-26 0 -40.5 10.5t-14.5 26.5z" />
<glyph unicode="&#x177;" horiz-adv-x="1230" d="M72 -197q0 10 10 31l70 121q12 23 28 22q14 0 33 -12q33 -23 63.5 -34t71.5 -11q53 0 83 32t56 103l-405 860q-8 16 -8 33q0 35 37 35h237q29 0 43.5 -10t24.5 -35l225 -555l225 555q10 25 24.5 35t43.5 10h237q37 0 37 -35q0 -16 -8 -33l-383 -815q-76 -160 -134 -246.5 t-133 -129.5t-183 -43q-168 0 -277 92q-18 14 -18 30zM229 1151q0 20 19 45l205 272q27 31 40 40.5t54 9.5h162q41 0 56 -9.5t38 -40.5l205 -272q18 -27 18 -45q0 -16 -13.5 -26.5t-39.5 -10.5h-125q-43 0 -61.5 10.5t-36.5 38.5l-121 180l-121 -180q-18 -29 -36.5 -39 t-61.5 -10h-125q-27 0 -41.5 10.5t-14.5 26.5z" />
<glyph unicode="&#x178;" horiz-adv-x="1478" d="M63 1358q0 14 11.5 24.5t29.5 10.5h246q29 0 41 -9.5t25 -31.5l323 -568l324 568q12 23 24.5 32t38.5 9h248q18 0 29.5 -10.5t11.5 -24.5q0 -16 -10 -33l-496 -852v-385q0 -45 -21.5 -66.5t-72.5 -21.5h-153q-50 0 -71.5 21.5t-21.5 66.5v387l-495 850q-10 16 -11 33z M416 1614v45q0 49 30.5 83t79.5 34h47q49 0 80 -34t31 -83v-45q0 -49 -30.5 -83t-80.5 -34h-47q-49 0 -79.5 34t-30.5 83zM836 1614v45q0 49 31.5 83t78.5 34h49q49 0 80 -34t31 -83v-45q0 -49 -31 -83t-80 -34h-49q-47 0 -78.5 34t-31.5 83z" />
<glyph unicode="&#x179;" horiz-adv-x="1302" d="M63 84q0 45 10.5 73.5t43.5 73.5l674 912h-615q-49 0 -70.5 21.5t-21.5 66.5v76q0 45 21.5 65.5t70.5 20.5h979q47 0 63.5 -19.5t16.5 -64.5q0 -47 -10.5 -74t-44.5 -76l-670 -911h637q49 0 70.5 -20.5t21.5 -67.5v-74q0 -45 -21.5 -65.5t-70.5 -20.5h-1006 q-47 0 -62.5 18.5t-15.5 65.5zM582 1546q0 14 6 29l92 258q12 35 29.5 47t62.5 12h199q31 0 48 -10t17 -31q0 -16 -12 -39l-133 -249q-18 -35 -39 -46.5t-70 -11.5h-143q-57 0 -57 41z" />
<glyph unicode="&#x17a;" horiz-adv-x="1114" d="M68 68q0 74 17 110.5t75 93.5l454 461h-444q-49 0 -70.5 21.5t-21.5 66.5v76q0 45 21.5 65.5t70.5 20.5h791q39 0 53 -13.5t14 -49.5q0 -74 -18.5 -112t-71.5 -97l-432 -463h452q49 0 71 -20.5t22 -67.5v-74q0 -45 -21.5 -65.5t-71.5 -20.5h-817q-43 0 -58 15.5t-15 52.5 zM467 1182q0 14 6 28l92 258q12 35 29.5 47.5t62.5 12.5h199q31 0 48.5 -10.5t17.5 -30.5q0 -16 -13 -39l-133 -250q-18 -35 -38.5 -46t-69.5 -11h-144q-57 0 -57 41z" />
<glyph unicode="&#x17b;" horiz-adv-x="1302" d="M63 84q0 45 10.5 73.5t43.5 73.5l674 912h-615q-49 0 -70.5 21.5t-21.5 66.5v76q0 45 21.5 65.5t70.5 20.5h979q47 0 63.5 -19.5t16.5 -64.5q0 -47 -10.5 -74t-44.5 -76l-670 -911h637q49 0 70.5 -20.5t21.5 -67.5v-74q0 -45 -21.5 -65.5t-70.5 -20.5h-1006 q-47 0 -62.5 18.5t-15.5 65.5zM559 1651v45q0 49 31 82.5t80 33.5h49q47 0 78.5 -33.5t31.5 -82.5v-45q0 -49 -30.5 -83t-79.5 -34h-49q-49 0 -80 34t-31 83z" />
<glyph unicode="&#x17c;" horiz-adv-x="1114" d="M68 68q0 74 17 110.5t75 93.5l454 461h-444q-49 0 -70.5 21.5t-21.5 66.5v76q0 45 21.5 65.5t70.5 20.5h791q39 0 53 -13.5t14 -49.5q0 -74 -18.5 -112t-71.5 -97l-432 -463h452q49 0 71 -20.5t22 -67.5v-74q0 -45 -21.5 -65.5t-71.5 -20.5h-817q-43 0 -58 15.5t-15 52.5 zM442 1262v45q0 49 31 82.5t80 33.5h49q47 0 79 -33.5t32 -82.5v-45q0 -49 -31 -83t-80 -34h-49q-49 0 -80 33.5t-31 83.5z" />
<glyph unicode="&#x17d;" horiz-adv-x="1302" d="M63 84q0 45 10.5 73.5t43.5 73.5l674 912h-615q-49 0 -70.5 21.5t-21.5 66.5v76q0 45 21.5 65.5t70.5 20.5h979q47 0 63.5 -19.5t16.5 -64.5q0 -47 -10.5 -74t-44.5 -76l-670 -911h637q49 0 70.5 -20.5t21.5 -67.5v-74q0 -45 -21.5 -65.5t-70.5 -20.5h-1006 q-47 0 -62.5 18.5t-15.5 65.5zM266 1909q0 33 49 33h134q43 0 60 -9.5t36 -36.5l123 -182l120 182q18 27 36 36.5t61 9.5h133q49 0 49 -33q0 -20 -20 -47l-205 -273q-23 -31 -38.5 -40t-55.5 -9h-162q-41 0 -55.5 9.5t-38.5 39.5l-205 273q-20 27 -21 47z" />
<glyph unicode="&#x17e;" horiz-adv-x="1114" d="M68 68q0 74 17 110.5t75 93.5l454 461h-444q-49 0 -70.5 21.5t-21.5 66.5v76q0 45 21.5 65.5t70.5 20.5h791q39 0 53 -13.5t14 -49.5q0 -74 -18.5 -112t-71.5 -97l-432 -463h452q49 0 71 -20.5t22 -67.5v-74q0 -45 -21.5 -65.5t-71.5 -20.5h-817q-43 0 -58 15.5t-15 52.5 zM170 1495q0 33 49 33h133q43 0 60.5 -9.5t36.5 -35.5l122 -183l121 183q18 27 35.5 36t60.5 9h134q49 0 49 -33q0 -20 -21 -47l-205 -272q-23 -31 -38 -40.5t-56 -9.5h-162q-40 0 -54.5 9.5t-39.5 40.5l-205 272q-20 27 -20 47z" />
<glyph unicode="&#x18f;" horiz-adv-x="1441" d="M63 684q0 86 76 86h920q0 209 -99.5 309.5t-320.5 100.5q-176 0 -338 -78q-25 -12 -37 -12q-14 0 -26 20l-72 125q-12 23 -12 37q0 20 18 33q86 59 220 88.5t296 29.5q342 0 516 -197.5t174 -525.5q0 -344 -165.5 -537.5t-503.5 -193.5q-646 0 -646 715zM367 567 q0 -168 85 -261t257 -93q168 0 259 95t91 259h-692z" />
<glyph unicode="&#x192;" horiz-adv-x="1150" d="M-213 -246q0 10 12 29l76 106q14 20 31 21q6 0 22 -8q63 -37 131 -37q74 0 110 37t44 112l76 731h-99q-49 0 -67.5 20.5t-18.5 68.5v63q0 47 18.5 66.5t67.5 19.5h123l6 53q18 182 130 284.5t313 102.5t307 -84q18 -14 18 -30q0 -14 -12 -31l-74 -104q-14 -20 -28 -21 q-12 0 -27 8q-63 37 -133 37q-74 0 -107.5 -34t-43.5 -109l-9 -72h172q49 0 67.5 -19.5t18.5 -66.5v-63q0 -47 -18.5 -68t-67.5 -21h-196l-76 -720q-18 -182 -129 -283.5t-311 -101.5q-195 0 -306 84q-20 14 -20 30z" />
<glyph unicode="&#x1a0;" horiz-adv-x="1652" d="M63 696q0 346 183.5 536.5t531.5 190.5q293 0 471 -141q66 10 94.5 53t28.5 135q0 37 10.5 50.5t36.5 13.5h178q31 0 42.5 -13.5t11.5 -50.5q0 -158 -57.5 -255t-182.5 -138q80 -156 80 -381q0 -346 -183.5 -536.5t-529.5 -190.5q-348 0 -531.5 190.5t-183.5 536.5z M399 696q0 -240 95.5 -361.5t283.5 -121.5q187 0 282 122t95 361q0 240 -95 362t-282 122q-188 0 -283.5 -122t-95.5 -362z" />
<glyph unicode="&#x1a1;" horiz-adv-x="1454" d="M63 492q0 242 151 382t423 140q133 0 239.5 -37t180.5 -105q63 10 90 54.5t27 134.5q0 37 10 50t37 13h178q31 0 42 -13t11 -50q0 -166 -62.5 -264.5t-201.5 -134.5q25 -80 24 -170q0 -242 -150.5 -382.5t-424.5 -140.5q-272 0 -423 140.5t-151 382.5zM399 492 q0 -137 61.5 -208t176.5 -71q117 0 178.5 69.5t61.5 209.5q0 137 -61.5 206.5t-178.5 69.5q-115 0 -176.5 -69.5t-61.5 -206.5z" />
<glyph unicode="&#x1af;" horiz-adv-x="1771" d="M94 498v805q0 45 21.5 67.5t70.5 22.5h154q51 0 71.5 -21.5t20.5 -68.5v-811q0 -137 82 -208t219 -71q133 0 216 70.5t83 208.5v811q0 45 21.5 67.5t70.5 22.5h154q51 0 71.5 -21.5t20.5 -68.5v-27q68 12 95.5 57t27.5 137q0 37 10 50.5t37 13.5h178q29 0 40 -13.5 t11 -50.5q0 -197 -95 -304t-302 -124v-544q0 -162 -81 -282t-225 -183.5t-333 -63.5q-188 0 -333.5 63.5t-225.5 183.5t-80 282z" />
<glyph unicode="&#x1b0;" horiz-adv-x="1499" d="M94 344v549q0 45 21.5 67.5t70.5 22.5h154q49 0 70.5 -22.5t21.5 -67.5v-537q0 -80 40 -116.5t118 -36.5q84 0 136 45t52 123v522q0 45 21.5 67.5t70.5 22.5h154q49 0 70.5 -22.5t21.5 -67.5q59 0 81 38t22 130q0 43 23.5 54t52 10t36.5 -1h113q31 0 42 -13t11 -50 q0 -195 -88 -298.5t-291 -123.5v-580q0 -35 -12 -47t-49 -12h-164q-25 0 -36 8t-13 27l-8 76q-100 -115 -281 -131q-66 -8 -98 -9q-166 0 -264.5 94.5t-98.5 278.5z" />
<glyph unicode="&#x1cd;" horiz-adv-x="1515" d="M66 35q0 14 6 33l530 1263q14 35 31.5 48.5t50.5 13.5h150q33 0 49 -13.5t30 -48.5l531 -1263q6 -18 6 -33q0 -35 -37 -35h-248q-29 0 -42 9t-23 34l-94 242h-498l-92 -242q-10 -25 -23.5 -34t-42.5 -9h-248q-36 0 -36 35zM356 1884q0 33 50 33h133q43 0 60 -9.5 t36 -35.5l123 -182l121 182q18 27 35.5 36t60.5 9h133q49 0 49 -33q0 -20 -20 -47l-205 -272q-23 -31 -38 -40t-56 -9h-162q-41 0 -55.5 9t-38.5 40l-205 272q-20 27 -21 47zM586 520h342l-170 443z" />
<glyph unicode="&#x1ce;" horiz-adv-x="1263" d="M63 438q0 172 80 302t223.5 202t331.5 72q145 0 257 -33t204 -94v-828q0 -35 -13 -47t-52 -12h-162q-23 0 -34 8t-17 27l-23 71q-61 -72 -149 -104.5t-213 -32.5q-197 0 -315 123t-118 346zM338 1520q0 33 49 32h133q43 0 60.5 -9t35.5 -36l123 -182l121 182 q18 27 35.5 36t60.5 9h134q49 0 49 -32q0 -20 -21 -47l-205 -273q-23 -31 -38 -40t-56 -9h-162q-41 0 -55 9t-39 40l-205 273q-20 27 -20 47zM399 444q0 -123 55.5 -182t166.5 -59q90 0 156.5 51t66.5 139v359q-61 31 -148 30q-135 0 -216 -89t-81 -249z" />
<glyph unicode="&#x1cf;" horiz-adv-x="665" d="M-90 1884q0 33 49 33h133q43 0 60.5 -9.5t35.5 -35.5l123 -182l121 182q18 27 35.5 36t60.5 9h134q49 0 49 -33q0 -20 -21 -47l-205 -272q-23 -31 -38 -40t-56 -9h-162q-41 0 -55 9t-39 40l-205 272q-20 27 -20 47zM164 88v1215q0 45 21.5 67.5t70.5 22.5h154 q51 0 71.5 -21.5t20.5 -68.5v-1215q0 -45 -20.5 -66.5t-71.5 -21.5h-154q-49 0 -70.5 21.5t-21.5 66.5z" />
<glyph unicode="&#x1d0;" horiz-adv-x="583" d="M-109 1530q0 35 56 35h125q43 0 62.5 -10.5t37.5 -36.5l119 -181l121 181q18 27 37.5 37t60.5 10h125q27 0 41 -10.5t14 -26.5q0 -18 -18 -43l-205 -273q-25 -31 -39 -40t-55 -9h-162q-41 0 -56.5 9.5t-37.5 39.5l-205 273q-20 27 -21 45zM123 88v805q0 45 21.5 67.5 t70.5 22.5h154q51 0 71.5 -21.5t20.5 -68.5v-805q0 -45 -20.5 -66.5t-71.5 -21.5h-154q-49 0 -70.5 21.5t-21.5 66.5z" />
<glyph unicode="&#x1d1;" horiz-adv-x="1554" d="M63 696q0 346 183.5 536.5t531.5 190.5q346 0 529.5 -190.5t183.5 -536.5t-183.5 -536.5t-529.5 -190.5q-348 0 -531.5 190.5t-183.5 536.5zM377 1884q0 33 49 33h133q43 0 60.5 -9.5t35.5 -35.5l123 -182l121 182q18 27 35.5 36t60.5 9h133q49 0 50 -33q0 -20 -21 -47 l-205 -272q-23 -31 -38 -40t-56 -9h-162q-41 0 -55 9t-39 40l-205 272q-20 27 -20 47zM399 696q0 -240 95.5 -361.5t283.5 -121.5q187 0 282 122t95 361q0 240 -95 362t-282 122q-188 0 -283.5 -122t-95.5 -362z" />
<glyph unicode="&#x1d2;" horiz-adv-x="1275" d="M63 492q0 242 151 382t423 140q274 0 424.5 -140.5t150.5 -381.5q0 -242 -150.5 -382.5t-424.5 -140.5q-272 0 -423 140.5t-151 382.5zM233 1483q0 33 50 33h133q43 0 60.5 -9.5t35.5 -36.5l123 -182l121 182q18 27 35.5 36.5t60.5 9.5h133q49 0 49 -33q0 -20 -20 -47 l-205 -273q-23 -31 -38 -40t-56 -9h-162q-41 0 -55.5 9.5t-38.5 39.5l-205 273q-20 27 -21 47zM399 492q0 -137 61.5 -208t176.5 -71q117 0 178.5 69.5t61.5 209.5q0 137 -61.5 206.5t-178.5 69.5q-115 0 -176.5 -69.5t-61.5 -206.5z" />
<glyph unicode="&#x1d3;" horiz-adv-x="1466" d="M94 498v805q0 45 21.5 67.5t70.5 22.5h154q51 0 71.5 -21.5t20.5 -68.5v-811q0 -133 80 -206t221 -73t220 72.5t79 206.5v811q0 45 21.5 67.5t70.5 22.5h154q51 0 72.5 -22.5t21.5 -67.5v-805q0 -162 -81 -282t-225 -183.5t-333 -63.5q-188 0 -333.5 63.5t-225.5 183.5 t-80 282zM332 1884q0 33 49 33h133q43 0 60.5 -9.5t35.5 -35.5l123 -182l121 182q18 27 35.5 36t60.5 9h133q49 0 50 -33q0 -20 -21 -47l-205 -272q-23 -31 -38 -40t-56 -9h-162q-41 0 -55 9t-39 40l-205 272q-20 27 -20 47z" />
<glyph unicode="&#x1d4;" horiz-adv-x="1222" d="M94 344v549q0 45 21.5 67.5t70.5 22.5h154q51 0 71.5 -21.5t20.5 -68.5v-537q0 -80 40 -116.5t118 -36.5q84 0 136 45t52 123v522q0 45 21.5 67.5t72.5 22.5h152q51 0 72.5 -22.5t21.5 -67.5v-834q0 -35 -12 -47t-49 -12h-164q-47 0 -49 35l-8 76q-135 -141 -371 -142 q-168 0 -269.5 94.5t-101.5 280.5zM205 1483q0 33 49 33h133q43 0 60.5 -9.5t35.5 -36.5l123 -182l121 182q18 27 35.5 36.5t60.5 9.5h133q49 0 50 -33q0 -20 -21 -47l-205 -273q-23 -31 -38 -40t-56 -9h-162q-41 0 -55 9.5t-39 39.5l-205 273q-20 27 -20 47z" />
<glyph unicode="&#x1d5;" horiz-adv-x="1466" d="M94 498v805q0 45 21.5 67.5t70.5 22.5h154q51 0 71.5 -21.5t20.5 -68.5v-811q0 -133 80 -206t221 -73t220 72.5t79 206.5v811q0 45 21.5 67.5t70.5 22.5h154q51 0 72.5 -22.5t21.5 -67.5v-805q0 -162 -81 -282t-225 -183.5t-333 -63.5q-188 0 -333.5 63.5t-225.5 183.5 t-80 282zM369 2009v74q0 47 18.5 67.5t67.5 20.5h555q49 0 67.5 -20.5t18.5 -67.5v-74q0 -47 -18.5 -67.5t-67.5 -20.5h-555q-49 0 -67.5 20.5t-18.5 67.5zM395 1655v45q0 49 31 83t80 34h47q49 0 80 -34t31 -83v-45q0 -49 -31 -83t-80 -34h-47q-49 0 -80 34t-31 83z M815 1655v45q0 49 32 83t79 34h49q49 0 79.5 -34t30.5 -83v-45q0 -49 -30.5 -83t-79.5 -34h-49q-47 0 -79 34t-32 83z" />
<glyph unicode="&#x1d6;" horiz-adv-x="1222" d="M94 344v549q0 45 21.5 67.5t70.5 22.5h154q51 0 71.5 -21.5t20.5 -68.5v-537q0 -80 40 -116.5t118 -36.5q84 0 136 45t52 123v522q0 45 21.5 67.5t72.5 22.5h152q51 0 72.5 -22.5t21.5 -67.5v-834q0 -35 -12 -47t-49 -12h-164q-47 0 -49 35l-8 76q-135 -141 -371 -142 q-168 0 -269.5 94.5t-101.5 280.5zM244 1589v74q0 47 18.5 67.5t67.5 20.5h555q49 0 67.5 -20.5t18.5 -67.5v-74q0 -47 -18.5 -67.5t-67.5 -20.5h-555q-49 0 -67.5 20.5t-18.5 67.5zM270 1255v45q0 49 31 83t80 34h47q49 0 80 -33.5t31 -83.5v-45q0 -49 -31 -82.5t-80 -33.5 h-47q-49 0 -80 33.5t-31 82.5zM690 1255v45q0 49 32 83t79 34h49q49 0 80 -33.5t31 -83.5v-45q0 -49 -31 -82.5t-80 -33.5h-49q-47 0 -79 33.5t-32 82.5z" />
<glyph unicode="&#x1d7;" horiz-adv-x="1466" d="M94 498v805q0 45 21.5 67.5t70.5 22.5h154q51 0 71.5 -21.5t20.5 -68.5v-811q0 -133 80 -206t221 -73t220 72.5t79 206.5v811q0 45 21.5 67.5t70.5 22.5h154q51 0 72.5 -22.5t21.5 -67.5v-805q0 -162 -81 -282t-225 -183.5t-333 -63.5q-188 0 -333.5 63.5t-225.5 183.5 t-80 282zM387 1665v45q0 49 31 83t80 34h47q49 0 79.5 -34t30.5 -83v-45q0 -49 -30.5 -83t-79.5 -34h-47q-49 0 -80 34t-31 83zM655 1919q0 10 9 35l69 192q10 31 21.5 39t48.5 8h100q49 0 49 -28q0 -16 -12 -39l-104 -191q-14 -25 -25.5 -33t-36.5 -8h-84q-35 0 -35 25z M817 1665v45q0 49 31 83t80 34h47q49 0 79.5 -34t30.5 -83v-45q0 -49 -30.5 -83t-79.5 -34h-47q-49 0 -80 34t-31 83z" />
<glyph unicode="&#x1d8;" horiz-adv-x="1222" d="M94 344v549q0 45 21.5 67.5t70.5 22.5h154q51 0 71.5 -21.5t20.5 -68.5v-537q0 -80 40 -116.5t118 -36.5q84 0 136 45t52 123v522q0 45 21.5 67.5t72.5 22.5h152q51 0 72.5 -22.5t21.5 -67.5v-834q0 -35 -12 -47t-49 -12h-164q-47 0 -49 35l-8 76q-135 -141 -371 -142 q-168 0 -269.5 94.5t-101.5 280.5zM297 1243v45q0 49 30.5 83t80.5 34h47q49 0 79.5 -34t30.5 -83v-45q0 -49 -30.5 -83t-79.5 -34h-47q-50 0 -80.5 34t-30.5 83zM565 1518q0 10 8 34l70 193q10 31 21.5 39t48.5 8h100q49 0 49 -29q0 -16 -12 -39l-105 -190q-14 -25 -25 -33 t-36 -8h-84q-35 0 -35 25zM727 1243v45q0 49 30.5 83t80.5 34h47q49 0 79.5 -34t30.5 -83v-45q0 -49 -30.5 -83t-79.5 -34h-47q-50 0 -80.5 34t-30.5 83z" />
<glyph unicode="&#x1d9;" horiz-adv-x="1466" d="M94 498v805q0 45 21.5 67.5t70.5 22.5h154q51 0 71.5 -21.5t20.5 -68.5v-811q0 -133 80 -206t221 -73t220 72.5t79 206.5v811q0 45 21.5 67.5t70.5 22.5h154q51 0 72.5 -22.5t21.5 -67.5v-805q0 -162 -81 -282t-225 -183.5t-333 -63.5q-188 0 -333.5 63.5t-225.5 183.5 t-80 282zM348 2226q0 16 14.5 26.5t40.5 10.5h115q41 0 58.5 -9t37.5 -36l119 -150l119 150q23 27 40 36t56 9h115q27 0 41 -10t14 -27q0 -23 -20 -45l-201 -229q-25 -31 -41 -40t-55 -9h-133q-41 0 -57.5 9t-39.5 40l-200 229q-23 27 -23 45zM387 1665v45q0 49 31 83t80 34 h47q49 0 79.5 -34t30.5 -83v-45q0 -49 -30.5 -83t-79.5 -34h-47q-49 0 -80 34t-31 83zM817 1665v45q0 49 31 83t80 34h47q49 0 79.5 -34t30.5 -83v-45q0 -49 -30.5 -83t-79.5 -34h-47q-49 0 -80 34t-31 83z" />
<glyph unicode="&#x1da;" horiz-adv-x="1222" d="M94 344v549q0 45 21.5 67.5t70.5 22.5h154q51 0 71.5 -21.5t20.5 -68.5v-537q0 -80 40 -116.5t118 -36.5q84 0 136 45t52 123v522q0 45 21.5 67.5t72.5 22.5h152q51 0 72.5 -22.5t21.5 -67.5v-834q0 -35 -12 -47t-49 -12h-164q-47 0 -49 35l-8 76q-135 -141 -371 -142 q-168 0 -269.5 94.5t-101.5 280.5zM195 1780q0 16 14 26.5t41 10.5h115q41 0 58 -9.5t38 -35.5l119 -150l118 150q23 27 40.5 36t56.5 9h114q27 0 41.5 -10.5t14.5 -26.5q0 -23 -21 -45l-201 -230q-25 -31 -41 -40t-55 -9h-133q-41 0 -57.5 9.5t-38.5 39.5l-201 230 q-23 27 -22 45zM242 1239v45q0 49 30.5 83t79.5 34h47q49 0 80 -34t31 -83v-45q0 -49 -30.5 -83t-80.5 -34h-47q-49 0 -79.5 34t-30.5 83zM672 1239v45q0 49 30.5 83t79.5 34h47q49 0 80 -34t31 -83v-45q0 -49 -30.5 -83t-80.5 -34h-47q-49 0 -79.5 34t-30.5 83z" />
<glyph unicode="&#x1db;" horiz-adv-x="1466" d="M94 498v805q0 45 21.5 67.5t70.5 22.5h154q51 0 71.5 -21.5t20.5 -68.5v-811q0 -133 80 -206t221 -73t220 72.5t79 206.5v811q0 45 21.5 67.5t70.5 22.5h154q51 0 72.5 -22.5t21.5 -67.5v-805q0 -162 -81 -282t-225 -183.5t-333 -63.5q-188 0 -333.5 63.5t-225.5 183.5 t-80 282zM387 1665v45q0 49 31 83t80 34h47q49 0 79.5 -34t30.5 -83v-45q0 -49 -30.5 -83t-79.5 -34h-47q-49 0 -80 34t-31 83zM520 2165q0 29 49 28h101q37 0 48 -8t21 -39l70 -192q8 -25 8 -35q0 -25 -35 -25h-84q-24 0 -35.5 8.5t-25.5 32.5l-105 191q-12 23 -12 39z M817 1665v45q0 49 31 83t80 34h47q49 0 79.5 -34t30.5 -83v-45q0 -49 -30.5 -83t-79.5 -34h-47q-49 0 -80 34t-31 83z" />
<glyph unicode="&#x1dc;" horiz-adv-x="1222" d="M94 344v549q0 45 21.5 67.5t70.5 22.5h154q51 0 71.5 -21.5t20.5 -68.5v-537q0 -80 40 -116.5t118 -36.5q84 0 136 45t52 123v522q0 45 21.5 67.5t72.5 22.5h152q51 0 72.5 -22.5t21.5 -67.5v-834q0 -35 -12 -47t-49 -12h-164q-47 0 -49 35l-8 76q-135 -141 -371 -142 q-168 0 -269.5 94.5t-101.5 280.5zM254 1243v45q0 49 30.5 83t80.5 34h47q49 0 79.5 -34t30.5 -83v-45q0 -49 -30.5 -83t-79.5 -34h-47q-50 0 -80.5 34t-30.5 83zM387 1763q0 29 49 29h101q37 0 48 -8t21 -39l70 -193q8 -25 8 -34q0 -25 -35 -25h-84q-24 0 -35.5 8t-25.5 33 l-105 190q-12 23 -12 39zM684 1243v45q0 49 30.5 83t80.5 34h47q49 0 79.5 -34t30.5 -83v-45q0 -49 -30.5 -83t-79.5 -34h-47q-50 0 -80.5 34t-30.5 83z" />
<glyph unicode="&#x1e6;" horiz-adv-x="1439" d="M63 696q0 352 197 539.5t551 187.5q150 0 274.5 -29.5t206.5 -84.5q23 -14 23 -33q0 -8 -10 -29l-78 -131q-14 -23 -29 -22q-10 0 -33 12q-135 74 -311 74q-213 0 -334 -121t-121 -363q0 -244 113 -362.5t317 -118.5q66 0 129.5 10.5t102.5 28.5v315h-223 q-49 0 -67.5 19.5t-18.5 66.5v74q0 45 18 64.5t68 19.5h434q57 0 80.5 -26.5t23.5 -81.5v-521q0 -35 -8 -53t-33 -35q-199 -127 -524 -127q-356 0 -552 187.5t-196 539.5zM416 1884q0 33 49 33h133q43 0 60.5 -9.5t35.5 -35.5l123 -182l121 182q18 27 35.5 36t60.5 9h133 q49 0 50 -33q0 -20 -21 -47l-205 -272q-23 -31 -38 -40t-56 -9h-162q-41 0 -55 9t-39 40l-205 272q-20 27 -20 47z" />
<glyph unicode="&#x1e7;" horiz-adv-x="1269" d="M63 494q0 254 155 387t452 133q143 0 276 -40t219 -100v-667q0 -252 -127 -403.5t-403 -151.5q-125 0 -242 24.5t-180 65.5q-14 12 -14 27q0 10 6 20l74 125q6 10 13 17.5t15 7.5q4 0 25 -9q96 -49 272 -49q117 0 173.5 53.5t56.5 178.5q-98 -92 -277 -93 q-238 0 -366 123t-128 351zM268 1483q0 33 49 33h134q43 0 60 -9.5t36 -36.5l123 -182l121 182q18 27 35.5 36.5t60.5 9.5h133q49 0 49 -33q0 -20 -20 -47l-205 -273q-23 -31 -38 -40t-56 -9h-162q-41 0 -55.5 9.5t-38.5 39.5l-205 273q-20 27 -21 47zM399 512 q0 -129 56.5 -190.5t175.5 -61.5q94 0 148.5 48t54.5 136v308q-70 29 -183 28q-125 -2 -188.5 -63.5t-63.5 -204.5z" />
<glyph unicode="&#x1fa;" horiz-adv-x="1515" d="M66 35q0 14 6 33l530 1263l8 19q-45 33 -71.5 85t-26.5 111q0 102 71.5 175t174.5 73q102 0 175 -72.5t73 -175.5q0 -61 -27 -112.5t-74 -85.5l8 -17l531 -1263q6 -19 6 -33q0 -35 -37 -35h-248q-29 0 -42 9t-23 34l-94 242h-498l-92 -242q-10 -25 -23.5 -34t-42.5 -9 h-248q-37 0 -36 35zM586 520h342l-170 443zM612 1882q0 14 6 29l93 258q12 35 29.5 47t62.5 12h198q31 0 48.5 -10t17.5 -31q0 -16 -12 -39l-133 -250q-18 -35 -39 -46t-70 -11h-143q-58 0 -58 41zM664 1546q0 -39 27.5 -66.5t66.5 -27.5t66.5 27.5t27.5 66.5t-27.5 66.5 t-66.5 27.5t-66.5 -27.5t-27.5 -66.5z" />
<glyph unicode="&#x1fb;" horiz-adv-x="1263" d="M63 438q0 172 80 302t223.5 202t331.5 72q145 0 257 -33t204 -94v-828q0 -35 -13 -47t-52 -12h-162q-23 0 -34 8t-17 27l-23 71q-61 -72 -149 -104.5t-213 -32.5q-197 0 -315 123t-118 346zM399 444q0 -123 55.5 -182t166.5 -59q90 0 156.5 51t66.5 139v359 q-61 31 -148 30q-135 0 -216 -89t-81 -249zM442 1339q0 102 72 175t174 73t175 -72.5t73 -175.5q0 -102 -72.5 -173.5t-175.5 -71.5q-102 0 -174 71.5t-72 173.5zM520 1696q0 10 6 22l92 207q14 27 31 37t62 10h198q29 0 47.5 -9t18.5 -24q0 -12 -12 -30l-134 -201 q-18 -29 -38.5 -37t-69.5 -8h-143q-58 0 -58 33zM594 1339q0 -39 27.5 -66.5t66.5 -27.5t66.5 27.5t27.5 66.5t-27.5 67t-66.5 28t-66.5 -28t-27.5 -67z" />
<glyph unicode="&#x1fc;" horiz-adv-x="1830" d="M63 37q0 6 9 31l530 1263q14 35 30.5 48.5t51.5 13.5h991q49 0 67.5 -19.5t18.5 -66.5v-76q0 -47 -18.5 -67.5t-67.5 -20.5h-540v-324h358q49 0 67.5 -19.5t18.5 -66.5v-71q0 -47 -18.5 -68t-67.5 -21h-358v-325h538q49 0 68.5 -20.5t19.5 -67.5v-74q0 -45 -19.5 -65.5 t-68.5 -20.5h-762q-49 0 -70.5 21.5t-21.5 66.5v201h-311l-94 -252q-8 -23 -18.5 -30t-39.5 -7h-254q-18 0 -28.5 10t-10.5 27zM578 520h241v623h-12zM872 1522q0 14 7 28l92 258q12 35 29.5 47.5t62.5 12.5h199q31 0 48 -10.5t17 -30.5q0 -16 -12 -39l-133 -250 q-18 -35 -39 -46t-70 -11h-143q-58 0 -58 41z" />
<glyph unicode="&#x1fd;" horiz-adv-x="1927" d="M63 283q0 317 418 317h291v31q0 82 -55 126t-197 44q-137 0 -254 -56q-16 -8 -28 -8q-18 0 -31 25l-55 106q-8 14 -9 27q0 16 23 31q147 88 383 88q287 0 393 -176q55 86 155.5 131t231.5 45q264 0 399.5 -133t135.5 -379q0 -86 -76 -86h-686q0 -109 80 -170.5t223 -61.5 q86 0 148.5 17.5t119.5 50.5q20 10 29 10q14 0 27 -22l59 -111q8 -14 8 -27q0 -16 -22 -30q-84 -53 -179.5 -78t-224.5 -25q-145 0 -257 50.5t-171 148.5q-74 -98 -192.5 -148.5t-268.5 -50.5q-192 0 -305 78t-113 236zM348 299q0 -115 170 -115q125 0 189.5 50.5 t64.5 148.5v41h-258q-166 0 -166 -125zM782 1182q0 14 6 28l93 258q12 35 29.5 47.5t62.5 12.5h198q31 0 48.5 -10.5t17.5 -30.5q0 -16 -12 -39l-133 -250q-18 -35 -39 -46t-70 -11h-143q-58 0 -58 41zM1102 592h463q0 217 -232 217q-231 0 -231 -217z" />
<glyph unicode="&#x1fe;" horiz-adv-x="1554" d="M63 696q0 346 183.5 536.5t531.5 190.5q80 0 140 -8l32 82q16 41 62 41h200q35 0 35 -29q0 -18 -8 -34l-59 -144q153 -86 232 -247.5t79 -387.5q0 -346 -183.5 -536.5t-529.5 -190.5q-70 0 -145 11l-47 -115q-16 -41 -60 -41h-202q-35 0 -35 31q0 8 8 32l72 179 q-150 86 -228 246.5t-78 383.5zM399 696q0 -225 86 -348l336 830q-14 2 -43 2q-188 0 -283.5 -122t-95.5 -362zM580 1522q0 14 6 28l92 258q12 35 29.5 47.5t62.5 12.5h199q31 0 48 -10.5t17 -30.5q0 -16 -12 -39l-133 -250q-18 -35 -39 -46t-70 -11h-143q-57 0 -57 41z M727 215q16 -2 51 -2q187 0 282 122t95 361q0 229 -88 353z" />
<glyph unicode="&#x1ff;" horiz-adv-x="1275" d="M63 492q0 242 151 382t423 140q39 0 59 -2l49 121q16 41 62 41h201q35 0 34 -29q0 -18 -8 -35l-69 -168q120 -63 183.5 -180t63.5 -270q0 -242 -150.5 -382.5t-424.5 -140.5q-47 0 -70 2l-43 -106q-16 -41 -59 -41h-203q-35 0 -35 31q0 8 9 32l65 160q-117 63 -177.5 178 t-60.5 267zM399 492q0 -87 25 -146l172 420q-197 -25 -197 -274zM528 1233q0 14 7 29l92 258q12 35 29.5 47t62.5 12h199q31 0 48 -10t17 -31q0 -16 -12 -39l-133 -250q-18 -35 -39 -46t-70 -11h-143q-58 0 -58 41zM668 215q102 8 155.5 77.5t53.5 199.5q0 96 -31 159z" />
<glyph unicode="&#x218;" horiz-adv-x="1224" d="M66 137q0 12 10 29l82 131q12 20 26 20q12 0 31 -12q72 -41 173 -66.5t202 -25.5q119 0 176 38t57 120q0 57 -29.5 94t-85 63.5t-161.5 63.5q-129 47 -220 98t-150.5 133t-59.5 199q0 199 137 300t367 101q311 0 477 -114q31 -25 30 -41q0 -12 -10 -29l-82 -131 q-14 -20 -28 -21q-10 0 -29 13q-125 80 -305 80q-221 0 -221 -160q0 -59 32.5 -96t85 -60.5t177.5 -70.5q152 -57 236.5 -108.5t130.5 -128.5t46 -198q0 -178 -132 -283.5t-390 -105.5q-158 0 -306.5 33t-236.5 94q-31 23 -30 41zM381 -512q0 8 4 25l100 333 q10 39 27.5 51.5t60.5 12.5h136q63 0 63 -37q0 -20 -12 -47l-142 -332q-10 -20 -25 -30.5t-44 -10.5h-123q-45 0 -45 35z" />
<glyph unicode="&#x219;" horiz-adv-x="1083" d="M63 111q0 10 11 26l69 127q12 20 27 21q10 0 31 -11q57 -33 151 -58.5t170 -25.5q160 0 160 86q0 45 -51 70t-201 70q-172 51 -249 115.5t-77 185.5q0 145 122 221t327 76q246 0 412 -99q33 -18 32 -38q0 -12 -12 -31l-70 -111q-12 -20 -24 -20q-10 0 -29 12 q-51 29 -120.5 47.5t-139.5 18.5q-172 0 -172 -88q0 -41 47 -65t158 -54q84 -23 117 -35q106 -35 162.5 -71t81 -84t24.5 -126q0 -133 -118 -217t-347 -84q-131 0 -250 27t-209 78q-33 18 -33 37zM334 -510q0 6 4 23l100 333q12 39 29.5 51.5t58.5 12.5h136q63 0 63 -37 q0 -20 -12 -47l-142 -332q-10 -20 -25.5 -30.5t-43.5 -10.5h-123q-45 0 -45 37z" />
<glyph unicode="&#x21a;" horiz-adv-x="1230" d="M23 1229v76q0 47 18 67.5t68 20.5h1011q49 0 68.5 -20.5t19.5 -67.5v-76q0 -45 -19.5 -65.5t-68.5 -20.5h-336v-1055q0 -45 -21.5 -66.5t-72.5 -21.5h-151q-52 0 -73.5 21.5t-21.5 66.5v1055h-335q-49 0 -67.5 19.5t-18.5 66.5zM377 -479q0 8 4 24l94 318q10 39 28.5 51 t59.5 12h135q63 0 64 -37q0 -20 -12 -47l-136 -315q-8 -20 -24.5 -30.5t-44.5 -10.5h-123q-45 0 -45 35z" />
<glyph unicode="&#x21b;" horiz-adv-x="966" d="M25 829v68q0 47 16 66.5t65 19.5h101v82q0 45 19.5 89t56.5 110q16 29 30.5 38t51.5 9h94q47 0 66.5 -20.5t19.5 -65.5v-242h203q49 0 65 -19.5t16 -66.5v-68q0 -47 -16 -65.5t-65 -18.5h-203v-383q0 -80 28.5 -114.5t96.5 -34.5q41 0 68.5 10t62.5 33q16 10 24 10 q18 0 31 -22l76 -129q10 -16 10 -27q0 -14 -24 -31q-129 -88 -332 -88q-187 0 -283 102.5t-96 282.5v391h-101q-49 0 -65 18.5t-16 65.5zM334 -479q0 8 4 24l94 318q10 39 28.5 51t59.5 12h135q63 0 64 -37q0 -20 -12 -47l-136 -315q-8 -20 -24.5 -30.5t-44.5 -10.5h-123 q-45 0 -45 35z" />
<glyph unicode="&#x237;" horiz-adv-x="677" d="M-270 -207q0 16 12 35l74 125q14 25 30 24q8 0 31 -14q49 -33 94 -50t101 -17q86 0 122.5 40.5t36.5 126.5v830q0 45 21.5 67.5t71.5 22.5h153q51 0 72.5 -22.5t21.5 -67.5v-836q0 -188 -110.5 -296.5t-323.5 -108.5q-119 0 -218 28.5t-169 79.5q-20 14 -20 33z" />
<glyph unicode="&#x251;" horiz-adv-x="1263" d="M63 438q0 172 80 302t223.5 202t331.5 72q145 0 257 -33t204 -94v-828q0 -35 -13 -47t-52 -12h-162q-23 0 -34 8t-17 27l-23 71q-61 -72 -149 -104.5t-213 -32.5q-197 0 -315 123t-118 346zM399 444q0 -123 55.5 -182t166.5 -59q90 0 156.5 51t66.5 139v359 q-61 31 -148 30q-135 0 -216 -89t-81 -249z" />
<glyph unicode="&#x259;" horiz-adv-x="1220" d="M63 481q0 86 76 86h699q0 111 -84 171.5t-230 60.5q-86 0 -148.5 -17.5t-121.5 -50.5q-20 -10 -29 -10q-14 0 -26 22l-60 109q-8 14 -8 27q0 18 23 32q84 53 185 78t232 25q166 0 298 -56.5t210 -171t78 -282.5q0 -260 -145.5 -397.5t-413.5 -137.5q-264 0 -399.5 133.5 t-135.5 378.5zM367 389q0 -102 57 -159.5t174 -57.5t178.5 58.5t61.5 158.5h-471z" />
<glyph unicode="&#x2bb;" horiz-adv-x="524" d="M63 969q0 20 13 47l147 348q8 20 24.5 30.5t45.5 10.5h123q45 0 45 -35q0 -8 -4 -24l-107 -351q-12 -39 -29.5 -51t-58.5 -12h-135q-64 0 -64 37z" />
<glyph unicode="&#x2bc;" horiz-adv-x="524" d="M63 967q0 8 5 24l106 350q12 39 29.5 51.5t58.5 12.5h135q63 0 64 -37q0 -18 -12 -47l-148 -348q-8 -20 -24.5 -30.5t-45.5 -10.5h-122q-46 0 -46 35z" />
<glyph unicode="&#x2be;" d="M-156 1145v137q0 20 9.5 27.5t29.5 7.5q47 0 69.5 15.5t22.5 56.5q0 43 -22.5 58t-69.5 15q-20 0 -29.5 7.5t-9.5 27.5v137q0 14 10.5 23.5t26.5 9.5q152 0 233 -61.5t81 -216.5q0 -154 -83 -215.5t-231 -61.5q-16 0 -26.5 9t-10.5 24z" />
<glyph unicode="&#x2bf;" d="M-164 1389q0 156 80 217t234 61q16 0 26 -9t10 -24v-137q0 -20 -9 -27.5t-30 -7.5q-47 0 -70.5 -15t-23.5 -58q0 -41 23.5 -56.5t70.5 -15.5q20 0 29.5 -7t9.5 -28v-137q0 -14 -10 -23.5t-26 -9.5q-148 0 -231 61.5t-83 215.5z" />
<glyph unicode="&#x2c6;" horiz-adv-x="927" d="M66 1176q0 20 18 45l205 272q23 31 38 40t56 9h162q41 0 54 -9t40 -40l205 -272q18 -27 18 -45q0 -16 -14 -26.5t-41 -10.5h-125q-43 0 -61.5 10t-36.5 39l-121 180l-119 -180q-18 -29 -37.5 -39t-62.5 -10h-125q-27 0 -40 10t-13 27z" />
<glyph unicode="&#x2c7;" horiz-adv-x="927" d="M63 1530q0 35 56 35h125q43 0 62.5 -10.5t37.5 -36.5l119 -181l121 181q18 27 37.5 37t60.5 10h125q27 0 41 -10.5t14 -26.5q0 -18 -18 -43l-205 -273q-25 -31 -39 -40t-55 -9h-162q-41 0 -56.5 9.5t-37.5 39.5l-205 273q-20 27 -21 45z" />
<glyph unicode="&#x2c8;" d="M-133 1225v205q0 49 22.5 69.5t69.5 20.5h80q47 0 70.5 -20.5t23.5 -69.5v-205q0 -49 -23.5 -69.5t-70.5 -20.5h-80q-47 0 -69.5 20.5t-22.5 69.5z" />
<glyph unicode="&#x2c9;" horiz-adv-x="481" d="M-123 1278v74q0 47 18.5 67.5t67.5 20.5h557q49 0 67.5 -20.5t18.5 -67.5v-74q0 -47 -18.5 -67.5t-67.5 -20.5h-557q-49 0 -67.5 20.5t-18.5 67.5z" />
<glyph unicode="&#x2ca;" d="M-195 1194q0 14 7 29l94 258q12 35 28.5 47t61.5 12h199q31 0 48 -10t17 -31q0 -16 -12 -39l-133 -250q-18 -35 -38 -46t-69 -11h-145q-58 0 -58 41z" />
<glyph unicode="&#x2cb;" d="M-252 1497q0 20 18.5 31.5t49.5 11.5h196q47 0 63.5 -11t28.5 -48l95 -258q6 -14 6 -27q0 -43 -60 -43h-143q-49 0 -68.5 11.5t-37.5 45.5l-136 250q-12 23 -12 37z" />
<glyph unicode="&#x2cc;" d="M-133 -164q0 49 22.5 69.5t69.5 20.5h80q47 0 70.5 -20.5t23.5 -69.5v-207q0 -49 -22.5 -68.5t-71.5 -19.5h-80q-47 0 -69.5 19.5t-22.5 68.5v207z" />
<glyph unicode="&#x2d8;" horiz-adv-x="851" d="M63 1503q0 16 9.5 26.5t23.5 10.5h178q20 0 27.5 -9t7.5 -30q0 -127 117 -127t117 127q0 20 7 29.5t28 9.5h178q14 0 23 -10t9 -27q0 -154 -93 -249t-269 -95q-178 0 -270.5 95.5t-92.5 248.5z" />
<glyph unicode="&#x2d9;" horiz-adv-x="395" d="M63 1298v45q0 49 31 83t80 34h47q49 0 80 -33.5t31 -83.5v-45q0 -49 -31 -82.5t-80 -33.5h-47q-49 0 -80 33.5t-31 82.5z" />
<glyph unicode="&#x2da;" horiz-adv-x="618" d="M61 1360q0 104 73 176t175 72t175 -72t73 -176t-71.5 -175t-176.5 -71q-104 0 -176 70.5t-72 175.5zM213 1360q0 -41 27.5 -67.5t68.5 -26.5t67.5 27.5t26.5 66.5t-27.5 66.5t-66.5 27.5q-41 0 -68.5 -27.5t-27.5 -66.5z" />
<glyph unicode="&#x2db;" horiz-adv-x="524" d="M63 -309q0 57 30 116.5t95 135.5q14 16 23.5 21t28.5 5h159q18 0 24.5 -10t-3.5 -22q-76 -88 -100.5 -130.5t-24.5 -85.5q0 -27 13.5 -41t35.5 -14q31 0 47 8q8 4 12 4q8 0 15 -14l39 -80q2 -4 2 -12q0 -12 -21 -21q-63 -31 -172 -30q-100 0 -151.5 46t-51.5 124z" />
<glyph unicode="&#x2dc;" horiz-adv-x="1034" d="M61 1290q0 25 25 58q55 76 108.5 112.5t131.5 36.5q59 0 107 -15.5t106 -43.5q43 -23 74.5 -34t64.5 -11q37 0 62.5 15t58.5 56q18 25 45 25q31 0 86 -43q55 -41 55 -76q0 -23 -22 -57q-59 -84 -115.5 -121t-145.5 -37q-47 0 -90 15.5t-98 41.5q-53 25 -85 36.5t-67 11.5 q-39 0 -62.5 -13.5t-55.5 -52.5q-18 -23 -43 -23q-31 0 -90 48q-49 41 -50 71z" />
<glyph unicode="&#x2dd;" horiz-adv-x="1050" d="M63 1194q0 8 9 29l129 258q16 35 31.5 47t58.5 12h174q31 0 49 -11t18 -32q0 -16 -14 -37l-168 -250q-27 -37 -43 -47t-63 -10h-121q-29 0 -44.5 11.5t-15.5 29.5zM516 1194q0 14 8 29l127 258q18 35 33.5 47t58.5 12h175q31 0 49 -11t18 -32q0 -16 -14 -37l-168 -250 q-25 -37 -43.5 -47t-65.5 -10h-119q-28 0 -43.5 11.5t-15.5 29.5z" />
<glyph unicode="&#x300;" d="M-514 1485q0 20 18.5 31.5t49.5 11.5h196q47 0 63.5 -11.5t28.5 -48.5l95 -258q6 -14 6 -26q0 -43 -60 -43h-143q-49 0 -68.5 11t-38.5 46l-135 250q-12 23 -12 37z" />
<glyph unicode="&#x301;" d="M-444 1182q0 14 6 28l92 258q12 35 29.5 47.5t62.5 12.5h199q31 0 48 -10.5t17 -30.5q0 -16 -12 -39l-133 -250q-18 -35 -39 -46t-70 -11h-143q-57 0 -57 41z" />
<glyph unicode="&#x302;" d="M-399 1176q0 20 18 45l205 272q27 31 40 40t54 9h162q41 0 56.5 -9t37.5 -40l205 -272q18 -27 18 -45q0 -16 -13 -26.5t-40 -10.5h-125q-43 0 -61.5 10t-36.5 39l-121 180l-121 -180q-18 -29 -36.5 -39t-61.5 -10h-125q-27 0 -41 10t-14 27z" />
<glyph unicode="&#x303;" d="M-696 1290q0 25 24 58q57 76 110.5 112.5t131.5 36.5q59 0 106.5 -15.5t106.5 -45.5q45 -23 75.5 -33t61.5 -10q39 0 63.5 15t57.5 56q18 25 45 25q33 0 88 -43t55 -76q0 -23 -24 -57q-57 -84 -113.5 -121t-144.5 -37q-47 0 -90 14.5t-101 42.5q-49 23 -82.5 35.5 t-68.5 12.5q-39 0 -62.5 -14.5t-56.5 -51.5q-18 -23 -41 -23q-31 0 -90 48q-51 39 -51 71z" />
<glyph unicode="&#x304;" d="M-362 1266v73q0 47 18 67.5t68 20.5h555q49 0 67.5 -20.5t18.5 -67.5v-73q0 -47 -18.5 -67.5t-67.5 -20.5h-555q-50 0 -68 20.5t-18 67.5z" />
<glyph unicode="&#x306;" d="M-362 1491q0 16 9 26.5t23 10.5h178q20 0 27.5 -9.5t7.5 -29.5q0 -127 117 -127t117 127q0 20 7 29.5t28 9.5h178q14 0 23 -10.5t9 -26.5q0 -154 -93 -249t-269 -95q-178 0 -270 95t-92 249z" />
<glyph unicode="&#x307;" d="M-135 1286v45q0 49 30.5 83t79.5 34h50q47 0 78.5 -34t31.5 -83v-45q0 -49 -30.5 -83t-79.5 -34h-50q-49 0 -79.5 34t-30.5 83z" />
<glyph unicode="&#x308;" d="M-342 1225v45q0 49 30.5 82.5t80.5 33.5h47q49 0 79.5 -33.5t30.5 -82.5v-45q0 -49 -30.5 -83t-79.5 -34h-47q-50 0 -80.5 34t-30.5 83zM78 1225v45q0 49 31.5 82.5t78.5 33.5h50q49 0 79.5 -33.5t30.5 -82.5v-45q0 -49 -30.5 -83t-79.5 -34h-50q-47 0 -78.5 34t-31.5 83 z" />
<glyph unicode="&#x309;" d="M-489 1550q0 6 10 15q41 29 109.5 45t133.5 16q139 0 210 -54t71 -157q0 -92 -56.5 -146.5t-138.5 -54.5v-38q0 -47 -47 -48h-120q-48 1 -48 48v98q0 33 16.5 48t57.5 15q59 0 85 15.5t26 50.5q0 57 -90 57q-39 0 -72 -10t-74 -29q-14 -6 -22 6l-49 111q-2 4 -2 12z" />
<glyph unicode="&#x30a;" d="M-246 1360q0 102 72 175t174 73t175 -73t73 -175t-73 -174t-175 -72t-174 71.5t-72 174.5zM-94 1360q0 -39 26.5 -66.5t67.5 -27.5q39 0 66.5 27.5t27.5 66.5t-27.5 66.5t-66.5 27.5t-66.5 -27.5t-27.5 -66.5z" />
<glyph unicode="&#x30b;" d="M-473 1194q0 8 8 29l127 258q18 35 33.5 47t58.5 12h174q31 0 49.5 -11t18.5 -32q0 -16 -14 -37l-168 -250q-27 -37 -44.5 -47t-64.5 -10h-119q-28 0 -43.5 11.5t-15.5 29.5zM-20 1196q0 12 6 27l129 258q18 37 32.5 48t59.5 11h172q31 0 50.5 -11t19.5 -32 q0 -16 -15 -37l-170 -250q-25 -35 -42 -46t-64 -11h-119q-29 0 -44 11.5t-15 31.5z" />
<glyph unicode="&#x30c;" d="M-401 1520q0 33 49 32h133q43 0 60.5 -9t35.5 -36l123 -182l121 182q18 27 35.5 36t60.5 9h133q49 0 49 -32q0 -20 -20 -47l-205 -273q-23 -31 -38 -40t-56 -9h-162q-41 0 -55.5 9t-38.5 40l-205 273q-20 27 -20 47z" />
<glyph unicode="&#x31b;" d="M-256 1042v228q90 0 138 17.5t68.5 60.5t20.5 122q0 37 10.5 50.5t36.5 13.5h179q29 0 40 -13.5t11 -50.5q0 -219 -114 -323.5t-390 -104.5z" />
<glyph unicode="&#x323;" d="M-381 -238q0 49 32 83t79 34h49q49 0 79.5 -33.5t30.5 -83.5v-45q0 -49 -30.5 -82.5t-79.5 -33.5h-49q-47 0 -79 33.5t-32 82.5v45z" />
<glyph unicode="&#x324;" d="M-348 -238q0 49 31.5 83t78.5 34h50q47 0 78.5 -33.5t31.5 -83.5v-45q0 -49 -30.5 -82.5t-79.5 -33.5h-50q-47 0 -78.5 33.5t-31.5 82.5v45zM80 -238q0 49 30.5 83t79.5 34h48q49 0 79.5 -33.5t30.5 -83.5v-45q0 -49 -30.5 -82.5t-79.5 -33.5h-48q-49 0 -79.5 33.5 t-30.5 82.5v45z" />
<glyph unicode="&#x326;" d="M-117 -526l4 24l105 350q12 39 29.5 51.5t58.5 12.5h135q63 0 64 -37q0 -20 -13 -47l-147 -348q-8 -20 -23.5 -30.5t-44.5 -10.5h-123q-45 0 -45 35z" />
<glyph unicode="&#x327;" d="M-208.5 -440.5q-4.5 6.5 1.5 20.5l35 90q6 14 16 15q8 0 21 -7q45 -20 92 -20q39 0 56.5 12.5t17.5 38.5q0 35 -27 47.5t-88 12.5h-33q-16 0 -21 9t1 23l55 140q6 16 15.5 22t29.5 6h170q25 0 25 -16q0 -10 -4 -16l-48 -103q141 -18 142 -151q0 -78 -63.5 -126.5 t-184.5 -48.5q-51 0 -104.5 10.5t-81.5 24.5q-18 10 -22.5 16.5z" />
<glyph unicode="&#x328;" d="M-250 -309q0 57 30 116.5t95 135.5q14 16 23.5 21t27.5 5h160q18 0 24.5 -10t-4.5 -22q-74 -86 -98 -129.5t-24 -86.5q0 -55 49 -55q29 0 45 8q8 4 12 4q10 0 16 -14l37 -80q4 -8 4 -12q0 -12 -24 -23q-57 -29 -180 -28q-95 0 -144 48t-49 122z" />
<glyph unicode="&#x32e;" d="M-362 -113q0 16 9 26.5t23 10.5h178q20 0 27.5 -9t7.5 -30q0 -127 117 -127t117 127q0 20 7 29.5t28 9.5h178q14 0 23 -10t9 -27q0 -154 -93 -249t-269 -95q-178 0 -270 95.5t-92 248.5z" />
<glyph unicode="&#x331;" d="M-344 -219q0 47 18.5 67.5t67.5 20.5h516q49 0 67.5 -20.5t18.5 -67.5v-51q0 -47 -18.5 -66.5t-67.5 -19.5h-516q-49 0 -67.5 19.5t-18.5 66.5v51z" />
<glyph unicode="&#x394;" horiz-adv-x="1564" d="M63 53q0 14 11 39l573 1338q12 27 23.5 36t36.5 9h153q25 0 37 -10.5t23 -34.5l571 -1338q10 -25 10 -39q0 -53 -69 -53h-1299q-70 0 -70 53zM477 250h608l-303 723z" />
<glyph unicode="&#x3a9;" horiz-adv-x="1540" d="M63 86v78q0 47 18.5 67.5t65.5 20.5h195q-119 72 -192.5 203t-73.5 293q0 195 73.5 346t229.5 240t391 89q236 0 391.5 -89t229 -241.5t73.5 -344.5q0 -164 -73.5 -294t-194.5 -202h197q47 0 65.5 -20.5t18.5 -67.5v-78q0 -45 -18.5 -65.5t-65.5 -20.5h-428 q-63 0 -86 20.5t-23 73.5v72q0 37 12.5 64.5t53.5 62.5q106 92 156 191.5t50 263.5q0 207 -94 319.5t-266 112.5q-170 0 -263 -113t-93 -319q0 -164 50 -261.5t156 -193.5q39 -35 52.5 -63.5t13.5 -63.5v-72q0 -53 -23.5 -73.5t-87.5 -20.5h-428q-47 0 -64.5 20.5 t-17.5 65.5z" />
<glyph unicode="&#x3bc;" horiz-adv-x="1150" d="M63 -272v1165q0 51 24 70.5t83 19.5h139q49 0 70.5 -21.5t21.5 -68.5v-537q0 -74 41 -113.5t117 -39.5q94 0 141.5 44t47.5 124v522q0 55 28.5 72.5t106.5 17.5h110q51 0 72.5 -21.5t21.5 -68.5v-834q0 -35 -12 -47t-49 -12h-164q-25 0 -36 8t-13 27l-8 76 q-33 -72 -89.5 -107t-150.5 -35q-45 0 -91 9.5t-73 23.5v-274q0 -55 -27.5 -72.5t-105.5 -17.5h-112q-50 0 -71.5 22.5t-21.5 67.5z" />
<glyph unicode="&#x3c0;" horiz-adv-x="1472" d="M43 819v68q0 53 16.5 74.5t69.5 21.5h1024q51 0 68.5 -21.5t17.5 -74.5v-68q0 -47 -18.5 -66.5t-67.5 -19.5h-59v-371q0 -80 28.5 -114.5t96.5 -34.5q41 0 68.5 10t62.5 33q16 10 24 10q18 0 31 -22l76 -129q10 -16 10 -27q0 -14 -25 -31q-129 -88 -331 -88 q-187 0 -283 102.5t-96 282.5v379h-240v-645q0 -53 -27.5 -70.5t-103.5 -17.5h-102q-51 0 -73 21.5t-22 66.5v645h-59q-49 0 -67.5 19.5t-18.5 66.5z" />
<glyph unicode="&#xe01;" horiz-adv-x="1292" d="M63 854q0 33 31 57q98 82 240.5 138.5t310.5 56.5q287 0 414 -124t127 -333v-561q0 -45 -21.5 -66.5t-72.5 -21.5h-152q-51 0 -72.5 21.5t-21.5 66.5v569q0 102 -48 152.5t-155 50.5q-135 0 -227 -72l24 -49q14 -29 20.5 -55.5t6.5 -65.5v-530q0 -45 -21.5 -66.5 t-72.5 -21.5h-152q-51 0 -71.5 21.5t-20.5 66.5v584l-47 114q-18 47 -19 68z" />
<glyph unicode="&#xe02;" horiz-adv-x="1198" d="M63 889v121q0 35 14.5 50t49.5 15h276q72 0 99.5 -29.5t27.5 -97.5v-155q0 -57 -34 -86q-49 -39 -69.5 -86.5t-20.5 -122.5v-136q0 -135 176 -135q92 0 132 35t40 100v623q0 47 20.5 68.5t71.5 21.5h153q51 0 72 -21.5t21 -68.5v-592q0 -197 -131.5 -310.5t-378.5 -113.5 q-240 0 -376 103.5t-136 283.5v97q0 209 161 311v33q0 16 -9 21t-32 5h-63q-35 0 -49.5 15.5t-14.5 50.5z" />
<glyph unicode="&#xe03;" horiz-adv-x="1214" d="M66 807v221q0 47 47 47h120q47 0 48 -47v-10q66 57 157 57q72 0 110 -41t38 -112v-166q0 -33 -8.5 -52.5t-32.5 -35.5q-61 -43 -92 -90.5t-31 -124.5v-95q0 -145 172 -145q176 0 176 149v623q0 45 21.5 67.5t70.5 22.5h154q51 0 71.5 -21.5t20.5 -68.5v-604 q0 -121 -60.5 -214t-177 -145.5t-276.5 -52.5q-158 0 -272.5 45t-175 126t-60.5 188v73q0 121 69.5 213.5t182.5 143.5v55q0 41 -33 41t-51 -33v-14q0 -47 -45 -47h-96q-47 0 -47 47z" />
<glyph unicode="&#xe04;" horiz-adv-x="1282" d="M104 88v588q0 203 138.5 316.5t396.5 113.5t397.5 -113.5t139.5 -316.5v-588q0 -45 -21.5 -66.5t-73.5 -21.5h-153q-49 0 -70.5 21.5t-21.5 66.5v586q0 188 -197 188t-197 -188v-174q59 78 158 78h72q23 0 32 -9.5t9 -31.5v-158q0 -27 -10.5 -38t-32.5 -11h-80 q-66 0 -107 -51.5t-41 -124.5v-66q0 -45 -20.5 -66.5t-71.5 -21.5h-153q-50 0 -71.5 21.5t-21.5 66.5z" />
<glyph unicode="&#xe05;" horiz-adv-x="1282" d="M104 88v723q0 139 75 217t229 78q74 0 135 -26.5t98 -71.5q37 45 97.5 71.5t133.5 26.5q303 0 304 -295v-723q0 -45 -21.5 -66.5t-73.5 -21.5h-153q-49 0 -70.5 21.5t-21.5 66.5v672q0 55 -16.5 78.5t-63.5 23.5q-29 0 -46.5 -12t-31.5 -35q-10 -12 -17.5 -17t-21.5 -5 q-25 0 -39 22q-4 4 -15.5 18.5t-26.5 21.5t-36 7q-45 0 -62.5 -24.5t-17.5 -77.5v-260q59 78 158 78h72q23 0 32 -9.5t9 -31.5v-158q0 -27 -10.5 -38t-32.5 -11h-80q-66 0 -107 -51.5t-41 -124.5v-66q0 -45 -20.5 -66.5t-71.5 -21.5h-153q-50 0 -71.5 21.5t-21.5 66.5z" />
<glyph unicode="&#xe06;" horiz-adv-x="1243" d="M63 823v205q0 47 48 47h120q47 0 48 -47v-10q61 57 155 57q70 0 107 -38t39 -105v-152q0 -41 -9.5 -67.5t-31.5 -44.5q-61 -49 -88 -93.5t-27 -123.5v-78q0 -68 61.5 -118t149.5 -50q84 0 124 39t40 121v620q0 45 21.5 67.5t72.5 22.5h151q51 0 72 -21.5t21 -68.5v-631 q0 -188 -107.5 -286.5t-290.5 -98.5q-239 1 -370 146l-4 -68q-2 -47 -60 -47h-145q-41 0 -58.5 19.5t-17.5 60.5v315q0 123 66.5 217.5t185.5 145.5v55q0 41 -35 41q-14 0 -28.5 -9t-20.5 -24v-14q0 -47 -45 -47h-96q-47 0 -48 63z" />
<glyph unicode="&#xe07;" horiz-adv-x="1253" d="M68 684q0 31 36 43l189 64q29 8 35 8q16 0 26.5 -12.5t20.5 -38.5l131 -410q23 -72 55.5 -99.5t108.5 -27.5q100 0 143 82t43 258q0 164 -40 236.5t-132 72.5q-33 0 -63.5 -13t-38.5 -16q-16 -4 -21 -4q-20 0 -33 29l-51 145q-4 16 -4 21q0 14 23 29q109 55 256 55 q213 0 326.5 -149.5t113.5 -407.5q0 -283 -140.5 -431.5t-404.5 -148.5q-192 0 -296.5 72t-155.5 231l-119 375q-8 29 -8 37z" />
<glyph unicode="&#xe08;" horiz-adv-x="1198" d="M66 971q0 20 22 35q82 49 207 74.5t266 25.5q309 0 442.5 -149.5t133.5 -428.5q0 -283 -135.5 -421t-376.5 -138q-211 0 -314.5 91.5t-103.5 228.5v65h-66q-37 0 -51 14.5t-14 51.5v115q0 35 14 50t51 15h252q51 0 71.5 -21.5t20.5 -66.5v-170q0 -68 33 -98.5t107 -30.5 q90 0 132 74.5t42 240.5q0 178 -74 256t-233 78q-152 0 -279 -63q-29 -12 -35 -13q-18 0 -33 27l-69 123q-10 20 -10 35z" />
<glyph unicode="&#xe09;" horiz-adv-x="1234" d="M63 971q0 20 25 35q82 47 207 73.5t266 26.5q301 0 434 -134t133 -384v-508q0 -80 -77 -80h-138q-29 0 -42 11.5t-17 35.5l-8 66q-59 -74 -142 -109t-217 -35q-182 0 -287.5 97.5t-105.5 287.5v176q0 45 21.5 68t70.5 23h154q51 0 72.5 -23t21.5 -68v-165q0 -82 40 -122 t128 -40t138.5 50t50.5 126v190q0 156 -73 224.5t-224 68.5q-141 0 -281 -67q-20 -12 -35 -13q-18 0 -33 27l-69 127q-12 18 -13 35z" />
<glyph unicode="&#xe0a;" horiz-adv-x="1212" d="M78 889v121q0 35 14 50t49 15h277q72 0 99.5 -29.5t27.5 -97.5v-155q0 -57 -35 -86q-49 -39 -69.5 -86.5t-20.5 -122.5v-136q0 -135 176 -135q92 0 132 35t40 100v154q0 63 -19.5 95t-64.5 63q-16 10 -22.5 22.5t-6.5 30.5v66q0 18 8.5 31.5t26.5 29.5q51 47 68.5 81 t17.5 112q0 33 13.5 46t46.5 13h235q23 0 30 -8t7 -31q0 -119 -37 -190.5t-127 -116.5q90 -39 126 -106.5t36 -170.5v-90q0 -197 -131 -310.5t-379 -113.5q-240 0 -376 103.5t-136 283.5v97q0 209 162 311v33q0 16 -9.5 21t-31.5 5h-64q-35 0 -49 15.5t-14 50.5z" />
<glyph unicode="&#xe0b;" horiz-adv-x="1212" d="M63 807v221q0 47 48 47h120q47 0 48 -47v-10q66 57 157 57q72 0 110 -41t38 -112v-166q0 -33 -8.5 -52.5t-32.5 -35.5q-61 -43 -92 -90.5t-31 -124.5v-95q0 -145 172 -145q176 0 176 149v154q0 63 -19.5 95t-64.5 63q-16 10 -22.5 22.5t-6.5 30.5v66q0 18 8.5 31.5 t26.5 29.5q51 47 68.5 81t17.5 112q0 33 13.5 46t46.5 13h235q23 0 30 -8t7 -31q0 -119 -37 -190.5t-127 -116.5q90 -39 126 -106.5t36 -170.5v-102q0 -121 -60.5 -214t-177 -145.5t-276.5 -52.5q-158 0 -272.5 45t-175 126t-60.5 188v73q0 121 69.5 213.5t182.5 143.5v55 q0 41 -33 41t-51 -33v-14q0 -47 -45 -47h-96q-47 0 -48 47z" />
<glyph unicode="&#xe0c;" horiz-adv-x="1953" d="M63 854q0 33 31 57q100 84 238.5 139.5t304.5 55.5q285 0 402.5 -122t117.5 -335v-276q0 -70 56.5 -119t142.5 -49q84 0 117.5 38t33.5 122v620q0 45 21.5 67.5t73.5 22.5h153q49 0 70.5 -22.5t21.5 -67.5v-631q0 -190 -102.5 -287.5t-282.5 -97.5q-125 0 -211 37 t-149 109l-4 -68q-2 -47 -60 -47h-141q-78 0 -78 80l-2 577q0 106 -39 154.5t-143 48.5q-127 0 -219 -72l24 -49q14 -29 20.5 -55.5t6.5 -65.5v-313q0 -31 9 -42t34 -11h35q37 0 51 -15.5t14 -50.5v-120q0 -43 -20.5 -54.5t-85.5 -11.5h-248q-74 0 -100.5 29.5t-26.5 97.5 v545l-47 114q-18 47 -19 68z" />
<glyph unicode="&#xe0d;" horiz-adv-x="1966" d="M63 854q0 33 31 57q100 84 238.5 139.5t304.5 55.5q285 0 402.5 -122t117.5 -335v-106q0 -94 41 -137.5t141 -43.5t140.5 43.5t40.5 137.5v442q0 45 21.5 67.5t70.5 22.5h153q51 0 73 -22.5t22 -67.5v-637q0 -221 -57.5 -358t-181.5 -201.5t-325 -64.5 q-122 0 -221.5 23.5t-187.5 76.5q-23 14 -23 35q0 14 10 35l70 122q14 27 33 27q6 0 35 -12q127 -63 278 -64q119 0 177.5 49.5t68.5 145.5q-72 -43 -211 -43q-266 0 -387 108.5t-121 317.5v112q0 106 -39 154.5t-143 48.5q-127 0 -219 -72l24 -49q14 -29 20.5 -55.5 t6.5 -65.5v-313q0 -31 9 -42t34 -11h35q37 0 51 -15.5t14 -50.5v-120q0 -43 -20.5 -54.5t-85.5 -11.5h-248q-74 0 -100.5 29.5t-26.5 97.5v545l-47 114q-18 47 -19 68z" />
<glyph unicode="&#xe0e;" horiz-adv-x="1318" d="M49 66v120q0 35 13.5 50.5t50.5 15.5h43q18 0 24 6t6 27v381l-77 120q-18 31 -19 68q0 29 33 59q92 82 233.5 137.5t311.5 55.5q285 0 414.5 -122t129.5 -327v-966q0 -39 -18 -56.5t-57 -17.5h-148q-26 0 -47.5 7t-60.5 28q-61 31 -106.5 40t-119.5 9q-131 0 -241 -80 q-10 -8 -21 -8q-14 0 -33 25l-106 135q-10 12 -10 22q0 14 22 31q74 55 169 88t204 33q76 0 129 -10.5t106 -34.5v755q0 102 -48 152.5t-154 50.5q-129 0 -221 -69l38 -58q23 -35 30 -63.5t7 -81.5v-502q0 -49 -13 -67.5t-58 -18.5h-342q-37 0 -50.5 14.5t-13.5 51.5z" />
<glyph unicode="&#xe0f;" horiz-adv-x="1318" d="M49 66v120q0 35 13.5 50.5t50.5 15.5h43q18 0 24 6t6 27v381l-77 120q-18 31 -19 68q0 29 33 59q92 82 233.5 137.5t311.5 55.5q285 0 414.5 -122t129.5 -327v-761q0 -127 -73.5 -212t-210.5 -85q-109 0 -180.5 26.5t-118.5 87.5q-29 -57 -79 -79.5t-120 -22.5h-139 q-20 0 -30.5 9t-10.5 32v172q0 39 39 39h141q47 0 69.5 10t37.5 35q12 25 19 30t26 5h69q18 0 25.5 -5.5t19.5 -29.5q16 -31 37 -45.5t58 -14.5q43 0 63 19.5t20 69.5v720q0 102 -48 152.5t-154 50.5q-129 0 -221 -69l38 -58q23 -35 30 -63.5t7 -81.5v-502q0 -49 -13 -67.5 t-58 -18.5h-342q-37 0 -50.5 14.5t-13.5 51.5z" />
<glyph unicode="&#xe10;" horiz-adv-x="1232" d="M66 969q0 25 26 39q80 47 204 72.5t265 25.5t242 -33q57 37 116.5 64.5t96.5 38.5q31 8 55 8q37 0 49 -33l47 -131q4 -10 4 -25q0 -25 -32 -39l-111 -47q109 -125 109 -381q0 -301 -158 -442q158 -90 158 -246q0 -102 -70 -169.5t-182 -67.5q-193 -1 -275 114 q-55 -96 -215 -96h-159q-20 0 -30.5 9.5t-10.5 31.5v135q0 39 38 39h175q47 0 69.5 8.5t36.5 34.5q12 20 20.5 26.5t26.5 6.5h74q18 0 26.5 -6t20.5 -27q18 -31 42 -45t62 -14q45 0 64.5 15t19.5 54q0 35 -16 59.5t-53 47.5q-78 -27 -176 -27q-211 0 -314.5 87t-103.5 225 v73h-66q-37 0 -51 14.5t-14 51.5v115q0 35 14 50t51 15h252q51 0 71.5 -21.5t20.5 -66.5v-170q0 -68 33 -98.5t107 -30.5q90 0 132 74.5t42 240.5q0 178 -72 256t-235 78q-150 0 -281 -61q-23 -12 -35 -13q-18 0 -33 27l-67 121q-10 20 -10 33z" />
<glyph unicode="&#xe11;" horiz-adv-x="1236" d="M63 807v221q0 47 48 47h120q47 0 48 -47v-10q61 57 149 57q86 0 121 -59q106 90 258 90q156 0 239.5 -87t83.5 -255v-676q0 -45 -21.5 -66.5t-70.5 -21.5h-149q-51 0 -72.5 21.5t-21.5 66.5v655q0 106 -105 107q-70 0 -117 -43v-76q0 -45 -5 -65.5t-25 -40.5 q-43 -43 -60.5 -84t-17.5 -111v-342q0 -45 -21.5 -66.5t-70.5 -21.5h-154q-51 0 -72.5 21.5t-21.5 66.5v313q0 125 54 219.5t157 145.5v47q0 41 -35 41q-14 0 -28.5 -9t-20.5 -24v-14q0 -47 -45 -47h-96q-47 0 -48 47z" />
<glyph unicode="&#xe12;" horiz-adv-x="2000" d="M63 502q0 289 108 446.5t292 157.5q66 0 118 -26.5t83 -71.5q37 45 97 71.5t134 26.5q156 0 230.5 -84t74.5 -225v-424q0 -72 53.5 -120t141.5 -48q86 0 122.5 40t36.5 120v620q0 45 21.5 67.5t73.5 22.5h151q51 0 72.5 -22.5t21.5 -67.5v-631q0 -188 -107.5 -286.5 t-287.5 -98.5q-123 0 -207 37t-143 109l-4 -62q-4 -29 -18.5 -41t-45.5 -12h-141q-41 0 -55.5 16.5t-14.5 57.5v686q0 49 -19.5 74.5t-68.5 25.5q-45 0 -80 -49q-18 -23 -40 -23q-29 0 -46 23q-4 6 -15 21.5t-24.5 22.5t-31.5 7q-68 0 -107 -89t-39 -271q0 -147 45 -231.5 t131 -84.5q53 0 101 19q12 4 14 4q20 0 27 -29l28 -127q2 -6 3 -16q0 -16 -31 -31q-90 -37 -221 -37q-209 0 -321 146.5t-112 386.5z" />
<glyph unicode="&#xe13;" horiz-adv-x="1953" d="M63 854q0 33 31 57q100 84 238.5 139.5t304.5 55.5q285 0 402.5 -122t117.5 -335v-284q0 -84 34 -122t118 -38q86 0 142 49t56 119v612q0 45 21.5 67.5t70.5 22.5h154q51 0 72.5 -22.5t21.5 -67.5l-2 -905q0 -80 -78 -80h-141q-57 0 -59 47l-4 68q-63 -72 -149.5 -109 t-211.5 -37q-180 0 -282.5 97.5t-102.5 287.5v303q0 106 -39 154.5t-143 48.5q-127 0 -219 -72l24 -49q14 -29 20.5 -55.5t6.5 -65.5v-313q0 -31 9 -42t34 -11h35q37 0 51 -15.5t14 -50.5v-120q0 -43 -20.5 -54.5t-85.5 -11.5h-248q-74 0 -100.5 29.5t-26.5 97.5v545 l-47 114q-18 47 -19 68z" />
<glyph unicode="&#xe14;" horiz-adv-x="1335" d="M63 502q0 295 156 449.5t453 154.5q285 0 421 -128t136 -337v-553q0 -45 -21.5 -66.5t-72.5 -21.5h-154q-49 0 -70.5 21.5t-21.5 66.5v547q0 111 -51.5 168t-165.5 57q-137 0 -205 -87t-68 -279q0 -143 49.5 -225.5t137.5 -82.5q47 0 100 21q12 4 14 4q20 0 27 -29 l33 -129q2 -6 2 -14q0 -10 -7 -17.5t-24 -15.5q-88 -37 -229 -37q-209 0 -324 147.5t-115 385.5z" />
<glyph unicode="&#xe15;" horiz-adv-x="1335" d="M63 502q0 190 52.5 326.5t145.5 207t214 70.5q129 0 197 -98q35 45 99.5 71.5t137.5 26.5q160 0 240 -80t80 -219v-719q0 -45 -21.5 -66.5t-72.5 -21.5h-154q-49 0 -70.5 21.5t-21.5 66.5v672q0 49 -19.5 74.5t-68.5 25.5q-55 0 -90 -49q-18 -23 -41 -23q-25 0 -43 23 q-20 25 -36 37t-42 12q-70 0 -110 -89t-40 -269q0 -147 45 -231.5t131 -84.5q53 0 101 19q12 4 14 4q20 0 27 -29l28 -127q2 -6 3 -16q0 -16 -31 -31q-90 -37 -221 -37q-209 0 -321 146.5t-112 386.5z" />
<glyph unicode="&#xe16;" horiz-adv-x="1292" d="M63 854q0 33 31 57q98 82 240.5 138.5t310.5 56.5q287 0 414 -124t127 -333v-561q0 -45 -21.5 -66.5t-72.5 -21.5h-152q-51 0 -72.5 21.5t-21.5 66.5v569q0 102 -48 152.5t-155 50.5q-135 0 -227 -72l24 -49q14 -29 20.5 -55.5t6.5 -65.5v-313q0 -31 9 -42t34 -11h35 q37 0 51 -15.5t14 -50.5v-120q0 -43 -20.5 -54.5t-85.5 -11.5h-248q-74 0 -100.5 29.5t-26.5 97.5v545l-47 114q-18 47 -19 68z" />
<glyph unicode="&#xe17;" horiz-adv-x="1275" d="M104 88v907q0 80 78 80h142q29 0 43 -11t16 -38l4 -65q131 145 379 145q182 0 292.5 -98.5t110.5 -288.5v-631q0 -45 -21.5 -66.5t-70.5 -21.5h-153q-51 0 -73 21.5t-22 66.5v621q0 84 -42 122.5t-128 38.5q-98 0 -157.5 -49t-59.5 -121v-612q0 -45 -20.5 -66.5 t-71.5 -21.5h-151q-52 0 -73.5 21.5t-21.5 66.5z" />
<glyph unicode="&#xe18;" horiz-adv-x="1130" d="M66 813q0 147 125.5 220t357.5 73q274 0 455 -88q39 -18 38 -43q0 -12 -10 -29l-69 -117q-14 -25 -27 -24q-10 0 -31 10q-55 27 -146 46.5t-161 19.5q-106 0 -153.5 -17.5t-47.5 -62.5q0 -43 51.5 -65.5t184.5 -53.5q16 -2 76 -16q199 -47 278.5 -128t79.5 -225 q0 -98 -57.5 -176t-171 -123t-277.5 -45q-237 0 -365 95.5t-128 281.5v55q0 35 10 47.5t43 12.5h182q35 0 46 -12.5t11 -47.5v-55q0 -156 189 -156q92 0 137 38t45 106q0 78 -49 112.5t-180 61.5q-221 43 -328.5 108.5t-107.5 196.5z" />
<glyph unicode="&#xe19;" horiz-adv-x="1275" d="M104 354v631q0 47 20.5 68.5t72.5 21.5h151q51 0 72.5 -22.5t21.5 -67.5v-620q0 -82 42 -121t128 -39q88 0 152.5 50t64.5 118v612q0 45 21.5 67.5t71.5 22.5h153q51 0 72.5 -22.5t21.5 -67.5v-905q0 -80 -79 -80h-142q-57 0 -59 47l-4 68q-131 -145 -379 -146 q-182 0 -292 98.5t-110 286.5z" />
<glyph unicode="&#xe1a;" horiz-adv-x="1296" d="M104 395v590q0 45 21.5 67.5t71.5 22.5h153q51 0 71.5 -21.5t20.5 -68.5v-592q0 -92 51.5 -136t153.5 -44t152.5 44t50.5 136v592q0 45 21.5 67.5t70.5 22.5h154q51 0 72.5 -22.5t21.5 -67.5v-590q0 -205 -136 -315.5t-407 -110.5q-270 0 -406.5 110.5t-136.5 315.5z" />
<glyph unicode="&#xe1b;" horiz-adv-x="1296" d="M104 395v590q0 45 21.5 67.5t71.5 22.5h153q51 0 71.5 -21.5t20.5 -68.5v-592q0 -92 51.5 -136t153.5 -44t152.5 44t50.5 136v950q0 45 21.5 68t70.5 23h154q51 0 72.5 -22.5t21.5 -68.5v-948q0 -205 -136 -315.5t-407 -110.5q-270 0 -406.5 110.5t-136.5 315.5z" />
<glyph unicode="&#xe1c;" horiz-adv-x="1288" d="M104 66v919q0 45 21.5 67.5t71.5 22.5h268q39 0 53 -14t14 -51v-88q0 -37 -15 -52.5t-52 -15.5h-84v-453l188 326q12 20 28.5 29.5t43.5 9.5q33 0 46 -7t26 -30l188 -328v584q0 49 19.5 69.5t70.5 20.5h101q51 0 70.5 -20.5t19.5 -69.5v-919q0 -66 -68 -66h-123 q-47 0 -66.5 16.5t-45.5 63.5l-238 407l-256 -442q-18 -33 -38.5 -39t-86.5 -6h-88q-68 0 -68 66z" />
<glyph unicode="&#xe1d;" horiz-adv-x="1288" d="M104 66v919q0 45 21.5 67.5t71.5 22.5h268q39 0 53 -14t14 -51v-88q0 -37 -15 -52.5t-52 -15.5h-84v-453l188 326q12 20 28.5 29.5t43.5 9.5q33 0 46 -7t26 -30l188 -328v932q0 49 19.5 69.5t70.5 20.5h101q51 0 70.5 -20.5t19.5 -69.5v-1267q0 -66 -68 -66h-123 q-47 0 -66.5 16.5t-45.5 63.5l-238 407l-256 -442q-18 -33 -38.5 -39t-86.5 -6h-88q-68 0 -68 66z" />
<glyph unicode="&#xe1e;" horiz-adv-x="1417" d="M45 1036q0 39 45 39h178q35 0 48.5 -12t19.5 -45l117 -555l143 457q8 27 21.5 38t39.5 11h103q27 0 40 -11.5t21 -37.5l152 -457l108 555q6 33 19.5 45t48.5 12h178q45 0 45 -39q0 -14 -2 -22l-225 -957q-8 -33 -22.5 -45t-45.5 -12h-149q-27 0 -40.5 10t-21.5 37 l-157 520l-160 -520q-8 -27 -21.5 -37t-40.5 -10h-147q-31 0 -45 12.5t-23 44.5l-225 957q-2 8 -2 22z" />
<glyph unicode="&#xe1f;" horiz-adv-x="1411" d="M45 1036q0 39 45 39h178q35 0 48.5 -12t19.5 -45l117 -555l143 457q8 27 21.5 38t39.5 11h103q27 0 40 -11.5t21 -37.5l152 -457l168 872q6 33 19.5 45.5t47.5 12.5h178q45 0 46 -39q0 -14 -2 -23l-285 -1274q-8 -33 -22.5 -45t-45.5 -12h-149q-27 0 -41.5 10t-20.5 37 l-157 520l-160 -520q-8 -27 -21.5 -37t-40.5 -10h-147q-31 0 -45 12.5t-23 44.5l-225 957q-2 8 -2 22z" />
<glyph unicode="&#xe20;" horiz-adv-x="1304" d="M35 66v120q0 35 13 50.5t50 15.5h43q18 0 24.5 6t6.5 27v381l-78 120q-18 31 -18 68q0 29 33 59q92 82 233 137.5t311 55.5q285 0 415 -122t130 -327v-569q0 -47 -18.5 -67.5t-67.5 -20.5h-166q-49 0 -67.5 20.5t-18.5 67.5v569q0 102 -48 152.5t-155 50.5 q-129 0 -221 -69l39 -58q23 -35 30 -63.5t7 -81.5v-502q0 -49 -13.5 -67.5t-58.5 -18.5h-342q-37 0 -50 14.5t-13 51.5z" />
<glyph unicode="&#xe21;" horiz-adv-x="1275" d="M104 80v905q0 45 21.5 67.5t73.5 22.5h151q51 0 71.5 -21.5t20.5 -68.5v-612q0 -68 64.5 -118t152.5 -50q86 0 128 39t42 121v620q0 45 21.5 67.5t73.5 22.5h153q49 0 70.5 -22.5t21.5 -67.5v-631q0 -188 -110.5 -286.5t-292.5 -98.5q-248 1 -379 146l-4 -68 q-2 -47 -59 -47h-142q-78 0 -78 80z" />
<glyph unicode="&#xe22;" horiz-adv-x="1261" d="M63 324q0 188 150 249q-72 39 -106.5 96.5t-34.5 143.5q0 80 42 147.5t118.5 106.5t173.5 39q141 0 233 -51q25 -14 25 -35q0 -6 -5 -23l-36 -108q-10 -23 -27 -23q-8 0 -18 6q-20 12 -37 17.5t-41 5.5q-49 0 -77 -29.5t-28 -81.5q0 -61 35 -89.5t109 -28.5h43 q23 0 33 -10.5t10 -32.5v-103q0 -47 -47 -47h-35q-78 0 -113 -29.5t-35 -99.5q0 -131 209 -131q115 0 166 57.5t51 182.5v532q0 45 21.5 67.5t70.5 22.5h148q51 0 72.5 -22.5t21.5 -67.5v-532q0 -483 -551 -484q-246 0 -393.5 89t-147.5 266z" />
<glyph unicode="&#xe23;" horiz-adv-x="1093" d="M63 102q0 12 9 27l71 135q12 18 23 19q6 0 35 -13q59 -31 149 -53t166 -22q88 0 133 21.5t45 74.5q0 37 -28.5 63.5t-81 48t-164.5 60.5q-166 57 -244 130t-78 193q0 150 127 235t342 85q133 0 226.5 -20.5t179.5 -65.5q37 -18 37 -43q0 -10 -11 -31l-65 -110 q-14 -25 -27 -25q-10 0 -30 10q-53 29 -123 44.5t-146 15.5q-94 0 -138 -21.5t-44 -75.5q0 -49 52 -78.5t181 -76.5l76 -27q113 -41 176.5 -81t92 -94t28.5 -136q0 -145 -124 -233.5t-353 -88.5q-271 0 -453 92q-39 20 -39 41z" />
<glyph unicode="&#xe24;" horiz-adv-x="1292" d="M63 854q0 33 31 57q98 82 240.5 138.5t310.5 56.5q287 0 414 -124t127 -333v-880q0 -45 -21.5 -66.5t-72.5 -21.5h-152q-51 0 -72.5 21.5t-21.5 66.5v888q0 102 -48 152.5t-155 50.5q-135 0 -227 -72l24 -49q14 -29 20.5 -55.5t6.5 -65.5v-313q0 -31 9 -42t34 -11h35 q37 0 51 -15.5t14 -50.5v-120q0 -43 -20.5 -54.5t-85.5 -11.5h-248q-74 0 -100.5 29.5t-26.5 97.5v545l-47 114q-18 47 -19 68z" />
<glyph unicode="&#xe25;" horiz-adv-x="1271" d="M63 293q0 188 125 268t353 80h286v39q0 94 -57 138t-201 44q-70 0 -144.5 -17.5t-131.5 -45.5q-29 -12 -35 -13q-18 0 -33 27l-69 123q-10 20 -11 35q0 20 23 35q82 49 204 74.5t257 25.5q276 0 406 -112.5t130 -342.5v-563q0 -45 -21.5 -66.5t-72.5 -21.5h-151 q-49 0 -71 21.5t-22 66.5v326h-282q-88 0 -127 -26t-39 -91q0 -61 31.5 -86t97.5 -25q47 0 100 21q12 4 15 4q20 0 26 -29l33 -129q2 -6 2 -14q0 -10 -7 -17.5t-24 -15.5q-88 -37 -227 -37q-164 0 -263.5 87t-99.5 237z" />
<glyph unicode="&#xe26;" horiz-adv-x="1304" d="M35 66v120q0 35 13 50.5t50 15.5h43q18 0 24.5 6t6.5 27v381l-78 120q-18 31 -18 68q0 29 33 59q92 82 233 137.5t311 55.5q285 0 415 -122t130 -327v-888q0 -47 -18.5 -67.5t-67.5 -20.5h-166q-49 0 -67.5 20t-18.5 68v888q0 102 -48 152.5t-155 50.5q-129 0 -221 -69 l39 -58q23 -35 30 -63.5t7 -81.5v-502q0 -49 -13.5 -67.5t-58.5 -18.5h-342q-37 0 -50 14.5t-13 51.5z" />
<glyph unicode="&#xe27;" horiz-adv-x="1134" d="M23 106q0 12 10 33l69 121q14 27 31 27q6 0 35 -13q63 -31 124.5 -46t135.5 -15q147 0 227 73.5t80 248.5q0 174 -75.5 249.5t-225.5 75.5q-147 0 -256 -61q-20 -12 -35 -13q-18 0 -32 27l-68 121q-10 20 -10 35q0 23 26 37q86 49 184.5 74.5t229.5 25.5 q295 0 447.5 -143.5t152.5 -427.5q0 -281 -156.5 -423.5t-447.5 -142.5q-135 0 -234.5 24.5t-185.5 74.5q-27 14 -26 38z" />
<glyph unicode="&#xe28;" horiz-adv-x="1288" d="M104 88v588q0 203 138.5 316.5t396.5 113.5q121 0 223 -29q55 35 111.5 61.5t93.5 37.5q31 8 53 8q20 0 31.5 -7.5t17.5 -25.5l48 -131q6 -14 6 -25q0 -25 -33 -39l-94 -41q43 -49 61.5 -107t18.5 -132v-588q0 -45 -21.5 -66.5t-73.5 -21.5h-153q-49 0 -70.5 21.5 t-21.5 66.5v586q0 188 -197 188t-197 -188v-174q59 78 158 78h72q23 0 32 -9.5t9 -31.5v-158q0 -27 -10.5 -38t-32.5 -11h-80q-66 0 -107 -51.5t-41 -124.5v-66q0 -45 -20.5 -66.5t-71.5 -21.5h-153q-50 0 -71.5 21.5t-21.5 66.5z" />
<glyph unicode="&#xe29;" horiz-adv-x="1316" d="M104 395v590q0 45 21.5 67.5t71.5 22.5h153q51 0 71.5 -21.5t20.5 -68.5v-592q0 -92 51.5 -136t153.5 -44t152.5 44t50.5 136v107h-105q-39 0 -55 20.5t-16 65.5v67q0 45 15.5 65.5t55.5 20.5h105v246q0 45 21.5 67.5t70.5 22.5h154q51 0 72.5 -22.5t21.5 -67.5v-246h45 q39 0 54.5 -20.5t15.5 -65.5v-67q0 -45 -16.5 -65.5t-55.5 -20.5h-43v-105q0 -205 -136 -315.5t-407 -110.5q-270 0 -406.5 110.5t-136.5 315.5z" />
<glyph unicode="&#xe2a;" horiz-adv-x="1269" d="M63 293q0 188 125 268t353 80h286v39q0 94 -57 138t-201 44q-70 0 -144.5 -17.5t-131.5 -45.5q-29 -12 -35 -13q-18 0 -33 27l-69 123q-10 20 -11 35q0 20 23 35q82 49 204 74.5t257 25.5q127 0 221 -25q76 47 141.5 74t98.5 27q29 0 42 -6.5t19 -24.5l49 -131 q4 -16 4 -25q0 -25 -33 -39l-86 -36q41 -47 60.5 -109.5t19.5 -159.5v-563q0 -45 -21.5 -66.5t-72.5 -21.5h-151q-49 0 -71 21.5t-22 66.5v326h-282q-88 0 -127 -26t-39 -91q0 -61 31.5 -86t97.5 -25q47 0 100 21q12 4 15 4q20 0 26 -29l33 -129q2 -6 2 -14q0 -10 -7 -17.5 t-24 -15.5q-88 -37 -227 -37q-164 0 -263.5 87t-99.5 237z" />
<glyph unicode="&#xe2b;" horiz-adv-x="1232" d="M104 88v897q0 45 21.5 67.5t71.5 22.5h151q51 0 72.5 -22.5t21.5 -67.5v-235h217q74 0 100.5 36.5t26.5 108.5v90q0 45 21.5 67.5t71.5 22.5h153q51 0 72.5 -22.5t21.5 -67.5v-98q0 -203 -147 -254q78 -29 112.5 -96.5t34.5 -157.5v-291q0 -45 -21.5 -66.5t-72.5 -21.5 h-153q-49 0 -71 21.5t-22 66.5v272q0 70 -27.5 105t-92.5 35h-224v-412q0 -45 -21.5 -66.5t-72.5 -21.5h-151q-50 0 -71.5 21.5t-21.5 66.5z" />
<glyph unicode="&#xe2c;" horiz-adv-x="1386" d="M45 1036q0 39 45 39h178q35 0 48.5 -12t19.5 -45l117 -555l143 436q8 27 21.5 38t39.5 11h103q27 0 40 -11t21 -38l152 -436l63 315q10 57 11 82q0 29 -10.5 48.5t-37.5 35.5q-20 14 -27 23.5t-7 29.5v54q0 27 12 40t43 25q39 16 58.5 34.5t27.5 48.5t18 95l9 52 q2 27 14 37t39 10h182q49 0 43 -45l-10 -86q-12 -96 -48 -154.5t-120 -87.5q82 -47 82 -154q0 -47 -17 -116l-153 -693q-8 -33 -22.5 -45t-45.5 -12h-149q-27 0 -40.5 10t-21.5 37l-157 500l-160 -500q-8 -27 -21.5 -37t-40.5 -10h-147q-31 0 -45 12.5t-23 44.5l-225 957 q-2 8 -2 22z" />
<glyph unicode="&#xe2d;" horiz-adv-x="1198" d="M63 373v170q0 43 19.5 63.5t67.5 20.5h305q35 0 49 -15.5t14 -50.5v-82q0 -37 -14.5 -51t-50.5 -14h-91v-66q0 -61 54.5 -98t154.5 -37q90 0 138.5 30.5t69 101.5t20.5 198q0 170 -67.5 244.5t-229.5 74.5q-152 0 -279 -63q-29 -12 -35 -13q-18 0 -32 27l-70 123 q-10 20 -10 35q0 20 22 35q82 49 207 74.5t266 25.5q285 0 425.5 -137.5t140.5 -425.5q0 -291 -144.5 -432.5t-412.5 -141.5q-256 0 -386.5 101.5t-130.5 302.5z" />
<glyph unicode="&#xe2e;" horiz-adv-x="1228" d="M63 373v170q0 43 19.5 63.5t67.5 20.5h305q35 0 49 -15.5t14 -50.5v-82q0 -37 -14.5 -51t-50.5 -14h-91v-66q0 -61 54.5 -98t154.5 -37q90 0 138.5 30.5t69 101.5t20.5 198q0 170 -67.5 244.5t-229.5 74.5q-152 0 -279 -63q-29 -12 -35 -13q-18 0 -32 27l-70 123 q-10 20 -10 35q0 20 22 35q82 49 207 74.5t266 25.5q137 0 230 -29q55 35 113.5 61.5t93.5 37.5q31 8 55 8q39 0 47 -33l49 -131q4 -16 4 -25q0 -25 -33 -39l-102 -45q109 -137 109 -368q0 -291 -144.5 -432.5t-412.5 -141.5q-256 0 -386.5 101.5t-130.5 302.5z" />
<glyph unicode="&#xe2f;" horiz-adv-x="1120" d="M23 780q0 137 85 231.5t228 94.5q70 0 116 -6t89 -23q27 -10 34 -21.5t3 -31.5l-23 -125q-2 -18 -14.5 -24.5t-28.5 -0.5q-33 14 -82 15q-43 0 -68.5 -29t-25.5 -80q0 -63 40 -98t120 -35q113 0 182 47v291q0 47 20.5 68.5t71.5 21.5h152q51 0 72.5 -22.5t21.5 -67.5 v-897q0 -45 -21.5 -66.5t-72.5 -21.5h-152q-51 0 -71.5 21.5t-20.5 66.5v381q-41 -20 -100.5 -33.5t-122.5 -13.5q-203 0 -317.5 89t-114.5 269z" />
<glyph unicode="&#xe30;" horiz-adv-x="708" d="M63 213v141q0 47 18.5 64.5t63.5 17.5h99q45 0 63.5 -17.5t18.5 -66.5v-86q160 33 243 33q45 0 60.5 -15.5t15.5 -60.5v-88q0 -41 -17.5 -57.5t-64.5 -16.5h-346q-86 0 -120 36t-34 116zM63 745v142q0 47 18.5 64.5t63.5 17.5h99q45 0 63.5 -17.5t18.5 -66.5v-86 q160 33 243 32q45 0 60.5 -15t15.5 -60v-88q0 -41 -17.5 -57.5t-64.5 -16.5h-346q-86 0 -120 36t-34 115z" />
<glyph unicode="&#xe31;" d="M-639 1393v135q0 51 19.5 68.5t68.5 17.5h96q47 0 66.5 -18.5t19.5 -67.5v-94q100 12 236.5 22t210.5 10q49 0 65.5 -18t16.5 -64v-69q0 -45 -16.5 -63.5t-65.5 -18.5h-563q-86 0 -120 38t-34 122z" />
<glyph unicode="&#xe32;" horiz-adv-x="897" d="M10 1014q0 18 25 28q133 63 315 64q223 0 332 -98.5t109 -302.5v-625q0 -80 -82 -80h-174q-82 0 -82 80v606q0 96 -35 136t-123 40q-94 0 -178 -45q-20 -10 -31 -10q-20 0 -27 24l-45 158z" />
<glyph unicode="&#xe33;" horiz-adv-x="897" d="M-522 1407q0 113 72.5 184.5t189.5 71.5t190.5 -71.5t73.5 -184.5t-73.5 -183.5t-190.5 -70.5t-189.5 70.5t-72.5 183.5zM-358 1407q0 -41 28.5 -68.5t69.5 -27.5t68.5 27.5t27.5 68.5q0 39 -27.5 66.5t-68.5 27.5t-69.5 -27.5t-28.5 -66.5zM10 1014q0 18 25 28 q133 63 315 64q223 0 332 -98.5t109 -302.5v-625q0 -80 -82 -80h-174q-82 0 -82 80v606q0 96 -35 136t-123 40q-94 0 -178 -45q-20 -10 -31 -10q-20 0 -27 24l-45 158z" />
<glyph unicode="&#xe34;" d="M-1028 1319v63q0 47 18.5 67.5t67.5 20.5h747q49 0 69 -20t20 -68v-63q0 -45 -19.5 -65.5t-69.5 -20.5h-747q-49 0 -67.5 19.5t-18.5 66.5z" />
<glyph unicode="&#xe35;" d="M-1028 1319v63q0 47 18.5 67.5t67.5 20.5h565v119q0 45 19.5 61.5t60.5 16.5h111q41 0 60.5 -16.5t19.5 -61.5v-248q0 -61 -22 -84.5t-85 -23.5h-729q-49 0 -67.5 19.5t-18.5 66.5z" />
<glyph unicode="&#xe36;" d="M-1028 1327v55q0 47 18.5 67.5t69.5 20.5h399q0 88 63.5 147.5t164.5 59.5q104 0 165.5 -65.5t61.5 -161.5q0 -100 -70.5 -158.5t-183.5 -58.5h-600q-53 0 -70.5 20.5t-17.5 73.5zM-395 1450q0 -35 22.5 -58.5t59.5 -23.5q39 0 61.5 23.5t22.5 58.5q0 37 -23.5 60.5 t-60.5 23.5q-35 0 -58.5 -23.5t-23.5 -60.5z" />
<glyph unicode="&#xe37;" d="M-1028 1319v63q0 47 18.5 67.5t67.5 20.5h274v119q0 45 19.5 61.5t60.5 16.5h70q41 0 60.5 -16.5t19.5 -61.5v-119h102v119q0 45 19.5 61.5t60.5 16.5h70q41 0 60.5 -16.5t19.5 -61.5v-248q0 -61 -22 -84.5t-85 -23.5h-729q-49 0 -67.5 19.5t-18.5 66.5z" />
</font>
</defs>
</svg>
