<?xml version="1.0" standalone="no"?>
<!DOCTYPE svg PUBLIC "-//W3C//DTD SVG 1.1//EN" "http://www.w3.org/Graphics/SVG/1.1/DTD/svg11.dtd" >
<svg xmlns="http://www.w3.org/2000/svg" xmlns:xlink="http://www.w3.org/1999/xlink" version="1.1">
<metadata></metadata>
<defs>
<font id="mitrregular" horiz-adv-x="0" >
<font-face units-per-em="2048" ascent="1536" descent="-512" />
<missing-glyph horiz-adv-x="798" />
<glyph unicode="fi" horiz-adv-x="1140" d="M39 864v47q0 39 15.5 55.5t56.5 16.5h96v59q0 174 110.5 277.5t305.5 103.5q201 0 315 -80q20 -14 20 -28q0 -12 -8 -23l-53 -90q-12 -18 -23 -18q-6 0 -22 8q-43 23 -85 36t-93 13q-209 0 -209 -201v-57h477q41 0 59.5 -18.5t18.5 -57.5v-833q0 -37 -17.5 -55.5 t-60.5 -18.5h-102q-41 0 -59.5 18.5t-18.5 55.5v717h-297v-717q0 -37 -17.5 -55.5t-60.5 -18.5h-104q-41 0 -58.5 18.5t-17.5 55.5v717h-96q-41 0 -56.5 17t-15.5 56z" />
<glyph unicode="fl" horiz-adv-x="1165" d="M39 864v47q0 39 15.5 55.5t56.5 16.5h96v59q0 174 112.5 277.5t311.5 103.5q113 0 211 -25.5t162 -70.5q25 -16 32.5 -33.5t7.5 -48.5v-1171q0 -37 -17 -55.5t-60 -18.5h-103q-41 0 -59.5 18.5t-18.5 55.5v717h-321v-717q0 -37 -17.5 -55.5t-60.5 -18.5h-104 q-41 0 -58.5 18.5t-17.5 55.5v717h-96q-41 0 -56.5 17t-15.5 56zM459 983h334v217q-55 33 -150 33q-184 0 -184 -193v-57z" />
<glyph unicode="&#xe24;&#xe45;" horiz-adv-x="1794" d="M80 862q0 27 22 47q98 86 233.5 141.5t303.5 55.5q193 0 313 -64q121 63 308 64q208 0 309.5 -94t101.5 -291v-973q0 -68 -72 -67h-120q-70 0 -70 67v965q0 106 -40 152t-142 46q-61 0 -123 -16q53 -98 53 -236v-905q0 -39 -17.5 -56t-60.5 -17h-106q-41 0 -59.5 17 t-18.5 56v912q0 123 -61.5 183t-196.5 60q-172 0 -285 -92l29 -63q16 -35 22.5 -61.5t6.5 -67.5v-369q0 -31 9 -42t38 -11h55q33 0 45 -12.5t12 -43.5v-90q0 -35 -16 -46t-61 -11h-205q-76 0 -108 35t-32 106v539l-51 121q-16 37 -16 61z" />
<glyph unicode="&#xe26;&#xe45;" horiz-adv-x="1832" d="M59 57v90q0 31 12.5 43.5t43.5 12.5h61q25 0 33 8t8 35v430l-82 125q-18 29 -18 59q0 27 26 51q94 84 227.5 139.5t303.5 55.5q195 0 315 -64h2q121 63 307 64q209 0 310.5 -94t101.5 -291v-973q0 -68 -72 -67h-120q-70 0 -70 67v965q0 106 -40 152t-142 46 q-61 0 -123 -16q53 -94 53 -225v-916q0 -39 -16.5 -56t-57.5 -17h-114q-41 0 -57.5 17t-16.5 56v912q0 123 -62.5 183t-195.5 60q-166 0 -279 -92l45 -69q23 -35 30 -63t7 -81v-493q0 -61 -19.5 -86t-80.5 -25h-262q-33 0 -45.5 12.5t-12.5 44.5z" />
<glyph unicode=" "  horiz-adv-x="798" />
<glyph unicode="&#x09;" horiz-adv-x="798" />
<glyph unicode="&#xa0;" horiz-adv-x="798" />
<glyph unicode="!" horiz-adv-x="454" d="M80 84v43q0 86 121 86h53q121 0 121 -86v-43q0 -84 -121 -84h-53q-121 0 -121 84zM96 1317q0 39 17.5 57.5t58.5 18.5h113q41 0 58 -18.5t17 -57.5l-14 -856q0 -39 -15.5 -56.5t-56.5 -17.5h-100q-35 0 -50 17.5t-15 56.5z" />
<glyph unicode="&#x22;" horiz-adv-x="710" d="M80 1372q-2 33 13.5 46.5t53.5 13.5h70q39 0 54.5 -13.5t13.5 -46.5l-15 -307q-2 -33 -17 -46t-50 -13h-51q-29 0 -43.5 13t-16.5 46zM426 1372q-2 33 13.5 46.5t52.5 13.5h71q39 0 54.5 -13.5t13.5 -46.5l-17 -307q-2 -33 -16 -46t-49 -13h-51q-29 0 -43.5 13t-16.5 46z " />
<glyph unicode="#" horiz-adv-x="1630" d="M80 406v51q0 45 12 59t55 14h183l123 301h-199q-43 0 -55.5 13.5t-12.5 56.5v51q0 45 12.5 59.5t55.5 14.5h274l134 332q8 20 20 27.5t41 7.5h164q29 0 28 -25q0 -8 -6 -25l-127 -317h342l133 332q8 20 20.5 27.5t41.5 7.5h164q29 0 28 -25q0 -8 -6 -25l-127 -317h103 q43 0 56 -14.5t13 -59.5v-51q0 -43 -12 -56.5t-55 -13.5h-178l-121 -301h219q43 0 56.5 -14t13.5 -59v-51q0 -43 -12.5 -56.5t-55.5 -13.5h-297l-123 -303q-8 -18 -19.5 -25.5t-39.5 -7.5h-166q-27 0 -27 25q0 14 4 22l115 289h-342l-121 -303q-6 -18 -18.5 -25.5 t-40.5 -7.5h-166q-27 0 -27 25q0 14 4 22l115 289h-109q-43 0 -55 13t-12 57zM586 530h342l121 299h-342z" />
<glyph unicode="$" horiz-adv-x="1206" d="M80 119q0 8 10 24l66 107q12 18 22 18t27 -10q84 -45 185.5 -70.5t201.5 -25.5q145 0 209.5 49t64.5 145q0 66 -30.5 105t-88 66.5t-188.5 74.5q-195 70 -313.5 169t-118.5 263q0 162 96 256t273 119v102q0 39 18 57.5t59 18.5h91q41 0 59 -18.5t18 -57.5v-96 q109 -6 187 -30.5t139 -69.5q25 -18 25 -33q0 -14 -9 -25l-63 -102q-12 -18 -23 -18q-8 0 -24 10q-57 39 -142.5 60.5t-185.5 21.5q-129 0 -193.5 -46t-64.5 -151q0 -59 26.5 -95t74 -59.5t143.5 -60.5l86 -33q158 -61 242.5 -115.5t125.5 -129t41 -191.5q0 -150 -98 -248 t-287 -123v-94q0 -39 -17 -56t-60 -17h-91q-41 0 -59 17t-18 56v94q-264 23 -390 109q-27 18 -26 33z" />
<glyph unicode="%" horiz-adv-x="1546" d="M80 1112q0 90 41 160.5t111.5 110.5t156.5 40q84 0 154.5 -40t112.5 -110.5t42 -160.5q0 -88 -42 -158.5t-112.5 -110.5t-154.5 -40q-86 0 -156.5 40t-111.5 109.5t-41 159.5zM182 27q0 14 8 24l897 1307q12 18 23.5 26.5t32.5 8.5h184q14 0 22.5 -7.5t8.5 -19.5 q0 -14 -8 -25l-901 -1312q-12 -16 -20.5 -22.5t-29.5 -6.5h-186q-31 0 -31 27zM231 1112q0 -68 45.5 -113t112.5 -45q68 0 113 45t45 113q0 70 -45 115t-113 45t-113 -45t-45 -115zM846 279q0 88 42 158.5t112.5 110.5t154.5 40q86 0 156.5 -40t112.5 -109.5t42 -159.5 t-42 -160t-112.5 -110t-156.5 -40q-84 0 -154.5 40t-112.5 110.5t-42 159.5zM997 279q0 -70 46.5 -114t111.5 -44q68 0 114 44t46 114q0 68 -46 112.5t-114 44.5q-66 0 -112 -45t-46 -112z" />
<glyph unicode="&#x26;" horiz-adv-x="1484" d="M82 395q0 115 52 210t155 140q-72 41 -113 118t-41 165q0 190 147.5 292.5t385.5 102.5q281 0 432 -125q16 -16 16 -30q0 -8 -8 -25l-61 -96q-12 -20 -25 -21q-12 0 -27 13q-115 86 -303 86q-150 0 -224.5 -48.5t-74.5 -152.5q0 -111 66.5 -149.5t199.5 -38.5h693 q41 0 57 -17.5t16 -56.5v-53q0 -39 -16 -55.5t-57 -16.5h-80v-113q0 -160 -66.5 -284.5t-202 -197.5t-333.5 -73q-264 0 -426 109.5t-162 316.5zM338 408q0 -246 338 -246q182 0 266 94t84 276v105h-438q-129 0 -189.5 -55.5t-60.5 -173.5z" />
<glyph unicode="'" horiz-adv-x="385" d="M80 1372q-2 33 13.5 46.5t53.5 13.5h91q39 0 54 -13.5t13 -46.5l-14 -307q-2 -33 -17.5 -46t-50.5 -13h-71q-29 0 -43.5 13t-16.5 46z" />
<glyph unicode="(" horiz-adv-x="720" d="M80 647q0 207 54 391.5t155.5 317.5t238.5 190q51 20 80 21q66 0 66 -82q0 -51 -11.5 -72.5t-48.5 -48.5q-137 -102 -206.5 -287.5t-69.5 -429.5q0 -248 68.5 -434t207.5 -285q37 -27 48.5 -48t11.5 -73q0 -80 -66 -79q-33 0 -80 18q-137 57 -238.5 190.5t-155.5 317.5 t-54 393z" />
<glyph unicode=")" horiz-adv-x="720" d="M47 -193q0 51 11.5 73t47.5 48q139 98 207 283.5t68 435.5q0 246 -68.5 431.5t-206.5 285.5q-39 29 -49 49.5t-10 71.5q0 82 64 82q29 0 79 -21q137 -57 239.5 -190t157 -317.5t54.5 -391.5q0 -209 -54.5 -393t-156.5 -317.5t-240 -190.5q-46 -18 -77 -18q-66 0 -66 79z " />
<glyph unicode="*" horiz-adv-x="870" d="M80 1186q0 10 4 16l45 88q8 14 15.5 16.5t21.5 -1.5l176 -80v182q0 47 45 47h96q25 0 34 -11t9 -36v-184l174 77l19 5q14 0 22 -17l45 -88q4 -12 5 -14q0 -16 -23 -27l-195 -84l154 -164q12 -12 12 -24q0 -10 -14 -25l-76 -65q-8 -9 -18 -9q-14 0 -31 17l-166 180 l-170 -182q-14 -14 -24 -15q-6 0 -21 11l-74 65q-14 12 -14 27q0 12 10 22l154 164l-195 84q-20 8 -20 25z" />
<glyph unicode="+" horiz-adv-x="964" d="M80 573v76q0 35 15.5 48.5t49.5 13.5h228v202q0 33 12 46.5t49 13.5h94q37 0 49.5 -13.5t12.5 -46.5v-202h229q35 0 50.5 -13.5t15.5 -48.5v-76q0 -35 -15.5 -48t-50.5 -13h-229v-201q0 -33 -12.5 -46t-49.5 -13h-94q-37 0 -49 13.5t-12 45.5v201h-228q-35 0 -50 13.5 t-15 47.5z" />
<glyph unicode="," horiz-adv-x="503" d="M80 -215q0 4 4 20l109 349q8 31 23 41t50 10h107q51 0 51 -31q0 -12 -10 -37l-148 -346q-8 -18 -21.5 -26.5t-37.5 -8.5h-90q-37 0 -37 29z" />
<glyph unicode="-" horiz-adv-x="964" d="M80 573v76q0 33 13 47.5t46 14.5h686q31 0 45.5 -15.5t14.5 -46.5v-76q0 -31 -14.5 -46t-45.5 -15h-686q-33 0 -46 14.5t-13 46.5z" />
<glyph unicode="." horiz-adv-x="370" d="M80 90v37q0 39 24.5 65.5t61.5 26.5h39q37 0 61.5 -26.5t24.5 -65.5v-37q0 -37 -24.5 -63.5t-61.5 -26.5h-39q-37 0 -61.5 26.5t-24.5 63.5z" />
<glyph unicode="/" horiz-adv-x="972" d="M80 25q0 12 6 26l537 1307q14 35 49 35h192q29 0 29 -27q0 -12 -6 -25l-537 -1308q-12 -33 -51 -33h-190q-29 0 -29 25z" />
<glyph unicode="0" horiz-adv-x="1515" d="M80 696q0 352 171 539.5t507 187.5q334 0 506 -188t172 -539q0 -350 -172 -538.5t-506 -188.5q-336 0 -507 187.5t-171 539.5zM338 696q0 -211 86 -325l565 796q-88 61 -231 62q-213 0 -316.5 -133t-103.5 -400zM526 219q92 -57 232 -57q213 0 315.5 133t102.5 401 q0 207 -82 324z" />
<glyph unicode="1" horiz-adv-x="968" d="M82 1139q0 20 22 32l338 203q14 10 28.5 14.5t39.5 4.5h68q78 0 77 -76v-1118h201q41 0 57.5 -16.5t16.5 -55.5v-59q0 -37 -16.5 -52.5t-57.5 -15.5h-666q-40 0 -56.5 15.5t-16.5 52.5v59q0 39 16.5 55.5t56.5 16.5h201v907l-176 -107q-16 -10 -29 -10q-18 0 -30 21 l-66 102q-8 14 -8 27z" />
<glyph unicode="2" horiz-adv-x="1177" d="M84 70v80q0 131 101.5 258t303.5 241q145 82 213 130t100 102.5t32 134.5q0 104 -74 158.5t-207 54.5q-96 0 -181 -23.5t-147 -58.5q-20 -10 -26 -10q-12 0 -25 18l-57 100q-10 16 -11 29q0 16 19 29q72 51 194.5 80.5t268.5 29.5q227 0 366.5 -103t139.5 -292 q0 -158 -97.5 -266.5t-306.5 -222.5q-154 -80 -244 -168t-96 -172h664q41 0 57 -17.5t16 -56.5v-55q0 -37 -16 -53.5t-57 -16.5h-862q-68 0 -68 70z" />
<glyph unicode="3" horiz-adv-x="1214" d="M80 104q0 12 10 29l60 100q12 20 22 21q8 0 29 -10q68 -37 156.5 -59.5t193.5 -22.5q168 0 247 64.5t79 179.5q0 213 -261 212h-172q-41 0 -58 17.5t-17 56.5v53q0 37 17 53.5t58 16.5h168q111 0 166.5 58.5t55.5 148.5q0 207 -291 207q-180 0 -318 -76q-20 -10 -28 -10 q-10 0 -23 18l-57 96q-10 16 -11 29q0 16 19 29q72 51 190.5 79.5t264.5 28.5q158 0 273.5 -49t178 -138t62.5 -208q0 -96 -46.5 -178t-132.5 -127q111 -41 165.5 -126t54.5 -200q0 -193 -142.5 -310.5t-404.5 -117.5q-332 1 -490 107q-18 12 -18 28z" />
<glyph unicode="4" horiz-adv-x="1259" d="M39 352v84q0 29 6 44.5t23 37.5l690 836q18 23 32.5 31t45.5 8h90q41 0 59.5 -18.5t18.5 -57.5v-815h143q41 0 57.5 -17.5t16.5 -56.5v-55q0 -37 -16.5 -53.5t-57.5 -16.5h-143v-233q0 -37 -17.5 -53.5t-60.5 -16.5h-109q-41 0 -58.5 16.5t-17.5 53.5v233h-649 q-53 0 -53 49zM313 502h471v581z" />
<glyph unicode="5" horiz-adv-x="1267" d="M80 113q0 12 10 28l60 103q10 18 22 18q10 0 29 -12q66 -39 163 -63.5t211 -24.5q172 0 262.5 72.5t90.5 218.5q0 162 -77 227t-245 65t-284 -53q-43 -14 -72 -14q-53 0 -89 30.5t-34 86.5l35 528q2 37 18.5 53.5t57.5 16.5h811q41 0 57 -16.5t16 -55.5v-55 q0 -39 -16 -56.5t-57 -17.5h-666l-21 -303q121 39 287 39q539 0 539 -475q0 -147 -75 -257t-211 -168.5t-318 -58.5q-144 0 -275 32t-211 85q-18 12 -18 27z" />
<glyph unicode="6" horiz-adv-x="1312" d="M80 606q0 291 88 474.5t229.5 263t307.5 79.5q244 0 397 -106q18 -14 18 -29q0 -12 -8 -26l-55 -97q-12 -20 -25 -20q-10 0 -28 12q-59 37 -126 54.5t-159 17.5q-166 0 -258 -91t-127 -284q74 63 167 91t218 28q154 0 269.5 -58.5t180 -164t64.5 -242.5 q0 -266 -153.5 -402.5t-430.5 -136.5q-256 0 -412.5 152.5t-156.5 484.5zM342 496q0 -174 83 -254t224 -80q324 0 324 340q0 145 -86 224t-230 79q-127 0 -221 -77t-94 -232z" />
<glyph unicode="7" horiz-adv-x="1214" d="M59 1264v61q0 37 14.5 52.5t53.5 15.5h940q49 0 68.5 -16.5t19.5 -57.5q0 -27 -13.5 -59.5t-29.5 -61.5t-20 -39l-588 -1130q-8 -16 -19.5 -22.5t-31.5 -6.5h-199q-29 0 -29 25q0 12 8 26l596 1141h-702q-39 0 -53.5 16.5t-14.5 55.5z" />
<glyph unicode="8" horiz-adv-x="1306" d="M80 391q0 117 62.5 206t170.5 128q-96 43 -145 116.5t-49 172.5q0 197 138 303t396 106t395.5 -106.5t137.5 -302.5q0 -98 -49.5 -172t-143.5 -117q109 -39 171.5 -128t62.5 -206q0 -201 -152.5 -311.5t-421.5 -110.5q-270 0 -421.5 110.5t-151.5 311.5zM338 391 q0 -229 315 -229q314 0 314 229q0 236 -314 236q-315 0 -315 -236zM379 1014q0 -104 69.5 -150.5t204.5 -46.5q133 0 203 46t70 151q0 115 -66.5 165t-206.5 50q-139 0 -206.5 -50.5t-67.5 -164.5z" />
<glyph unicode="9" horiz-adv-x="1302" d="M80 883q0 270 151.5 405t432.5 135q254 0 406.5 -156.5t152.5 -482.5q0 -434 -171 -624.5t-440 -190.5q-127 0 -230 28t-175 75q-18 12 -19 28q0 12 11 29l57 98q12 18 23 19q8 0 28 -10q123 -74 291 -74q174 0 268.5 92t116.5 283q-70 -66 -163 -93.5t-220 -27.5 q-160 0 -277.5 58t-180 164.5t-62.5 244.5zM338 887q0 -152 81 -227.5t238 -75.5q78 0 146.5 33.5t111.5 100t43 161.5q0 174 -77.5 262t-218.5 88q-162 0 -243 -82t-81 -260z" />
<glyph unicode=":" horiz-adv-x="403" d="M80 104v46q0 45 27.5 74.5t70.5 29.5h45q45 0 73 -29.5t28 -74.5v-46q0 -43 -29 -73.5t-72 -30.5h-45q-43 0 -70.5 29.5t-27.5 74.5zM80 860v43q0 45 27.5 76t70.5 31h45q45 0 73 -31t28 -76v-43q0 -43 -29 -74.5t-72 -31.5h-45q-43 0 -70.5 30.5t-27.5 75.5z" />
<glyph unicode=";" horiz-adv-x="509" d="M80 -215q0 4 4 20l109 349q8 31 23 41t50 10h107q51 0 51 -31q0 -12 -10 -37l-148 -346q-8 -18 -21.5 -26.5t-37.5 -8.5h-90q-37 0 -37 29zM184 860v43q0 45 28 76t71 31h45q45 0 72.5 -31t27.5 -76v-43q0 -43 -28.5 -74.5t-71.5 -31.5h-45q-43 0 -71 30.5t-28 75.5z" />
<glyph unicode="&#x3c;" horiz-adv-x="1142" d="M80 514v90q0 20 7 32.5t28 20.5l905 412q12 4 18 4q25 0 25 -29v-161q0 -23 -7 -33t-28 -19l-629 -270l629 -270q20 -8 27.5 -18.5t7.5 -32.5v-166q0 -29 -25 -29q-12 0 -18 4l-905 412q-20 8 -27.5 20.5t-7.5 32.5z" />
<glyph unicode="=" horiz-adv-x="944" d="M80 385v49q0 39 15.5 56.5t56.5 17.5h639q41 0 57 -17.5t16 -56.5v-49q0 -39 -16.5 -55.5t-56.5 -16.5h-639q-41 0 -56.5 16.5t-15.5 55.5zM80 754v51q0 39 15.5 56.5t56.5 17.5h639q41 0 57 -17.5t16 -56.5v-51q0 -39 -16.5 -55.5t-56.5 -16.5h-639q-41 0 -56.5 16.5 t-15.5 55.5z" />
<glyph unicode="&#x3e;" horiz-adv-x="1142" d="M80 74v153q0 23 7 33t28 19l637 282l-637 283q-20 8 -27.5 18t-7.5 33v149q0 29 24 29l17 -4l907 -412q18 -10 26.5 -21t8.5 -32v-90q0 -20 -8 -31.5t-27 -21.5l-907 -412l-17 -4q-25 0 -24 29z" />
<glyph unicode="?" horiz-adv-x="1120" d="M78 1276q0 14 20 29q82 55 197 86.5t258 31.5q219 0 353 -102t134 -285q0 -125 -58 -204.5t-189 -151.5q-111 -61 -150 -115.5t-39 -148.5v-29q0 -37 -17.5 -55.5t-60.5 -18.5h-108q-41 0 -58.5 18.5t-17.5 55.5v35q0 131 58.5 219t185.5 162q84 47 124 77.5t55 64.5 t15 89q0 94 -67.5 144.5t-188.5 50.5q-186 0 -323 -88q-18 -12 -29 -13q-12 0 -22 19l-64 106q-8 16 -8 23zM324 84v41q0 39 27.5 62.5t76.5 23.5h88q51 0 78 -23.5t27 -62.5v-41q0 -37 -28 -60.5t-77 -23.5h-88q-49 0 -76.5 23.5t-27.5 60.5z" />
<glyph unicode="@" horiz-adv-x="1908" d="M80 614q0 281 113.5 470.5t320.5 283.5t487 94q262 0 448.5 -91t283 -259t96.5 -397q0 -244 -104.5 -376t-276.5 -132q-84 0 -138.5 43t-72.5 112q-57 -76 -146.5 -115.5t-199.5 -39.5q-190 2 -303 106.5t-113 292.5q0 233 139.5 362.5t380.5 129.5q104 0 204.5 -36 t164.5 -93v-492q0 -59 20.5 -84.5t67.5 -25.5q80 0 124 92t44 258q0 184 -80 313t-220 194.5t-321 65.5q-330 0 -520 -167t-190 -509q0 -201 83 -341t227 -209.5t329 -69.5q100 0 193 24.5t153 67.5q10 6 16 6t13 -12l51 -123q4 -12 4 -14q0 -10 -15 -19q-76 -49 -185 -77.5 t-228 -28.5q-252 0 -444.5 95t-299 275.5t-106.5 425.5zM678 616q0 -119 59.5 -175t184.5 -56q98 0 171.5 54.5t73.5 144.5v284q-76 43 -186 43q-139 0 -221 -77.5t-82 -217.5z" />
<glyph unicode="A" horiz-adv-x="1501" d="M80 31q0 12 6 26l541 1282q12 31 26.5 42.5t40.5 11.5h113q29 0 42 -11.5t25 -42.5l541 -1282q6 -14 6 -26q0 -31 -35 -31h-178q-27 0 -38 7t-21 30l-117 287h-565l-115 -287q-10 -23 -21.5 -30t-37.5 -7h-178q-35 0 -35 31zM532 514h435l-217 537z" />
<glyph unicode="B" horiz-adv-x="1341" d="M121 74v1243q0 39 17.5 57.5t58.5 18.5h591q213 0 323 -102.5t110 -276.5q0 -98 -49.5 -176t-137.5 -115q227 -72 228 -320q0 -115 -52.5 -206t-157 -144t-257.5 -53h-598q-41 0 -58.5 18.5t-17.5 55.5zM383 199h399q113 0 166 58t53 151q0 106 -64.5 160.5t-178.5 54.5 h-375v-424zM383 811h369q100 0 154.5 51t54.5 144q0 100 -50.5 144t-160.5 44h-367v-383z" />
<glyph unicode="C" horiz-adv-x="1386" d="M80 696q0 350 187.5 538.5t535.5 188.5q139 0 258 -28.5t201 -81.5q18 -12 18 -27q0 -12 -10 -29l-58 -98q-12 -18 -22 -18q-8 0 -29 10q-129 78 -330 78q-231 0 -362 -133t-131 -400q0 -270 135 -402t365 -132q213 0 350 80q20 10 26 10q12 0 25 -19l64 -106 q6 -12 6 -21q0 -12 -23 -26q-158 -111 -477 -111q-348 0 -538.5 188.5t-190.5 538.5z" />
<glyph unicode="D" horiz-adv-x="1398" d="M121 74v1243q0 39 17.5 57.5t58.5 18.5h409q346 0 529.5 -166t183.5 -531q0 -696 -713 -696h-409q-41 0 -58.5 18.5t-17.5 55.5zM383 199h240q217 0 326.5 112.5t109.5 384.5t-109.5 384t-326.5 112h-240v-993z" />
<glyph unicode="E" horiz-adv-x="1179" d="M121 74v1243q0 39 17.5 57.5t58.5 18.5h852q41 0 56 -16.5t15 -55.5v-55q0 -39 -15 -56.5t-56 -17.5h-666v-397h483q41 0 57.5 -16.5t16.5 -55.5v-51q0 -39 -16.5 -56.5t-57.5 -17.5h-483v-399h664q41 0 57 -17.5t16 -56.5v-55q0 -37 -16.5 -53.5t-56.5 -16.5h-850 q-41 0 -58.5 18.5t-17.5 55.5z" />
<glyph unicode="F" horiz-adv-x="1159" d="M121 74v1243q0 39 17.5 57.5t58.5 18.5h852q41 0 56 -16.5t15 -55.5v-55q0 -39 -15 -56.5t-56 -17.5h-666v-395h483q41 0 57.5 -16.5t16.5 -55.5v-55q0 -39 -16.5 -56.5t-57.5 -17.5h-483v-522q0 -37 -17.5 -55.5t-60.5 -18.5h-108q-41 0 -58.5 18.5t-17.5 55.5z" />
<glyph unicode="G" horiz-adv-x="1433" d="M80 696q0 348 191.5 537.5t537.5 189.5q139 0 260 -28.5t201 -81.5q18 -12 18 -27q0 -10 -8 -24l-59 -103q-12 -18 -25 -18q-6 0 -27 10q-139 78 -331 78q-233 0 -366.5 -132t-133.5 -401q0 -270 129 -401t354 -131q82 0 160 13t127 38v379h-270q-41 0 -57.5 17.5 t-16.5 56.5v53q0 39 16.5 54.5t57.5 15.5h432q45 0 64.5 -21.5t19.5 -67.5v-540q0 -31 -6.5 -46.5t-26.5 -27.5q-188 -119 -512 -119q-348 0 -538.5 188.5t-190.5 538.5z" />
<glyph unicode="H" horiz-adv-x="1437" d="M121 74v1243q0 39 17.5 57.5t58.5 18.5h108q41 0 59.5 -18.5t18.5 -57.5v-516h672v516q0 39 18.5 57.5t59.5 18.5h106q41 0 59.5 -18.5t18.5 -57.5v-1243q0 -37 -17.5 -55.5t-60.5 -18.5h-106q-41 0 -59.5 18.5t-18.5 55.5v528h-672v-528q0 -37 -17.5 -55.5t-60.5 -18.5 h-108q-41 0 -58.5 18.5t-17.5 55.5z" />
<glyph unicode="I" horiz-adv-x="503" d="M121 74v1243q0 39 17.5 57.5t58.5 18.5h108q41 0 59.5 -18.5t18.5 -57.5v-1243q0 -37 -17.5 -55.5t-60.5 -18.5h-108q-41 0 -58.5 18.5t-17.5 55.5z" />
<glyph unicode="J" horiz-adv-x="997" d="M39 96q0 12 10 29l60 100q12 20 24 21q12 0 27 -13q47 -33 114.5 -52t143.5 -19q106 0 156.5 56t50.5 171v928q0 39 18.5 57.5t58.5 18.5h107q41 0 59.5 -18.5t18.5 -57.5v-928q0 -193 -110.5 -306.5t-332.5 -113.5q-225 1 -387 101q-18 10 -18 26z" />
<glyph unicode="K" horiz-adv-x="1298" d="M121 74v1243q0 39 17.5 57.5t58.5 18.5h108q41 0 59.5 -18.5t18.5 -57.5v-1243q0 -37 -17.5 -55.5t-60.5 -18.5h-108q-41 0 -58.5 18.5t-17.5 55.5zM412 698q0 27 7 41.5t27 40.5l482 588q12 16 24.5 20.5t38.5 4.5h189q14 0 22 -8.5t8 -20.5q0 -16 -12 -29l-530 -637 l542 -641q12 -12 13 -28q0 -12 -8.5 -20.5t-22.5 -8.5h-195q-22 0 -33.5 4t-23.5 19l-494 593q-18 23 -26 39.5t-8 42.5z" />
<glyph unicode="L" horiz-adv-x="1122" d="M121 74v1243q0 39 17.5 57.5t58.5 18.5h108q41 0 59.5 -18.5t18.5 -57.5v-1118h627q41 0 57 -17.5t16 -56.5v-55q0 -37 -16 -53.5t-57 -16.5h-813q-41 0 -58.5 18.5t-17.5 55.5z" />
<glyph unicode="M" horiz-adv-x="1601" d="M121 74v1243q0 39 17.5 57.5t60.5 18.5h110q33 0 50.5 -8.5t27.5 -32.5l414 -953l413 953q10 25 28 33t50 8h111q43 0 60.5 -18.5t17.5 -57.5v-1243q0 -37 -17.5 -55.5t-58.5 -18.5h-90q-41 0 -59.5 18.5t-18.5 55.5v882l-350 -780q-16 -33 -32.5 -47t-53.5 -14t-54.5 14 t-31.5 47l-350 780v-882q0 -37 -17.5 -55.5t-60.5 -18.5h-90q-41 0 -58.5 18.5t-17.5 55.5z" />
<glyph unicode="N" horiz-adv-x="1429" d="M121 74v1243q0 39 17.5 57.5t60.5 18.5h94q29 0 45 -8.5t33 -32.5l676 -938v903q0 39 17 57.5t58 18.5h109q41 0 59.5 -18.5t18.5 -57.5v-1243q0 -37 -17.5 -55.5t-60.5 -18.5h-96q-29 0 -43.5 7t-32.5 32l-676 936v-901q0 -37 -17.5 -55.5t-60.5 -18.5h-108 q-41 0 -58.5 18.5t-17.5 55.5z" />
<glyph unicode="O" horiz-adv-x="1560" d="M80 696q0 346 181 536.5t519 190.5q336 0 518.5 -190.5t182.5 -536.5t-182.5 -536.5t-518.5 -190.5q-338 0 -519 190.5t-181 536.5zM338 696q0 -262 113.5 -398t328.5 -136t328 136t113 398t-113 397.5t-328 135.5t-328.5 -135.5t-113.5 -397.5z" />
<glyph unicode="P" horiz-adv-x="1255" d="M121 74v1243q0 39 17.5 57.5t58.5 18.5h524q252 0 374 -120t122 -343q0 -221 -122 -340t-374 -119h-338v-397q0 -37 -17.5 -55.5t-60.5 -18.5h-108q-41 0 -58.5 18.5t-17.5 55.5zM383 670h326q125 0 186 64.5t61 195.5q0 133 -61 197.5t-186 64.5h-326v-522z" />
<glyph unicode="Q" horiz-adv-x="1560" d="M80 696q0 346 181 536.5t519 190.5q336 0 518.5 -190.5t182.5 -536.5q0 -324 -160 -509t-459 -210q4 -88 67.5 -131t162.5 -43q111 0 200 58q10 8 21 8q10 0 18 -14l62 -97q6 -12 6 -20q0 -12 -19 -25q-66 -43 -136 -63.5t-163 -20.5q-190 0 -301.5 94.5t-120.5 253.5 q-281 31 -430 217.5t-149 501.5zM338 696q0 -262 113.5 -398t328.5 -136t328 136t113 398t-113 397.5t-328 135.5t-328.5 -135.5t-113.5 -397.5z" />
<glyph unicode="R" horiz-adv-x="1296" d="M121 74v1243q0 39 17.5 57.5t58.5 18.5h534q238 0 362 -111t124 -328q0 -143 -68 -244.5t-197 -152.5l228 -504q6 -12 6 -22q0 -31 -37 -31h-168q-27 0 -39 7t-22 30l-207 485h-330v-448q0 -37 -17.5 -55.5t-60.5 -18.5h-108q-41 0 -58.5 18.5t-17.5 55.5zM383 719h295 q143 0 210.5 55t67.5 180q0 123 -61 180.5t-186 57.5h-326v-473z" />
<glyph unicode="S" horiz-adv-x="1206" d="M82 123q0 14 8 24l68 107q12 18 22 18t27 -10q76 -45 176 -72.5t203 -27.5q139 0 209.5 46t70.5 148q0 61 -26.5 98.5t-77.5 64t-166 71.5l-47 18q-133 53 -220 102.5t-144.5 129.5t-57.5 194q0 186 142.5 287.5t373.5 101.5q141 0 244.5 -26.5t179.5 -81.5 q25 -18 25 -35q0 -12 -9 -23l-65 -106q-12 -18 -21 -18q-8 0 -26 12q-131 84 -326 84q-129 0 -194.5 -47t-65.5 -150q0 -63 27.5 -101t81 -64.5t172.5 -71.5l51 -21q150 -59 233.5 -109.5t129.5 -125t46 -191.5q0 -176 -132 -277.5t-376 -101.5q-145 0 -285 32t-224 89 q-27 18 -27 33z" />
<glyph unicode="T" horiz-adv-x="1202" d="M39 1264v55q0 39 15.5 56.5t56.5 17.5h979q41 0 57 -17.5t16 -56.5v-55q0 -39 -16.5 -55.5t-56.5 -16.5h-359v-1118q0 -37 -17.5 -55.5t-60.5 -18.5h-106q-41 0 -59.5 18.5t-18.5 55.5v1118h-358q-41 0 -56.5 16.5t-15.5 55.5z" />
<glyph unicode="U" horiz-adv-x="1466" d="M111 492v825q0 39 17 57.5t58 18.5h109q41 0 59.5 -18.5t18.5 -57.5v-832q0 -160 93 -241.5t267 -81.5q172 0 265.5 82t93.5 241v832q0 39 18 57.5t59 18.5h107q80 0 80 -76v-825q0 -160 -79 -278t-220.5 -181.5t-323.5 -63.5q-184 0 -325.5 62.5t-219 181.5t-77.5 279z " />
<glyph unicode="V" horiz-adv-x="1482" d="M80 1360q0 14 9 23.5t26 9.5h176q27 0 41 -10.5t22 -32.5l387 -983l387 983q8 23 22.5 33t41.5 10h176q16 0 25.5 -9.5t9.5 -23.5q0 -12 -6 -25l-531 -1284q-12 -31 -26.5 -41t-42.5 -10h-111q-29 0 -42 10t-26 41l-532 1284q-6 12 -6 25z" />
<glyph unicode="W" horiz-adv-x="1804" d="M82 1362q0 31 39 31h166q31 0 43 -10.5t16 -32.5l205 -901l246 794q8 25 19 34t38 9h94q27 0 38 -9t20 -34l247 -794l203 901q4 23 17.5 33t42.5 10h167q39 0 39 -31q0 -12 -2 -19l-325 -1292q-8 -29 -23.5 -40t-44.5 -11h-110q-29 0 -44.5 11.5t-23.5 39.5l-248 819 l-246 -819q-8 -29 -23.5 -40t-43.5 -11h-113q-31 0 -46 11.5t-21 39.5l-324 1292q-2 6 -2 19z" />
<glyph unicode="X" horiz-adv-x="1460" d="M80 29q0 12 10 28l494 656l-467 622q-12 16 -13 31q0 12 8.5 19.5t24.5 7.5h191q23 0 33 -5.5t20 -19.5l348 -461l348 461q10 14 20.5 19.5t32.5 5.5h193q14 0 22.5 -7.5t8.5 -19.5q0 -14 -13 -31l-467 -622l494 -656q10 -16 10 -28t-9 -20.5t-23 -8.5h-191 q-20 0 -30.5 4t-20.5 19l-375 495l-373 -495q-10 -14 -20 -18.5t-31 -4.5h-192q-15 0 -24 8t-9 21z" />
<glyph unicode="Y" horiz-adv-x="1449" d="M80 1362q0 31 37 31h176q27 0 36 -7.5t21 -25.5l375 -651l373 651q10 18 21 25.5t36 7.5h178q37 0 37 -31q0 -12 -8 -27l-506 -868v-393q0 -37 -17.5 -55.5t-60.5 -18.5h-108q-41 0 -59.5 18.5t-18.5 55.5v395l-504 866q-8 14 -8 27z" />
<glyph unicode="Z" horiz-adv-x="1296" d="M80 70q0 35 9 60.5t38 62.5l739 999h-684q-41 0 -59.5 17.5t-18.5 56.5v55q0 39 18.5 55.5t59.5 16.5h963q39 0 53 -16.5t14 -55.5q0 -37 -8 -59.5t-39 -63.5l-737 -999h713q41 0 58.5 -17.5t17.5 -56.5v-55q0 -37 -17.5 -53.5t-58.5 -16.5h-996q-39 0 -52 15.5t-13 54.5 z" />
<glyph unicode="[" horiz-adv-x="630" d="M80 -70v1530q0 76 74 76h346q41 0 56 -16.5t15 -55.5v-55q0 -39 -15 -56.5t-56 -17.5h-158v-1280h158q41 0 56 -17.5t15 -55.5v-56q0 -37 -15 -53t-56 -16h-346q-39 0 -56.5 18.5t-17.5 54.5z" />
<glyph unicode="\" horiz-adv-x="985" d="M80 1397q0 27 29 26h190q23 0 34 -8t17 -26l549 -1338q6 -14 6 -26q0 -25 -28 -25h-193q-20 0 -30.5 7t-18.5 26l-549 1339q-6 16 -6 25z" />
<glyph unicode="]" horiz-adv-x="630" d="M59 -18q0 39 15.5 56t56.5 17h158v1280h-158q-41 0 -56.5 17.5t-15.5 56.5v55q0 39 15.5 55.5t56.5 16.5h346q74 0 74 -76v-1530q0 -37 -17.5 -55t-56.5 -18h-346q-41 0 -56.5 16t-15.5 53v56z" />
<glyph unicode="^" horiz-adv-x="1253" d="M80 723q0 12 10 29l414 661q23 35 38 47.5t48 12.5h72q33 0 48 -12.5t38 -47.5l415 -661q8 -14 8 -29q0 -29 -32 -29h-162q-27 0 -39 7.5t-25 27.5l-286 483l-287 -483q-12 -20 -25.5 -27.5t-40.5 -7.5h-161q-15 0 -24 8.5t-9 20.5z" />
<glyph unicode="_" horiz-adv-x="1105" d="M80 -92q0 33 13 47t46 14h826q33 0 47 -15t14 -46v-78q0 -31 -14.5 -46t-46.5 -15h-826q-33 0 -46 14t-13 47v78z" />
<glyph unicode="`" horiz-adv-x="542" d="M80 1495q0 16 13 24.5t36 8.5h162q33 0 44 -9.5t21 -33.5l101 -275q4 -8 4 -24q0 -33 -45 -33h-119q-29 0 -42 7t-26 30l-139 272q-10 20 -10 33z" />
<glyph unicode="a" horiz-adv-x="1259" d="M80 434q0 172 75.5 304t216 204t326.5 72q260 0 441 -123v-836q0 -31 -13.5 -43t-46.5 -12h-112q-23 0 -34 9t-15 30l-17 80q-63 -78 -156.5 -114t-226.5 -36q-201 0 -319.5 122t-118.5 343zM338 442q0 -147 68.5 -216.5t209.5 -69.5q109 0 192 63.5t83 167.5v399 q-43 23 -87 32t-108 9q-162 0 -260 -102t-98 -283z" />
<glyph unicode="b" horiz-adv-x="1263" d="M121 102v1215q0 39 17.5 57.5t58.5 18.5h104q41 0 59.5 -18.5t18.5 -57.5v-399q53 47 139 71.5t184 24.5q231 0 356.5 -127t125.5 -357q0 -266 -146.5 -413.5t-433.5 -147.5q-139 0 -272 38t-211 95zM379 205q35 -23 94 -36t119 -13q170 0 251 91t81 277 q0 156 -64.5 228.5t-216.5 72.5q-104 0 -184 -52t-80 -152v-416z" />
<glyph unicode="c" horiz-adv-x="1157" d="M80 487q0 156 69.5 275t199.5 185.5t304 66.5q129 0 219.5 -24.5t167.5 -80.5q18 -12 19 -26q0 -12 -10 -29l-56 -96q-12 -20 -22 -21q-10 0 -29 13q-63 39 -125.5 58t-148.5 19q-154 0 -242 -91t-88 -249q0 -166 88 -248.5t258 -82.5q86 0 149.5 20.5t122.5 59.5 q16 10 27 10q12 0 25 -21l59 -100q8 -10 8 -23q0 -14 -20 -28q-82 -53 -176.5 -79t-221.5 -26q-272 0 -424.5 134.5t-152.5 383.5z" />
<glyph unicode="d" horiz-adv-x="1263" d="M80 494q0 154 59.5 271.5t171 183t262.5 65.5q215 0 312 -96v399q0 39 18.5 57.5t59.5 18.5h102q41 0 59.5 -18.5t18.5 -57.5v-1215q-78 -57 -209 -95t-272 -38q-582 1 -582 525zM338 487q0 -176 82 -253.5t248 -77.5q137 0 217 49v418q0 100 -70 151t-180 51 q-150 0 -223.5 -90t-73.5 -248z" />
<glyph unicode="e" horiz-adv-x="1224" d="M80 475q0 264 141 401.5t402 137.5q258 0 390 -133t132 -385q0 -72 -66 -72h-751q0 -135 94 -208t262 -73q162 0 291 74q14 8 22 8q14 0 23 -18l49 -88q6 -12 6 -23q0 -14 -18 -26q-84 -51 -181.5 -76t-224.5 -25q-159 0 -288.5 54.5t-206 168t-76.5 283.5zM328 575h579 q0 127 -70.5 199t-211.5 72q-143 0 -220 -74t-77 -197z" />
<glyph unicode="f" horiz-adv-x="886" d="M39 864v47q0 39 15.5 55.5t56.5 16.5h96v76q0 172 92 268t276 96q186 0 293 -80q18 -12 19 -28q0 -12 -8 -23l-52 -86q-12 -18 -22 -18q-6 0 -23 8q-41 23 -74.5 34t-78.5 11q-88 0 -124 -43t-36 -135v-80h252q41 0 57.5 -16.5t16.5 -55.5v-47q0 -39 -16.5 -56t-57.5 -17 h-252v-717q0 -37 -17.5 -55.5t-60.5 -18.5h-108q-41 0 -58.5 18.5t-17.5 55.5v717h-96q-41 0 -56.5 17t-15.5 56z" />
<glyph unicode="g" horiz-adv-x="1263" d="M80 479q0 258 152.5 396.5t441.5 138.5q133 0 261 -37t208 -92v-703q0 -248 -121 -389t-379 -141q-119 0 -231.5 22.5t-171.5 59.5q-33 18 -17 45l60 100q12 20 24 21q8 0 21 -6q113 -57 293 -58q137 0 200.5 65.5t63.5 221.5q-57 -61 -134 -91t-186 -30q-229 0 -357 125 t-128 352zM338 496q0 -152 71.5 -226.5t217.5 -74.5q114 0 186 60t72 167v364q-39 18 -98.5 28.5t-124.5 10.5q-324 0 -324 -329z" />
<glyph unicode="h" horiz-adv-x="1220" d="M121 74v1263q0 31 10 43.5t43 12.5h141q33 0 44.5 -12.5t11.5 -43.5v-458q68 68 157.5 101.5t212.5 33.5q166 0 267.5 -89t101.5 -268v-583q0 -37 -17.5 -55.5t-58.5 -18.5h-108q-41 0 -59.5 18.5t-18.5 55.5v567q0 100 -48 142t-147 42q-68 0 -130 -26.5t-101 -73.5 t-39 -109v-542q0 -37 -17.5 -55.5t-60.5 -18.5h-106q-41 0 -59.5 18.5t-18.5 55.5z" />
<glyph unicode="i" horiz-adv-x="536" d="M121 1251v43q0 41 26.5 70t75.5 29h88q49 0 77 -29t28 -70v-43q0 -41 -28 -69.5t-77 -28.5h-88q-49 0 -75.5 28.5t-26.5 69.5zM137 74v833q0 39 18.5 57.5t59.5 18.5h107q41 0 59 -18.5t18 -57.5v-833q0 -37 -17 -55.5t-60 -18.5h-107q-41 0 -59.5 18.5t-18.5 55.5z" />
<glyph unicode="j" horiz-adv-x="634" d="M-252 -223q0 10 10 26l58 99q12 20 24 20q10 0 27 -12q47 -33 93 -49.5t103 -16.5q98 0 134 44t36 143v876q0 76 78 76h109q41 0 59.5 -18.5t18.5 -57.5v-882q0 -174 -97.5 -273.5t-291.5 -99.5q-105 0 -194 23.5t-148 70.5q-18 14 -19 31zM217 1251v43q0 41 27.5 70 t74.5 29h91q49 0 76.5 -29t27.5 -70v-43q0 -41 -27.5 -69.5t-76.5 -28.5h-91q-47 0 -74.5 28.5t-27.5 69.5z" />
<glyph unicode="k" horiz-adv-x="1148" d="M121 74v1243q0 39 17.5 57.5t58.5 18.5h108q41 0 59.5 -18.5t18.5 -57.5v-1243q0 -37 -17.5 -55.5t-60.5 -18.5h-108q-41 0 -58.5 18.5t-17.5 55.5zM410 512q0 27 8 44t26 38l349 364q12 14 23 19.5t38 5.5h190q14 0 21.5 -8t7.5 -21q0 -16 -12 -28l-408 -414l422 -455 q12 -12 12 -26q0 -12 -8 -21.5t-22 -9.5h-197q-22 0 -32.5 4t-22.5 19l-361 407q-18 20 -26 37.5t-8 44.5z" />
<glyph unicode="l" horiz-adv-x="503" d="M121 74v1243q0 39 17.5 57.5t58.5 18.5h108q41 0 59.5 -18.5t18.5 -57.5v-1243q0 -37 -17.5 -55.5t-60.5 -18.5h-108q-41 0 -58.5 18.5t-17.5 55.5z" />
<glyph unicode="m" horiz-adv-x="1658" d="M121 74v854q0 31 10 43t43 12h109q23 0 33 -9t12 -32l6 -86q59 76 136 117t183 41q90 0 157 -40t97 -118q113 158 326 158q145 0 230 -88t85 -262v-590q0 -37 -17.5 -55.5t-60.5 -18.5h-90q-41 0 -59 18.5t-18 55.5v575q0 94 -40 135t-120 41q-84 0 -136.5 -55 t-52.5 -149v-547q0 -37 -18 -55.5t-59 -18.5h-84q-41 0 -59.5 18.5t-18.5 55.5v585q0 86 -36 126t-114 40q-88 0 -143 -58t-55 -153v-540q0 -37 -17.5 -55.5t-60.5 -18.5h-90q-41 0 -59.5 18.5t-18.5 55.5z" />
<glyph unicode="n" horiz-adv-x="1220" d="M121 74v854q0 31 10 43t43 12h117q45 0 47 -41l4 -82q139 154 399 154q166 0 267.5 -89t101.5 -268v-583q0 -37 -17.5 -55.5t-58.5 -18.5h-108q-41 0 -59.5 18.5t-18.5 55.5v567q0 100 -46 142t-149 42q-109 0 -189.5 -58t-80.5 -151v-542q0 -37 -17.5 -55.5t-60.5 -18.5 h-106q-41 0 -59.5 18.5t-18.5 55.5z" />
<glyph unicode="o" horiz-adv-x="1271" d="M80 492q0 242 144.5 382t410.5 140t411.5 -140.5t145.5 -381.5q0 -242 -145.5 -382.5t-411.5 -140.5t-410.5 140.5t-144.5 382.5zM338 492q0 -160 77 -245t220 -85q145 0 221 84t76 246q0 160 -76 242.5t-221 82.5q-143 0 -220 -83t-77 -242z" />
<glyph unicode="p" horiz-adv-x="1263" d="M121 -340v1225q78 55 208 92t261 37q594 0 594 -525q0 -242 -130 -381t-358 -139q-207 0 -317 119v-428q0 -39 -17.5 -56.5t-60.5 -17.5h-104q-41 0 -58.5 18.5t-17.5 55.5zM379 383q0 -104 73.5 -165.5t182.5 -61.5q145 0 217 88t72 254q0 178 -84 252.5t-258 74.5 q-129 0 -203 -39v-403z" />
<glyph unicode="q" horiz-adv-x="1263" d="M80 461q0 264 153.5 408.5t440.5 144.5q133 0 261 -37t208 -92v-1225q0 -39 -17.5 -56.5t-60.5 -17.5h-102q-41 0 -59.5 17.5t-18.5 56.5v428q-111 -119 -320 -119q-227 0 -356 131t-129 361zM338 469q0 -313 289 -313q108 0 183 61.5t75 165.5v403q-74 39 -205 39 q-164 0 -253 -89t-89 -267z" />
<glyph unicode="r" horiz-adv-x="851" d="M121 74v854q0 31 10 43t43 12h117q23 0 33 -9t12 -32l6 -74q121 145 317 146q90 0 138 -31q12 -8 15 -17.5t-1 -21.5l-37 -123q-6 -20 -22 -20l-17 4q-47 22 -107 22h-5q-104 0 -172 -58t-68 -159v-536q0 -37 -17.5 -55.5t-60.5 -18.5h-106q-41 0 -59.5 18.5t-18.5 55.5z " />
<glyph unicode="s" horiz-adv-x="1067" d="M80 102q0 12 8 23l57 100q10 18 21 19q10 0 27 -11q61 -37 151 -61.5t166 -24.5q117 0 167 24t50 85q0 35 -19.5 56.5t-58.5 38t-129 44.5l-67 23q-117 39 -186.5 75.5t-107.5 93t-38 142.5q0 139 117.5 212t306.5 73q229 0 395 -99q27 -14 27 -30q0 -10 -11 -27l-55 -88 q-12 -18 -20 -18t-25 10q-53 33 -128 52.5t-150 19.5q-102 0 -150.5 -21.5t-48.5 -83.5q0 -53 56.5 -84t195.5 -74l67 -20q160 -51 224.5 -121t64.5 -174q0 -127 -111.5 -207t-328.5 -80q-123 0 -240 25.5t-201 77.5q-27 14 -26 30z" />
<glyph unicode="t" horiz-adv-x="935" d="M39 858v55q0 39 13.5 54.5t53.5 15.5h117v113q0 43 15.5 80.5t48.5 95.5q12 25 23.5 32t39.5 7h68q37 0 52 -17.5t15 -52.5v-258h242q41 0 54.5 -15.5t13.5 -54.5v-55q0 -39 -13.5 -53t-54.5 -14h-242v-451q0 -94 33 -136t113 -42q47 0 79.5 11t71.5 38q10 8 23 8 q12 0 24 -18l60 -99q8 -10 8 -22q0 -14 -20 -29q-127 -82 -304 -82q-174 0 -262 96.5t-88 266.5v459h-117q-41 0 -54 14t-13 53z" />
<glyph unicode="u" horiz-adv-x="1208" d="M111 340v567q0 39 17 57.5t58 18.5h109q41 0 59.5 -18.5t18.5 -57.5v-561q0 -98 51 -144t151 -46q106 0 178 59t72 154v538q0 39 18.5 57.5t59.5 18.5h107q41 0 59 -18.5t18 -57.5v-852q0 -33 -10 -44t-43 -11h-114q-23 0 -33 9t-13 30l-8 86q-139 -156 -383 -156 q-168 0 -270 93.5t-102 277.5z" />
<glyph unicode="v" horiz-adv-x="1243" d="M80 950q0 14 9 23.5t26 9.5h170q27 0 39 -9t22 -34l275 -639l274 639q10 23 23.5 33t39.5 10h170q16 0 25.5 -9t9.5 -24q0 -12 -6 -24l-412 -875q-14 -29 -28.5 -40t-42.5 -11h-105q-28 0 -42.5 11.5t-28.5 39.5l-412 875q-6 12 -6 24z" />
<glyph unicode="w" horiz-adv-x="1593" d="M82 956q0 27 33 27h157q25 0 35 -8t15 -29l178 -627l202 539q8 20 18.5 29.5t33.5 9.5h88q23 0 32 -8t17 -31l201 -539l180 627q6 20 14 28.5t35 8.5h158q33 0 32 -27q0 -10 -2 -16l-280 -897q-8 -27 -19.5 -35t-35.5 -8h-119q-23 0 -33 9t-21 34l-204 551l-205 -551 q-10 -25 -21.5 -34t-33.5 -9h-117q-25 0 -37 9t-21 34l-278 897q-2 6 -2 16z" />
<glyph unicode="x" horiz-adv-x="1232" d="M80 29q0 14 12 28l377 443l-360 426q-12 16 -13 28q0 29 33 29h190q23 0 33 -5t21 -20l241 -282l246 282q12 14 22.5 19.5t30.5 5.5h191q33 0 33 -29q0 -12 -13 -28l-362 -426l379 -443q12 -14 12 -28q0 -12 -10 -20.5t-25 -8.5h-190q-20 0 -29.5 4t-21.5 19l-263 301 l-258 -301q-12 -14 -21 -18.5t-30 -4.5h-190q-15 0 -25 8t-10 21z" />
<glyph unicode="y" horiz-adv-x="1218" d="M86 -209q0 12 8 23l58 98q12 20 24 20q10 0 25 -12q33 -25 66.5 -37t80.5 -12q61 0 96 40t72 134l-414 881q-8 20 -8 28q0 29 33 29h174q27 0 39 -8t22 -31l275 -643l274 643q10 23 22.5 31t39.5 8h174q33 0 33 -29q0 -8 -9 -28l-385 -822q-80 -168 -134 -254 t-122.5 -127.5t-171.5 -41.5q-77 0 -142.5 22.5t-113.5 60.5q-16 14 -16 27z" />
<glyph unicode="z" horiz-adv-x="1124" d="M82 59q0 55 12 82t58 74l544 567h-518q-41 0 -59.5 16.5t-18.5 55.5v59q0 39 18.5 54.5t59.5 15.5h789q33 0 45 -13.5t12 -45.5q0 -55 -13.5 -85t-54.5 -73l-528 -567h539q41 0 59 -17.5t18 -56.5v-55q0 -37 -18 -53.5t-59 -16.5h-824q-34 0 -47.5 13.5t-13.5 45.5z" />
<glyph unicode="{" horiz-adv-x="772" d="M39 672v47q0 39 15.5 56.5t56.5 17.5h147v667q0 39 18.5 57.5t59.5 18.5h303q41 0 57.5 -16.5t16.5 -55.5v-47q0 -39 -16.5 -56.5t-57.5 -17.5h-123v-1296h123q41 0 57.5 -17.5t16.5 -56.5v-47q0 -37 -16.5 -53t-57.5 -16h-303q-41 0 -59.5 17t-18.5 56v672h-147 q-41 0 -56.5 16.5t-15.5 53.5z" />
<glyph unicode="|" horiz-adv-x="421" d="M80 -111v1612q0 39 17.5 57.5t58.5 18.5h108q41 0 59.5 -18.5t18.5 -57.5v-1612q0 -39 -17.5 -56t-60.5 -17h-108q-41 0 -58.5 18.5t-17.5 54.5z" />
<glyph unicode="}" horiz-adv-x="772" d="M59 -27q0 39 15.5 56.5t56.5 17.5h125v1296h-125q-41 0 -56.5 17.5t-15.5 56.5v47q0 39 15.5 55.5t56.5 16.5h305q41 0 59.5 -18.5t18.5 -57.5v-667h145q41 0 57.5 -17.5t16.5 -56.5v-47q0 -37 -16.5 -53.5t-57.5 -16.5h-145v-672q0 -39 -17.5 -56t-60.5 -17h-305 q-41 0 -56.5 16t-15.5 53v47z" />
<glyph unicode="~" horiz-adv-x="1226" d="M82 594q0 23 29 61q55 72 122.5 113t159.5 41q66 0 122 -21.5t124 -62.5q61 -33 99 -49.5t79 -16.5q49 0 80 19.5t68 62.5q29 35 55 35q27 0 76 -37q45 -35 45 -67q0 -27 -27 -62q-55 -72 -120.5 -112.5t-153.5 -40.5q-64 0 -117 20.5t-123 59.5q-59 35 -102 52t-90 17 q-49 0 -78 -19.5t-70 -62.5q-27 -31 -55 -30q-29 0 -80 38q-43 33 -43 62z" />
<glyph unicode="&#xa1;" horiz-adv-x="454" d="M80 1139v43q0 84 121 84h53q121 0 121 -84v-43q0 -86 -121 -86h-53q-121 0 -121 86zM96 -51l13 856q0 39 15 56.5t50 17.5h100q41 0 56.5 -17.5t15.5 -56.5l14 -856q0 -39 -17 -57.5t-58 -18.5h-113q-41 0 -58.5 18.5t-17.5 57.5z" />
<glyph unicode="&#xa2;" horiz-adv-x="1157" d="M80 487q0 209 121 347.5t327 164.5v119q0 39 18.5 57.5t59.5 18.5h90q41 0 59.5 -18.5t18.5 -57.5v-114q162 -18 266 -95q18 -12 19 -26q0 -12 -10 -29l-56 -96q-12 -20 -22 -21q-10 0 -29 13q-59 39 -121.5 58t-152.5 19q-152 0 -241 -92t-89 -248q0 -166 91 -248.5 t255 -82.5q150 0 272 80q16 10 27 10q12 0 25 -21l59 -100q8 -10 8 -23q0 -14 -20 -28q-119 -78 -281 -97v-114q0 -39 -17.5 -56.5t-60.5 -17.5h-90q-41 0 -59.5 17.5t-18.5 56.5v119q-215 27 -331.5 155.5t-116.5 349.5z" />
<glyph unicode="&#xa3;" horiz-adv-x="1163" d="M80 74v45q0 39 15.5 55t56.5 16q49 0 78.5 43t29.5 119v312h-96q-41 0 -56.5 17t-15.5 56v47q0 39 15.5 55.5t56.5 16.5h96v186q0 172 111.5 276.5t308.5 104.5q203 0 309 -80q18 -12 19 -28q0 -12 -9 -23l-51 -86q-12 -18 -22 -18q-6 0 -23 8q-35 20 -82 32.5t-96 12.5 q-94 0 -148.5 -48t-54.5 -146v-191h289q41 0 57.5 -16.5t16.5 -55.5v-47q0 -39 -16.5 -56t-57.5 -17h-289v-273q0 -70 -14 -119t-49 -82h551q41 0 57 -16t16 -55v-45q0 -39 -16 -56.5t-57 -17.5h-858q-41 0 -56.5 17.5t-15.5 56.5z" />
<glyph unicode="&#xa4;" horiz-adv-x="1112" d="M78 291q0 16 22 39l80 80q-66 102 -65 215q0 113 65 217l-80 78q-20 18 -20 38q0 18 18 37l78 74q20 20 43 21q20 0 41 -21l92 -84q94 57 205 57q109 0 203 -57l90 84q25 20 41 21q18 0 45 -23l76 -72q20 -20 20 -37q0 -16 -22 -38l-78 -78q68 -100 67 -217 q0 -113 -67 -215l78 -80q23 -23 22 -39q0 -16 -20 -37l-76 -72q-27 -23 -45 -22q-16 0 -41 20l-90 86q-88 -57 -203 -57q-113 0 -205 57l-92 -86q-21 -18 -41 -18t-43 20l-78 72q-20 18 -20 37zM336 625q0 -90 64.5 -156t156.5 -66q90 0 155.5 66t65.5 156q0 92 -65.5 156.5 t-155.5 64.5q-92 0 -156.5 -64.5t-64.5 -156.5z" />
<glyph unicode="&#xa5;" horiz-adv-x="1449" d="M80 1362q0 31 37 31h176q27 0 36 -7.5t21 -25.5l375 -653l373 653q10 18 21 25.5t36 7.5h178q37 0 37 -31q0 -12 -8 -27l-414 -710h137q37 0 50.5 -13.5t13.5 -52.5v-39q0 -37 -13.5 -49t-50.5 -12h-229v-113h229q37 0 50.5 -13.5t13.5 -51.5v-39q0 -39 -13.5 -51.5 t-50.5 -12.5h-229v-104q0 -37 -17.5 -55.5t-60.5 -18.5h-108q-41 0 -59.5 18.5t-18.5 55.5v104h-240q-37 0 -50 12.5t-13 51.5v39q0 39 13 52t50 13h240v113h-240q-37 0 -50 12t-13 49v39q0 39 13 52.5t50 13.5h148l-412 710q-8 14 -8 27z" />
<glyph unicode="&#xa6;" horiz-adv-x="421" d="M80 254q0 39 17.5 57.5t58.5 18.5h108q41 0 59.5 -18.5t18.5 -57.5v-629q0 -39 -17.5 -56.5t-60.5 -17.5h-108q-41 0 -58.5 18.5t-17.5 55.5v629zM80 791v628q0 39 17.5 57.5t58.5 18.5h108q41 0 59.5 -18.5t18.5 -57.5v-628q0 -37 -17.5 -55.5t-60.5 -18.5h-108 q-41 0 -58.5 18.5t-17.5 55.5z" />
<glyph unicode="&#xa7;" horiz-adv-x="1206" d="M82 -168q0 12 8 23l64 102q10 18 20 18t27 -10q82 -47 173 -69.5t212 -22.5q135 0 208.5 39t73.5 137q0 61 -30.5 100t-79.5 64t-142 59l-92 35q-125 51 -205.5 97.5t-133 117t-52.5 172.5t47 183q-51 78 -51 178q0 174 135 271t367 97q285 0 436 -108q25 -18 25 -35 q0 -12 -9 -23l-65 -106q-12 -18 -21 -18q-8 0 -26 12q-131 84 -326 84q-135 0 -196.5 -41t-61.5 -133q0 -66 25.5 -105t71.5 -63.5t145 -61.5q45 -14 98 -37q135 -53 213 -97t131 -121.5t53 -196.5q0 -39 -13 -79t-38 -73q53 -63 53 -174q0 -172 -131 -269t-383 -97 q-159 0 -279 27.5t-224 86.5q-27 14 -27 37zM342 717q0 -61 24.5 -97t69.5 -59.5t148 -66.5l63 -25q106 -43 161.5 -67.5t102.5 -55.5q4 17 4 33q0 57 -25.5 95t-81.5 69.5t-159 70.5q-119 45 -185.5 74t-115.5 66q-6 -12 -6 -37z" />
<glyph unicode="&#xa8;" horiz-adv-x="808" d="M80 1239v39q0 43 26.5 71.5t69.5 28.5h41q41 0 68.5 -29.5t27.5 -70.5v-39q0 -43 -26.5 -72.5t-69.5 -29.5h-41q-43 0 -69.5 29.5t-26.5 72.5zM496 1239v39q0 43 26.5 71.5t69.5 28.5h41q43 0 69.5 -28.5t26.5 -71.5v-39q0 -43 -26.5 -72.5t-69.5 -29.5h-41 q-43 0 -69.5 29.5t-26.5 72.5z" />
<glyph unicode="&#xa9;" horiz-adv-x="1630" d="M80 696q0 197 99.5 364t268 265t367.5 98t368 -98t268 -265t99 -364t-99 -363.5t-268 -265t-368 -98.5t-367.5 98.5t-268 265.5t-99.5 363zM244 696q0 -164 73.5 -295t203.5 -205.5t294 -74.5q162 0 292 74.5t203.5 205.5t73.5 295q0 162 -73.5 293t-203.5 206t-292 75 q-164 0 -294 -75t-203.5 -206t-73.5 -293zM336 692q0 147 58.5 258t165 171.5t247.5 60.5q113 0 195.5 -22.5t144.5 -74.5q12 -12 12 -22q0 -8 -6 -21l-35 -69q-8 -14 -18 -15q-10 0 -21 9q-49 35 -107.5 52t-144.5 17q-145 0 -226 -91t-81 -253q0 -170 83 -254t239 -84 q78 0 136 18.5t109 53.5q10 8 21 8q10 0 18 -14l37 -70q6 -8 6 -18q0 -12 -14 -25q-135 -96 -334 -96q-229 0 -357 125t-128 356z" />
<glyph unicode="&#xaa;" horiz-adv-x="761" d="M80 948q0 98 65.5 150.5t180.5 52.5h204v23q0 68 -37.5 99.5t-115.5 31.5q-45 0 -82 -9.5t-80 -29.5q-4 -2 -10 -2q-8 0 -15 10l-45 76q-2 2 -2 8q0 10 21 20q96 45 223 45q156 0 225.5 -65.5t69.5 -202.5v-356q0 -27 -31 -27h-80q-27 0 -30 27l-9 47q-76 -92 -227 -92 q-102 0 -163.5 51t-61.5 143zM231 954q0 -47 28 -68.5t89 -21.5q78 0 130 43t52 113v24h-182q-63 0 -90 -20t-27 -70z" />
<glyph unicode="&#xab;" horiz-adv-x="1357" d="M80 557v31q0 16 8 28.5t21.5 26.5t17.5 19l385 403q29 29 49 29q18 0 37 -19l82 -82q23 -23 22 -41q0 -18 -22 -41l-332 -338l332 -340q23 -23 22 -40q0 -18 -22 -41l-82 -82q-19 -19 -37 -19q-20 0 -49 29l-385 403q-4 4 -19.5 20.5t-21.5 29t-6 24.5zM653 557v31 q0 16 8.5 28.5t21.5 26.5t17 19l385 403q29 29 50 29q18 0 36 -19l82 -82q23 -23 23 -41t-23 -41l-331 -338l331 -340q23 -23 23 -40q0 -18 -23 -41l-82 -82q-18 -19 -36 -19q-20 0 -50 29l-385 403q-4 4 -19 20.5t-21.5 29t-6.5 24.5z" />
<glyph unicode="&#xac;" horiz-adv-x="964" d="M80 584v53q0 39 15.5 56.5t56.5 17.5h659q41 0 57.5 -17.5t16.5 -56.5v-322q0 -41 -18.5 -56t-57.5 -15h-68q-39 0 -56 15t-17 56v197h-516q-41 0 -56.5 16.5t-15.5 55.5z" />
<glyph unicode="&#xad;" horiz-adv-x="964" d="M80 584v53q0 39 15.5 56.5t56.5 17.5h659q41 0 57.5 -17.5t16.5 -56.5v-53q0 -39 -16.5 -55.5t-57.5 -16.5h-659q-41 0 -56.5 16.5t-15.5 55.5z" />
<glyph unicode="&#xae;" horiz-adv-x="1630" d="M80 696q0 197 99.5 364t268 265t367.5 98t368 -98t268 -265t99 -364t-99 -363.5t-268 -265t-368 -98.5t-367.5 98.5t-268 265.5t-99.5 363zM244 696q0 -164 73.5 -295t203.5 -205.5t294 -74.5q162 0 292 74.5t203.5 205.5t73.5 295q0 162 -73.5 293t-203.5 206t-292 75 q-164 0 -294 -75t-203.5 -206t-73.5 -293zM496 309v789q0 51 55 51h346q307 0 307 -281q0 -213 -203 -260l146 -313q6 -12 6 -21q0 -18 -25 -18h-110q-16 0 -23.5 4t-13.5 19l-137 309h-170v-279q0 -53 -53 -53h-70q-55 0 -55 53zM674 723h200q90 0 126 35t36 110 q0 80 -34.5 113t-120.5 33h-207v-291z" />
<glyph unicode="&#xaf;" horiz-adv-x="866" d="M80 1282v53q0 39 15.5 56.5t56.5 17.5h561q41 0 57 -17.5t16 -56.5v-53q0 -39 -16 -55.5t-57 -16.5h-561q-41 0 -56.5 16.5t-15.5 55.5z" />
<glyph unicode="&#xb0;" horiz-adv-x="684" d="M80 1200q0 125 70.5 192.5t191.5 67.5t191.5 -67.5t70.5 -192.5t-70.5 -193.5t-191.5 -68.5t-191.5 68.5t-70.5 193.5zM223 1200q0 -59 33 -91t86 -32t86 32t33 91q0 57 -33 89t-86 32t-86 -32t-33 -89z" />
<glyph unicode="&#xb1;" horiz-adv-x="940" d="M68 61v76q0 33 13 47.5t46 14.5h686q31 0 45 -15.5t14 -46.5v-76q0 -33 -13 -47t-46 -14h-686q-33 0 -46 14.5t-13 46.5zM72 696v76q0 35 15 48.5t50 13.5h228v194q0 33 12 46t49 13h94q37 0 49.5 -13t12.5 -46v-194h229q35 0 50.5 -13.5t15.5 -48.5v-76q0 -35 -15.5 -48 t-50.5 -13h-229v-193q0 -33 -12.5 -46t-49.5 -13h-94q-37 0 -49 13.5t-12 45.5v193h-228q-35 0 -50 13.5t-15 47.5z" />
<glyph unicode="&#xb2;" horiz-adv-x="786" d="M82 627v61q0 76 60.5 143.5t185.5 143.5q109 66 143.5 103.5t34.5 97.5q0 49 -37 74.5t-109 25.5q-98 0 -188 -47l-16 -4q-8 0 -15 8l-41 86q-6 10 -6 16q0 10 12 17q45 31 125 51t168 20q137 0 219 -64.5t82 -170.5q0 -94 -46 -154.5t-165 -130.5q-92 -51 -136 -87 t-52 -73h365q23 0 32 -10t9 -35v-71q0 -23 -9.5 -32t-31.5 -9h-545q-39 0 -39 41z" />
<glyph unicode="&#xb3;" horiz-adv-x="792" d="M78 655q0 8 6 17l43 82q6 10 12 10q8 0 17 -6q94 -47 184 -47q92 0 131 27.5t39 88.5q0 59 -29.5 85t-95.5 26h-88q-27 0 -37 10t-10 33v59q0 23 10 32t37 9h88q100 0 100 105q0 47 -31.5 71.5t-105.5 24.5q-53 0 -93 -11t-87 -36q-20 -12 -29 4l-41 82q-6 10 -6 16 t10 17q45 33 118 51t155 18q147 0 230 -63.5t83 -169.5q0 -61 -23.5 -104.5t-76.5 -73.5q125 -45 125 -189q0 -115 -86 -183.5t-256 -68.5q-78 0 -159 19.5t-122 48.5q-12 10 -12 16z" />
<glyph unicode="&#xb4;" horiz-adv-x="542" d="M80 1186q0 16 4 24l98 269q12 29 25.5 39t50.5 10h150q51 0 51 -35q0 -14 -8 -31l-136 -264q-14 -27 -29.5 -36t-54.5 -9h-106q-45 0 -45 33z" />
<glyph unicode="&#xb5;" horiz-adv-x="1136" d="M80 -287v1194q0 41 19.5 58.5t64.5 17.5h100q41 0 59.5 -18.5t18.5 -57.5v-561q0 -190 203 -190q111 0 180.5 58t69.5 155v538q0 43 21.5 59.5t76.5 16.5h86q43 0 60.5 -18.5t17.5 -57.5v-852q0 -33 -10.5 -44t-42.5 -11h-117q-23 0 -33 9t-12 30l-6 86 q-49 -76 -122 -116t-186 -40q-53 0 -103 14.5t-83 39.5v-310q0 -43 -21.5 -59t-76.5 -16h-88q-41 0 -58.5 18t-17.5 57z" />
<glyph unicode="&#xb6;" horiz-adv-x="1542" d="M80 952q0 231 128 336t408 105h781q35 0 50 -16.5t15 -49.5v-70q0 -35 -14 -50t-51 -15h-115v-1323q0 -39 -17.5 -56.5t-60.5 -17.5h-106q-41 0 -58.5 18.5t-17.5 55.5v1323h-223v-1323q0 -37 -18.5 -55.5t-61.5 -18.5h-105q-41 0 -59 17.5t-18 56.5v682 q-223 0 -340 100.5t-117 300.5z" />
<glyph unicode="&#xb7;" horiz-adv-x="370" d="M80 637v35q0 39 24.5 65.5t61.5 26.5h39q37 0 61.5 -26.5t24.5 -65.5v-35q0 -37 -24.5 -64.5t-61.5 -27.5h-39q-37 0 -61.5 27.5t-24.5 64.5z" />
<glyph unicode="&#xb8;" horiz-adv-x="581" d="M82 -436.5q-4 6.5 2 20.5l29 72q6 14 16 14q8 0 21 -6q41 -23 94 -22q43 0 61.5 14t18.5 45q0 41 -29 54.5t-94 13.5h-31q-16 0 -21.5 9t1.5 23l55 140q6 16 15 22t30 6h131q25 0 25 -16q0 -10 -5 -16l-47 -103q72 -6 110 -44t38 -107q0 -78 -59.5 -124t-170.5 -46 q-47 0 -94 10t-74 24q-18 10 -22 16.5z" />
<glyph unicode="&#xb9;" horiz-adv-x="747" d="M80 1204q0 16 20 29l242 145q25 14 49 15h68q57 0 57 -56v-604h139q29 0 41.5 -12t12.5 -41v-43q0 -29 -12.5 -40t-41.5 -11h-479q-31 0 -43 11t-12 40v43q0 29 12 41t43 12h141v459l-137 -84q-16 -8 -22 -8q-16 0 -29 20l-43 66q-6 10 -6 18z" />
<glyph unicode="&#xba;" horiz-adv-x="845" d="M80 1087q0 158 90 247t252 89t253 -89t91 -247t-91 -245.5t-253 -87.5t-252 88t-90 245zM252 1087q0 -100 44 -152t126 -52t127 52t45 152t-45 151.5t-127 51.5t-126 -51t-44 -152z" />
<glyph unicode="&#xbb;" horiz-adv-x="1357" d="M80 190q0 18 24 43l330 340l-330 338q-25 25 -24 43q0 16 22 39l82 82q18 18 37 19q20 0 49 -29l385 -403q6 -6 21.5 -22.5t22 -28t6.5 -23.5v-31q0 -16 -8.5 -27.5t-21.5 -24.5t-20 -22l-385 -403q-29 -29 -49 -29q-18 0 -37 19l-82 82q-23 23 -22 38zM653 190 q0 18 25 43l330 340l-330 338q-25 25 -25 43q0 16 23 39l82 82q18 18 37 19q20 0 49 -29l385 -403q6 -6 21.5 -22.5t21.5 -28t6 -23.5v-31q0 -16 -8 -27.5t-21.5 -24.5t-19.5 -22l-385 -403q-29 -29 -49 -29q-18 0 -37 19l-82 82q-23 23 -23 38z" />
<glyph unicode="&#xbc;" horiz-adv-x="1675" d="M59 1204q0 16 21 29l242 145q20 14 49 15h67q57 0 58 -56v-604h139q29 0 41 -12t12 -41v-43q0 -29 -12 -40t-41 -11h-479q-31 0 -43.5 11t-12.5 40v43q0 29 12.5 41t43.5 12h141v459l-137 -84q-16 -8 -23 -8q-16 0 -28 20l-43 66q-6 10 -7 18zM334 27q0 14 8 24l850 1307 q12 18 23.5 26.5t29.5 8.5h162q14 0 22.5 -7.5t8.5 -19.5q0 -14 -8 -25l-855 -1312q-12 -18 -21 -23.5t-34 -5.5h-155q-15 0 -23 7t-8 20zM866 205v51q0 25 6.5 41t24.5 39l352 440q12 18 25.5 24.5t42.5 6.5h106q27 0 36 -10.5t9 -34.5v-443h76q31 0 43 -11t12 -40v-45 q0 -27 -11 -37t-44 -10h-76v-125q0 -27 -14 -39t-45 -12h-88q-31 0 -45 12.5t-14 38.5v125h-365q-16 0 -23.5 6t-7.5 23zM1087 319h205v267z" />
<glyph unicode="&#xbd;" horiz-adv-x="1810" d="M59 1204q0 16 21 29l242 145q20 14 49 15h67q57 0 58 -56v-604h139q29 0 41 -12t12 -41v-43q0 -29 -12 -40t-41 -11h-479q-31 0 -43.5 11t-12.5 40v43q0 29 12.5 41t43.5 12h141v459l-137 -84q-16 -8 -23 -8q-16 0 -28 20l-43 66q-6 10 -7 18zM334 27q0 14 8 24l850 1307 q12 18 23.5 26.5t29.5 8.5h162q14 0 22.5 -7.5t8.5 -19.5q0 -14 -8 -25l-855 -1312q-12 -18 -21 -23.5t-34 -5.5h-155q-15 0 -23 7t-8 20zM1073 41v61q0 76 60.5 143.5t185.5 143.5q109 66 143.5 103.5t34.5 97.5q0 49 -37 74.5t-108 25.5q-98 0 -189 -47l-16 -4q-8 0 -14 8 l-41 86q-6 10 -7 17q0 10 13 16q45 31 125 51.5t168 20.5q137 0 219 -64.5t82 -171.5q0 -94 -46.5 -155.5t-164.5 -129.5q-94 -55 -138.5 -88.5t-50.5 -70.5h365q23 0 32 -10.5t9 -34.5v-72q0 -23 -9.5 -32t-31.5 -9h-545q-39 0 -39 41z" />
<glyph unicode="&#xbe;" horiz-adv-x="1691" d="M70 655q0 8 6 17l43 82q6 10 12 10q8 0 16 -6q94 -47 185 -47q92 0 131 27.5t39 88.5q0 59 -30 85t-95 26h-88q-27 0 -37 10t-10 33v59q0 23 10 32t37 9h88q100 0 100 105q0 47 -31.5 71.5t-105.5 24.5q-53 0 -93 -11t-87 -36q-20 -12 -29 4l-41 82q-6 10 -6 16t10 17 q45 33 118 51t155 18q147 0 230 -63.5t83 -169.5q0 -61 -23.5 -104.5t-76.5 -73.5q125 -45 125 -189q0 -115 -86.5 -183.5t-256.5 -68.5q-77 0 -158 19.5t-122 48.5q-12 10 -12 16zM334 27q0 14 8 24l850 1307q12 18 23.5 26.5t29.5 8.5h162q14 0 22.5 -7.5t8.5 -19.5 q0 -14 -8 -25l-855 -1312q-12 -18 -21 -23.5t-34 -5.5h-155q-15 0 -23 7t-8 20zM866 205v51q0 25 6.5 41t24.5 39l352 440q12 18 25.5 24.5t42.5 6.5h106q27 0 36 -10.5t9 -34.5v-443h76q31 0 43 -11t12 -40v-45q0 -27 -11 -37t-44 -10h-76v-125q0 -27 -14 -39t-45 -12h-88 q-31 0 -45 12.5t-14 38.5v125h-365q-16 0 -23.5 6t-7.5 23zM1087 319h205v267z" />
<glyph unicode="&#xbf;" horiz-adv-x="1120" d="M80 227q0 125 58.5 205t189.5 154q111 61 149.5 114.5t38.5 147.5v29q0 39 18.5 56t59.5 17h108q41 0 58.5 -18.5t17.5 -54.5v-35q0 -131 -58 -219t-185 -162q-84 -47 -123 -78t-55.5 -65.5t-16.5 -88.5q0 -94 67.5 -144t188.5 -50q182 0 324 90q20 10 28 10q14 0 23 -18 l59 -101q10 -16 10 -28q0 -16 -18 -29q-78 -55 -193.5 -86t-261.5 -31q-219 0 -353 101.5t-134 283.5zM500 1139v41q0 39 27.5 62.5t76.5 23.5h88q49 0 77 -23.5t28 -62.5v-41q0 -39 -28 -62.5t-77 -23.5h-88q-51 0 -77.5 23.5t-26.5 62.5z" />
<glyph unicode="&#xc0;" horiz-adv-x="1501" d="M80 31q0 12 6 26l541 1282q12 31 26.5 42.5t40.5 11.5h113q29 0 42 -11.5t25 -42.5l541 -1282q6 -14 6 -26q0 -31 -35 -31h-178q-27 0 -38 7t-21 30l-117 287h-565l-115 -287q-10 -23 -21.5 -30t-37.5 -7h-178q-35 0 -35 31zM485 1833q0 35 52 35h149q39 0 52.5 -10.5 t23.5 -38.5l98 -269q4 -8 4 -24q0 -33 -45 -33h-106q-37 0 -53.5 9t-30.5 36l-135 264q-8 16 -9 31zM532 514h435l-217 537z" />
<glyph unicode="&#xc1;" horiz-adv-x="1501" d="M80 31q0 12 6 26l541 1282q12 31 26.5 42.5t40.5 11.5h113q29 0 42 -11.5t25 -42.5l541 -1282q6 -14 6 -26q0 -31 -35 -31h-178q-27 0 -38 7t-21 30l-117 287h-565l-115 -287q-10 -23 -21.5 -30t-37.5 -7h-178q-35 0 -35 31zM532 514h435l-217 537zM649 1526q0 16 4 24 l97 269q12 29 25 39t50 10h152q51 0 51 -35q0 -14 -8 -31l-135 -264q-14 -27 -30.5 -36t-55.5 -9h-107q-43 0 -43 33z" />
<glyph unicode="&#xc2;" horiz-adv-x="1501" d="M80 31q0 12 6 26l541 1282q12 31 26.5 42.5t40.5 11.5h113q29 0 42 -11.5t25 -42.5l541 -1282q6 -14 6 -26q0 -31 -35 -31h-178q-27 0 -38 7t-21 30l-117 287h-565l-115 -287q-10 -23 -21.5 -30t-37.5 -7h-178q-35 0 -35 31zM385 1518q0 18 14 34l213 289q23 29 34 37 t44 8h117q33 0 45 -9t33 -36l213 -289q14 -16 14 -34q0 -14 -12.5 -22.5t-32.5 -8.5h-96q-35 0 -50.5 9t-33.5 34l-137 205l-140 -205q-14 -25 -30.5 -34t-51.5 -9h-96q-20 0 -33.5 8t-13.5 23zM532 514h435l-217 537z" />
<glyph unicode="&#xc3;" horiz-adv-x="1501" d="M80 31q0 12 6 26l541 1282q12 31 26.5 42.5t40.5 11.5h113q29 0 42 -11.5t25 -42.5l541 -1282q6 -14 6 -26q0 -31 -35 -31h-178q-27 0 -38 7t-21 30l-117 287h-565l-115 -287q-10 -23 -21.5 -30t-37.5 -7h-178q-35 0 -35 31zM330 1638q0 23 22 52q49 63 100.5 96 t120.5 33q59 0 106.5 -15.5t111.5 -44.5q47 -23 80.5 -35t68.5 -12q41 0 67.5 16.5t59.5 59.5q16 23 41 22q29 0 70 -32q45 -37 45 -64q0 -23 -21 -49q-51 -78 -106.5 -111.5t-141.5 -33.5q-47 0 -93 15t-107 44q-59 27 -92 38t-66 11q-41 0 -63.5 -14.5t-57.5 -50.5 q-14 -20 -37 -21q-27 0 -71 39q-37 35 -37 57zM532 514h435l-217 537z" />
<glyph unicode="&#xc4;" horiz-adv-x="1501" d="M80 31q0 12 6 26l541 1282q12 31 26.5 42.5t40.5 11.5h113q29 0 42 -11.5t25 -42.5l541 -1282q6 -14 6 -26q0 -31 -35 -31h-178q-27 0 -38 7t-21 30l-117 287h-565l-115 -287q-10 -23 -21.5 -30t-37.5 -7h-178q-35 0 -35 31zM432 1610v39q0 43 26.5 71.5t69.5 28.5h41 q43 0 70 -28.5t27 -71.5v-39q0 -43 -27 -73t-70 -30h-41q-43 0 -69.5 30t-26.5 73zM532 514h435l-217 537zM836 1610v39q0 41 27.5 70.5t68.5 29.5h41q43 0 69.5 -28.5t26.5 -71.5v-39q0 -43 -26.5 -73t-69.5 -30h-41q-41 0 -68.5 30t-27.5 73z" />
<glyph unicode="&#xc5;" horiz-adv-x="1501" d="M80 31q0 12 6 26l539 1280q-51 31 -83 85.5t-32 119.5q0 100 69.5 170t170.5 70q100 0 169.5 -70t69.5 -170q0 -63 -30.5 -117.5t-84.5 -87.5l541 -1280q6 -14 6 -26q0 -31 -35 -31h-178q-27 0 -38 7t-21 30l-117 287h-565l-115 -287q-10 -23 -21.5 -30t-37.5 -7h-178 q-35 0 -35 31zM532 514h435l-217 537zM639 1542q0 -45 33 -77.5t78 -32.5t76.5 32.5t31.5 77.5t-31.5 77t-76.5 32t-78 -32t-33 -77z" />
<glyph unicode="&#xc6;" horiz-adv-x="1814" d="M82 33q0 16 4 24l541 1282q12 29 29.5 41.5t45.5 12.5h979q41 0 57.5 -16.5t16.5 -55.5v-55q0 -39 -16.5 -56.5t-57.5 -17.5h-591v-397h411q41 0 57.5 -16.5t16.5 -55.5v-51q0 -39 -16.5 -56.5t-57.5 -17.5h-411v-399h591q41 0 57.5 -17.5t16.5 -56.5v-55 q0 -37 -16.5 -53.5t-57.5 -16.5h-761q-78 0 -78 76v250h-375l-115 -289q-8 -23 -21.5 -30t-43.5 -7h-172q-33 0 -33 33zM526 514h316v678h-47z" />
<glyph unicode="&#xc7;" horiz-adv-x="1386" d="M80 696q0 350 187.5 538.5t535.5 188.5q139 0 258 -28.5t201 -81.5q18 -12 18 -27q0 -12 -10 -29l-58 -98q-12 -18 -22 -18q-8 0 -29 10q-129 78 -330 78q-231 0 -362 -133t-131 -400q0 -270 135 -402t365 -132q213 0 350 80q20 10 26 10q12 0 25 -19l64 -106 q6 -13 6 -21q0 -12 -23 -26q-131 -92 -381 -109q0 -4 -4 -12l-47 -102q147 -12 147 -152q0 -78 -59 -124t-170 -46q-47 0 -94 10.5t-74 24.5q-18 10 -22 16t2 21l28 71q6 14 17 15q8 0 20 -6q41 -23 94 -23q43 0 61.5 14.5t18.5 45.5q0 41 -28.5 54t-94.5 13h-30 q-16 0 -21.5 9.5t0.5 23.5l56 139q2 2 2 5t2 5q-301 27 -465 213.5t-164 509.5z" />
<glyph unicode="&#xc8;" horiz-adv-x="1179" d="M121 74v1243q0 39 17.5 57.5t58.5 18.5h852q41 0 56 -16.5t15 -55.5v-55q0 -39 -15 -56.5t-56 -17.5h-666v-397h483q41 0 57.5 -16.5t16.5 -55.5v-51q0 -39 -16.5 -56.5t-57.5 -17.5h-483v-399h664q41 0 57 -17.5t16 -56.5v-55q0 -37 -16.5 -53.5t-56.5 -16.5h-850 q-41 0 -58.5 18.5t-17.5 55.5zM383 1882q0 35 51 35h150q39 0 52 -10.5t23 -38.5l99 -269q4 -8 4 -24q0 -33 -45 -33h-107q-37 0 -53 9.5t-31 35.5l-135 264q-8 16 -8 31z" />
<glyph unicode="&#xc9;" horiz-adv-x="1179" d="M121 74v1243q0 39 17.5 57.5t58.5 18.5h852q41 0 56 -16.5t15 -55.5v-55q0 -39 -15 -56.5t-56 -17.5h-666v-397h483q41 0 57.5 -16.5t16.5 -55.5v-51q0 -39 -16.5 -56.5t-57.5 -17.5h-483v-399h664q41 0 57 -17.5t16 -56.5v-55q0 -37 -16.5 -53.5t-56.5 -16.5h-850 q-41 0 -58.5 18.5t-17.5 55.5zM479 1575q0 16 4 24l97 269q12 29 25 39t50 10h152q51 0 51 -35q0 -14 -8 -31l-135 -264q-14 -27 -30.5 -36t-55.5 -9h-107q-43 0 -43 33z" />
<glyph unicode="&#xca;" horiz-adv-x="1179" d="M121 74v1243q0 39 17.5 57.5t58.5 18.5h852q41 0 56 -16.5t15 -55.5v-55q0 -39 -15 -56.5t-56 -17.5h-666v-397h483q41 0 57.5 -16.5t16.5 -55.5v-51q0 -39 -16.5 -56.5t-57.5 -17.5h-483v-399h664q41 0 57 -17.5t16 -56.5v-55q0 -37 -16.5 -53.5t-56.5 -16.5h-850 q-41 0 -58.5 18.5t-17.5 55.5zM250 1567q0 18 14 35l213 288q23 29 34 37t44 8h117q33 0 45 -9t33 -36l213 -288q14 -16 14 -35q0 -14 -12.5 -22.5t-32.5 -8.5h-96q-35 0 -50.5 9t-33.5 34l-138 205l-139 -205q-14 -25 -30.5 -34t-51.5 -9h-96q-21 0 -34 8t-13 23z" />
<glyph unicode="&#xcb;" horiz-adv-x="1179" d="M121 74v1243q0 39 17.5 57.5t58.5 18.5h852q41 0 56 -16.5t15 -55.5v-55q0 -39 -15 -56.5t-56 -17.5h-666v-397h483q41 0 57.5 -16.5t16.5 -55.5v-51q0 -39 -16.5 -56.5t-57.5 -17.5h-483v-399h664q41 0 57 -17.5t16 -56.5v-55q0 -37 -16.5 -53.5t-56.5 -16.5h-850 q-41 0 -58.5 18.5t-17.5 55.5zM295 1620v39q0 43 26.5 71.5t69.5 28.5h41q43 0 69.5 -28.5t26.5 -71.5v-39q0 -43 -26.5 -72.5t-69.5 -29.5h-41q-43 0 -69.5 29.5t-26.5 72.5zM698 1620v39q0 41 28 70.5t69 29.5h41q43 0 69.5 -28.5t26.5 -71.5v-39q0 -43 -26.5 -72.5 t-69.5 -29.5h-41q-41 0 -69 29.5t-28 72.5z" />
<glyph unicode="&#xcc;" horiz-adv-x="491" d="M-23 1882q0 35 52 35h149q39 0 52.5 -10.5t23.5 -38.5l98 -269q4 -8 4 -24q0 -33 -45 -33h-106q-37 0 -53.5 9.5t-30.5 35.5l-135 264q-8 16 -9 31zM115 74v1243q0 39 17.5 57.5t57.5 18.5h109q41 0 59.5 -18.5t18.5 -57.5v-1243q0 -37 -17.5 -55.5t-60.5 -18.5h-109 q-40 0 -57.5 18.5t-17.5 55.5z" />
<glyph unicode="&#xcd;" horiz-adv-x="534" d="M137 74v1243q0 39 17.5 57.5t58.5 18.5h109q41 0 59 -18.5t18 -57.5v-1243q0 -37 -17 -55.5t-60 -18.5h-109q-41 0 -58.5 18.5t-17.5 55.5zM152 1575q0 16 4 24l96 269q12 29 25.5 39t50.5 10h151q51 0 51 -35q0 -14 -8 -31l-135 -264q-14 -27 -30.5 -36t-55.5 -9h-106 q-43 0 -43 33z" />
<glyph unicode="&#xce;" horiz-adv-x="491" d="M-119 1581q0 18 15 35l213 289q23 29 34 37t43 8h117q33 0 45 -9.5t33 -35.5l213 -289q14 -16 14 -35q0 -14 -12 -22.5t-33 -8.5h-96q-35 0 -50.5 9.5t-33.5 33.5l-137 205l-140 -205q-14 -25 -30.5 -34t-50.5 -9h-97q-20 0 -33.5 8.5t-13.5 22.5zM115 74v1243 q0 39 17.5 57.5t57.5 18.5h109q41 0 59.5 -18.5t18.5 -57.5v-1243q0 -37 -17.5 -55.5t-60.5 -18.5h-109q-40 0 -57.5 18.5t-17.5 55.5z" />
<glyph unicode="&#xcf;" horiz-adv-x="555" d="M-41 1565v39q0 43 26.5 71.5t69.5 28.5h41q43 0 70 -28.5t27 -71.5v-39q0 -43 -27 -73t-70 -30h-41q-43 0 -69.5 30t-26.5 73zM143 74v1243q0 39 17.5 57.5t58.5 18.5h109q41 0 59.5 -18.5t18.5 -57.5v-1243q0 -37 -17.5 -55.5t-60.5 -18.5h-109q-41 0 -58.5 18.5 t-17.5 55.5zM362 1565v39q0 41 28 70.5t69 29.5h41q43 0 69.5 -28.5t26.5 -71.5v-39q0 -43 -26.5 -73t-69.5 -30h-41q-41 0 -69 30t-28 73z" />
<glyph unicode="&#xd0;" horiz-adv-x="1490" d="M39 666v59q0 41 13.5 56.5t51.5 15.5h109v520q0 39 18.5 57.5t59.5 18.5h409q344 0 527.5 -166t183.5 -531q0 -696 -711 -696h-409q-41 0 -59.5 18.5t-18.5 55.5v524h-109q-39 0 -52 14.5t-13 53.5zM475 199h240q217 0 326.5 112.5t109.5 384.5t-109.5 384t-326.5 112 h-240v-395h303q39 0 52.5 -15.5t13.5 -56.5v-59q0 -39 -13.5 -53.5t-52.5 -14.5h-303v-399z" />
<glyph unicode="&#xd1;" horiz-adv-x="1429" d="M121 74v1243q0 39 17.5 57.5t60.5 18.5h94q29 0 45 -8.5t33 -32.5l676 -938v903q0 39 17 57.5t58 18.5h109q41 0 59.5 -18.5t18.5 -57.5v-1243q0 -37 -17.5 -55.5t-60.5 -18.5h-96q-29 0 -43.5 7t-32.5 32l-676 936v-901q0 -37 -17.5 -55.5t-60.5 -18.5h-108 q-41 0 -58.5 18.5t-17.5 55.5zM285 1688q0 23 22 51q49 63 100.5 96t120.5 33q59 0 106.5 -15.5t110.5 -44.5q47 -23 81 -35t69 -12q41 0 67.5 16.5t59.5 59.5q16 23 41 23q29 0 70 -33q45 -37 45 -64q0 -23 -21 -49q-51 -78 -106.5 -111.5t-141.5 -33.5q-47 0 -93 15 t-107 44q-59 27 -92 38t-66 11q-41 0 -63.5 -14t-57.5 -51q-14 -20 -37 -21q-27 0 -71 39q-37 35 -37 58z" />
<glyph unicode="&#xd2;" horiz-adv-x="1560" d="M80 696q0 346 181 536.5t519 190.5q336 0 518.5 -190.5t182.5 -536.5t-182.5 -536.5t-518.5 -190.5q-338 0 -519 190.5t-181 536.5zM338 696q0 -262 113.5 -398t328.5 -136t328 136t113 398t-113 397.5t-328 135.5t-328.5 -135.5t-113.5 -397.5zM520 1882q0 35 51 35h150 q39 0 52 -10.5t24 -38.5l98 -269q4 -8 4 -24q0 -33 -45 -33h-106q-37 0 -53.5 9.5t-30.5 35.5l-136 264q-8 16 -8 31z" />
<glyph unicode="&#xd3;" horiz-adv-x="1560" d="M80 696q0 346 181 536.5t519 190.5q336 0 518.5 -190.5t182.5 -536.5t-182.5 -536.5t-518.5 -190.5q-338 0 -519 190.5t-181 536.5zM338 696q0 -262 113.5 -398t328.5 -136t328 136t113 398t-113 397.5t-328 135.5t-328.5 -135.5t-113.5 -397.5zM645 1575q0 16 4 24 l96 269q12 29 25.5 39t50.5 10h152q51 0 51 -35q0 -14 -8 -31l-135 -264q-14 -27 -30.5 -36t-55.5 -9h-107q-43 0 -43 33z" />
<glyph unicode="&#xd4;" horiz-adv-x="1560" d="M80 696q0 346 181 536.5t519 190.5q336 0 518.5 -190.5t182.5 -536.5t-182.5 -536.5t-518.5 -190.5q-338 0 -519 190.5t-181 536.5zM338 696q0 -262 113.5 -398t328.5 -136t328 136t113 398t-113 397.5t-328 135.5t-328.5 -135.5t-113.5 -397.5zM416 1567q0 18 14 35 l213 288q23 29 34 37t44 8h117q33 0 45 -9t32 -36l213 -288q14 -16 15 -35q0 -14 -12.5 -22.5t-32.5 -8.5h-97q-35 0 -50 9t-33 34l-138 205l-139 -205q-14 -25 -30.5 -34t-51.5 -9h-96q-21 0 -34 8t-13 23z" />
<glyph unicode="&#xd5;" horiz-adv-x="1560" d="M80 696q0 346 181 536.5t519 190.5q336 0 518.5 -190.5t182.5 -536.5t-182.5 -536.5t-518.5 -190.5q-338 0 -519 190.5t-181 536.5zM338 696q0 -262 113.5 -398t328.5 -136t328 136t113 398t-113 397.5t-328 135.5t-328.5 -135.5t-113.5 -397.5zM340 1626q0 23 22 51 q49 63 100.5 96t121.5 33q59 0 106 -15t111 -44q47 -23 80.5 -35t68.5 -12q41 0 67.5 16.5t59.5 59.5q16 23 41 22q29 0 70 -33q45 -37 45 -63q0 -23 -21 -49q-51 -78 -106 -112t-141 -34q-47 0 -93.5 15.5t-107.5 44.5q-59 27 -92 38t-66 11q-41 0 -63.5 -14.5t-57.5 -51.5 q-14 -20 -36 -20q-27 0 -72 39q-37 35 -37 57z" />
<glyph unicode="&#xd6;" horiz-adv-x="1560" d="M80 696q0 346 181 536.5t519 190.5q336 0 518.5 -190.5t182.5 -536.5t-182.5 -536.5t-518.5 -190.5q-338 0 -519 190.5t-181 536.5zM338 696q0 -262 113.5 -398t328.5 -136t328 136t113 398t-113 397.5t-328 135.5t-328.5 -135.5t-113.5 -397.5zM461 1632v39 q0 43 26.5 72t69.5 29h41q43 0 69.5 -29t26.5 -72v-39q0 -43 -26.5 -72.5t-69.5 -29.5h-41q-43 0 -69.5 29.5t-26.5 72.5zM864 1632v39q0 41 28 71t69 30h40q43 0 70 -29t27 -72v-39q0 -43 -27 -72.5t-70 -29.5h-40q-41 0 -69 29.5t-28 72.5z" />
<glyph unicode="&#xd7;" horiz-adv-x="802" d="M139 403q0 20 23 43l164 166l-164 164q-23 23 -23 45q0 20 23 43l49 49q25 25 45 25q18 0 41 -23l166 -167l168 167q23 23 41 23q23 0 43 -25l51 -49q23 -23 22 -43q0 -23 -22 -45l-164 -164l164 -166q23 -23 22 -45q0 -20 -22 -43l-51 -47q-20 -25 -43 -24q-18 0 -41 22 l-168 166l-166 -166q-23 -22 -41 -22q-23 0 -43 24l-51 47q-23 27 -23 45z" />
<glyph unicode="&#xd8;" horiz-adv-x="1560" d="M80 696q0 346 181 536.5t519 190.5q88 0 162 -12l39 92q8 20 18.5 27.5t30.5 7.5h166q29 0 29 -25q0 -10 -6 -26l-60 -148q158 -84 240 -248.5t82 -394.5q0 -346 -182.5 -536.5t-518.5 -190.5q-96 0 -174 15l-51 -127q-8 -18 -18.5 -25.5t-32.5 -7.5h-166q-29 0 -29 22 q0 12 6 29l76 184q-152 86 -231.5 248t-79.5 389zM338 696q0 -287 139 -426l389 953q-39 6 -86 6q-215 0 -328.5 -135.5t-113.5 -397.5zM682 170q41 -8 98 -8q215 0 328 136t113 398q0 299 -148 434z" />
<glyph unicode="&#xd9;" horiz-adv-x="1466" d="M111 492v825q0 39 17 57.5t58 18.5h109q41 0 59.5 -18.5t18.5 -57.5v-832q0 -160 93 -241.5t267 -81.5q172 0 265.5 82t93.5 241v832q0 39 18 57.5t59 18.5h107q80 0 80 -76v-825q0 -160 -79 -278t-220.5 -181.5t-323.5 -63.5q-184 0 -325.5 62.5t-219 181.5t-77.5 279z M500 1882q0 35 51 35h149q39 0 52.5 -10.5t23.5 -38.5l98 -269q4 -8 5 -24q0 -33 -45 -33h-107q-37 0 -53.5 9.5t-30.5 35.5l-135 264q-8 16 -8 31z" />
<glyph unicode="&#xda;" horiz-adv-x="1466" d="M111 492v825q0 39 17 57.5t58 18.5h109q41 0 59.5 -18.5t18.5 -57.5v-832q0 -160 93 -241.5t267 -81.5q172 0 265.5 82t93.5 241v832q0 39 18 57.5t59 18.5h107q80 0 80 -76v-825q0 -160 -79 -278t-220.5 -181.5t-323.5 -63.5q-184 0 -325.5 62.5t-219 181.5t-77.5 279z M627 1575q0 16 4 24l96 269q12 29 25.5 39t50.5 10h151q51 0 52 -35q0 -14 -9 -31l-135 -264q-14 -27 -30.5 -36t-55.5 -9h-106q-43 0 -43 33z" />
<glyph unicode="&#xdb;" horiz-adv-x="1466" d="M111 492v825q0 39 17 57.5t58 18.5h109q41 0 59.5 -18.5t18.5 -57.5v-832q0 -160 93 -241.5t267 -81.5q172 0 265.5 82t93.5 241v832q0 39 18 57.5t59 18.5h107q80 0 80 -76v-825q0 -160 -79 -278t-220.5 -181.5t-323.5 -63.5q-184 0 -325.5 62.5t-219 181.5t-77.5 279z M371 1567q0 18 14 35l213 288q23 29 34 37t44 8h117q33 0 45 -9t32 -36l213 -288q14 -16 15 -35q0 -14 -12.5 -22.5t-32.5 -8.5h-97q-35 0 -50 9t-34 34l-137 205l-139 -205q-14 -25 -30.5 -34t-51.5 -9h-96q-21 0 -34 8t-13 23z" />
<glyph unicode="&#xdc;" horiz-adv-x="1466" d="M111 492v825q0 39 17 57.5t58 18.5h109q41 0 59.5 -18.5t18.5 -57.5v-832q0 -160 93 -241.5t267 -81.5q172 0 265.5 82t93.5 241v832q0 39 18 57.5t59 18.5h107q80 0 80 -76v-825q0 -160 -79 -278t-220.5 -181.5t-323.5 -63.5q-184 0 -325.5 62.5t-219 181.5t-77.5 279z M414 1620v39q0 43 26.5 71.5t69.5 28.5h41q43 0 69.5 -28.5t26.5 -71.5v-39q0 -43 -26.5 -72.5t-69.5 -29.5h-41q-43 0 -69.5 29.5t-26.5 72.5zM817 1620v39q0 41 27.5 70.5t68.5 29.5h41q43 0 70 -28.5t27 -71.5v-39q0 -43 -27 -72.5t-70 -29.5h-41q-41 0 -68.5 29.5 t-27.5 72.5z" />
<glyph unicode="&#xdd;" horiz-adv-x="1449" d="M80 1362q0 31 37 31h176q27 0 36 -7.5t21 -25.5l375 -651l373 651q10 18 21 25.5t36 7.5h178q37 0 37 -31q0 -12 -8 -27l-506 -868v-393q0 -37 -17.5 -55.5t-60.5 -18.5h-108q-41 0 -59.5 18.5t-18.5 55.5v395l-504 866q-8 14 -8 27zM614 1575q0 16 4 24l97 269 q12 29 25.5 39t50.5 10h151q51 0 51 -35q0 -14 -8 -31l-135 -264q-14 -27 -30.5 -36t-55.5 -9h-107q-43 0 -43 33z" />
<glyph unicode="&#xde;" horiz-adv-x="1296" d="M121 74v1243q0 39 17.5 57.5t58.5 18.5h108q41 0 59.5 -18.5t18.5 -57.5v-160h338q250 0 373 -119.5t123 -341.5q0 -223 -122 -341.5t-374 -118.5h-338v-162q0 -37 -17.5 -55.5t-60.5 -18.5h-108q-41 0 -58.5 18.5t-17.5 55.5zM383 434h326q248 0 247 262 q0 131 -61 195.5t-186 64.5h-326v-522z" />
<glyph unicode="&#xdf;" horiz-adv-x="1331" d="M111 74v907q0 225 134 359.5t410 134.5q281 0 418 -115t137 -309q0 -109 -49 -195t-137 -123q121 -39 174 -127t53 -221q0 -193 -115.5 -304.5t-322.5 -111.5q-201 0 -348 88q-20 12 -21 27q0 14 9 25l73 118q12 20 25 21q12 0 27 -10q96 -63 223 -64q88 0 136 61.5 t48 149.5q0 92 -23.5 145.5t-84 79t-172.5 25.5h-109q-47 0 -47 45v100q0 23 11 32t36 9h111q131 0 187 66.5t56 173.5q0 117 -71.5 168t-227.5 51q-143 0 -210.5 -71.5t-67.5 -217.5v-917q0 -37 -18.5 -55.5t-61.5 -18.5h-100q-45 0 -63.5 16.5t-18.5 57.5z" />
<glyph unicode="&#xe0;" horiz-adv-x="1259" d="M80 434q0 172 75.5 304t216 204t326.5 72q260 0 441 -123v-836q0 -31 -13.5 -43t-46.5 -12h-112q-23 0 -34 9t-15 30l-17 80q-63 -78 -156.5 -114t-226.5 -36q-201 0 -319.5 122t-118.5 343zM338 442q0 -147 68.5 -216.5t209.5 -69.5q109 0 192 63.5t83 167.5v399 q-43 23 -87 32t-108 9q-162 0 -260 -102t-98 -283zM475 1477q0 35 51 34h150q39 0 52 -10t24 -39l98 -268q4 -8 4 -25q0 -33 -45 -32h-107q-36 0 -52.5 9t-31.5 36l-135 264q-8 16 -8 31z" />
<glyph unicode="&#xe1;" horiz-adv-x="1259" d="M80 434q0 172 75.5 304t216 204t326.5 72q260 0 441 -123v-836q0 -31 -13.5 -43t-46.5 -12h-112q-23 0 -34 9t-15 30l-17 80q-63 -78 -156.5 -114t-226.5 -36q-201 0 -319.5 122t-118.5 343zM338 442q0 -147 68.5 -216.5t209.5 -69.5q109 0 192 63.5t83 167.5v399 q-43 23 -87 32t-108 9q-162 0 -260 -102t-98 -283zM549 1169q0 16 4 25l96 268q12 29 25.5 39t50.5 10h152q51 0 51 -34q0 -14 -8 -31l-136 -264q-14 -27 -30.5 -36t-55.5 -9h-106q-43 -1 -43 32z" />
<glyph unicode="&#xe2;" horiz-adv-x="1259" d="M80 434q0 172 75.5 304t216 204t326.5 72q260 0 441 -123v-836q0 -31 -13.5 -43t-46.5 -12h-112q-23 0 -34 9t-15 30l-17 80q-63 -78 -156.5 -114t-226.5 -36q-201 0 -319.5 122t-118.5 343zM303 1161q0 18 14 35l213 289q23 29 34 37t44 8h117q33 0 45 -9.5t33 -35.5 l213 -289q14 -16 14 -35q0 -14 -12 -22.5t-33 -8.5h-96q-35 0 -50.5 9.5t-33.5 34.5l-137 204l-140 -204q-14 -25 -30.5 -34.5t-51.5 -9.5h-96q-20 0 -33.5 8.5t-13.5 22.5zM338 442q0 -147 68.5 -216.5t209.5 -69.5q109 0 192 63.5t83 167.5v399q-43 23 -87 32t-108 9 q-162 0 -260 -102t-98 -283z" />
<glyph unicode="&#xe3;" horiz-adv-x="1265" d="M80 434q0 172 75.5 304t216 204t326.5 72q260 0 441 -123v-836q0 -31 -13.5 -43t-46.5 -12h-112q-23 0 -34 9t-15 30l-17 80q-63 -78 -156.5 -114t-226.5 -36q-201 0 -319.5 122t-118.5 343zM270 1298q0 23 23 52q49 63 100 96t121 33q59 0 106.5 -15.5t110.5 -44.5 q47 -23 81 -35t69 -12q41 0 67.5 16.5t59.5 59.5q16 23 41 22q29 0 69 -32q45 -37 45 -64q0 -23 -20 -49q-51 -78 -106.5 -111.5t-141.5 -33.5q-47 0 -93 15t-108 44q-59 27 -92 38t-65 11q-41 0 -63.5 -14t-57.5 -51q-14 -20 -37 -21q-27 0 -72 39q-37 35 -37 57zM338 442 q0 -147 68.5 -216.5t209.5 -69.5q109 0 192 63.5t83 167.5v399q-43 23 -87 32t-108 9q-162 0 -260 -102t-98 -283z" />
<glyph unicode="&#xe4;" horiz-adv-x="1259" d="M80 434q0 172 75.5 304t216 204t326.5 72q260 0 441 -123v-836q0 -31 -13.5 -43t-46.5 -12h-112q-23 0 -34 9t-15 30l-17 80q-63 -78 -156.5 -114t-226.5 -36q-201 0 -319.5 122t-118.5 343zM338 442q0 -147 68.5 -216.5t209.5 -69.5q109 0 192 63.5t83 167.5v399 q-43 23 -87 32t-108 9q-162 0 -260 -102t-98 -283zM377 1231v39q0 43 26.5 71.5t69.5 28.5h41q43 0 69.5 -28.5t26.5 -71.5v-39q0 -43 -26.5 -73t-69.5 -30h-41q-43 0 -69.5 30t-26.5 73zM780 1231v39q0 41 28 70.5t69 29.5h41q43 0 69.5 -28.5t26.5 -71.5v-39 q0 -43 -26.5 -73t-69.5 -30h-41q-41 0 -69 30t-28 73z" />
<glyph unicode="&#xe5;" horiz-adv-x="1259" d="M80 434q0 172 75.5 304t216 204t326.5 72q260 0 441 -123v-836q0 -31 -13.5 -43t-46.5 -12h-112q-23 0 -34 9t-15 30l-17 80q-63 -78 -156.5 -114t-226.5 -36q-201 0 -319.5 122t-118.5 343zM338 442q0 -147 68.5 -216.5t209.5 -69.5q109 0 192 63.5t83 167.5v399 q-43 23 -87 32t-108 9q-162 0 -260 -102t-98 -283zM457 1356q0 100 69.5 169.5t169.5 69.5t170 -69.5t70 -169.5t-69.5 -170t-170.5 -70q-100 0 -169.5 69.5t-69.5 170.5zM586 1356q0 -45 32.5 -78t77.5 -33t77 33t32 78t-32 76.5t-77 31.5t-77.5 -31.5t-32.5 -76.5z" />
<glyph unicode="&#xe6;" horiz-adv-x="1947" d="M80 272q0 162 107.5 239t304.5 77h319v41q0 102 -63.5 157.5t-210.5 55.5q-82 0 -145.5 -15.5t-125.5 -46.5q-20 -8 -24 -8q-8 0 -15.5 7t-13.5 20l-43 84q-6 12 -6 20q0 14 20 27q72 39 170.5 61.5t202.5 22.5q154 0 247 -49.5t142 -143.5q55 94 159.5 143.5t242.5 49.5 q258 0 389 -133t131 -385q0 -72 -64 -72h-737q0 -133 90 -207t254 -74q168 0 287 74q14 8 24 8t23 -18l47 -88q8 -10 8 -23q0 -14 -20 -26q-82 -53 -177.5 -77t-216.5 -24q-147 0 -263.5 57.5t-178.5 166.5q-70 -106 -192.5 -165t-272.5 -59q-182 0 -290.5 75t-108.5 228z M305 285q0 -74 47 -108t154 -34q145 0 225 60.5t80 177.5v55h-307q-102 0 -150.5 -34.5t-48.5 -116.5zM1067 575h565q0 133 -67.5 202t-214.5 69q-283 0 -283 -271z" />
<glyph unicode="&#xe7;" horiz-adv-x="1157" d="M80 487q0 156 69.5 275t199.5 185.5t304 66.5q129 0 219.5 -24.5t167.5 -80.5q18 -12 19 -26q0 -12 -10 -29l-56 -96q-12 -20 -22 -21q-10 0 -29 13q-63 39 -125.5 58t-148.5 19q-154 0 -242 -91t-88 -249q0 -166 88 -248.5t258 -82.5q86 0 149.5 20.5t122.5 59.5 q16 10 27 10q12 0 25 -21l59 -100q8 -11 8 -23q0 -14 -20 -28q-131 -86 -303 -101q2 -6 -4 -18l-48 -102q147 -12 148 -152q0 -78 -59.5 -124t-170.5 -46q-47 0 -94 10t-73 25q-18 10 -22.5 16t1.5 21l29 71q6 14 16 15q8 0 21 -6q41 -23 94 -23q43 0 61.5 14.5t18.5 44.5 q0 41 -29 54.5t-94 13.5h-31q-16 0 -21.5 9t1.5 24l55 139q4 8 8 14q-229 25 -354 157t-125 357z" />
<glyph unicode="&#xe8;" horiz-adv-x="1224" d="M80 475q0 264 141 401.5t402 137.5q258 0 390 -133t132 -385q0 -72 -66 -72h-751q0 -135 94 -208t262 -73q162 0 291 74q14 8 22 8q14 0 23 -18l49 -88q6 -12 6 -23q0 -14 -18 -26q-84 -51 -181.5 -76t-224.5 -25q-159 0 -288.5 54.5t-206 168t-76.5 283.5zM328 575h579 q0 127 -70.5 199t-211.5 72q-143 0 -220 -74t-77 -197zM395 1477q0 35 51 34h150q39 0 52.5 -10t23.5 -39l98 -268q4 -8 4 -25q0 -33 -45 -32h-106q-37 0 -53.5 9t-30.5 36l-136 264q-8 16 -8 31z" />
<glyph unicode="&#xe9;" horiz-adv-x="1224" d="M80 475q0 264 141 401.5t402 137.5q258 0 390 -133t132 -385q0 -72 -66 -72h-751q0 -135 94 -208t262 -73q162 0 291 74q14 8 22 8q14 0 23 -18l49 -88q6 -12 6 -23q0 -14 -18 -26q-84 -51 -181.5 -76t-224.5 -25q-159 0 -288.5 54.5t-206 168t-76.5 283.5zM328 575h579 q0 127 -70.5 199t-211.5 72q-143 0 -220 -74t-77 -197zM504 1169q0 16 4 25l96 268q12 29 25.5 39t50.5 10h151q51 0 52 -34q0 -14 -9 -31l-135 -264q-14 -27 -30.5 -36t-55.5 -9h-106q-43 -1 -43 32z" />
<glyph unicode="&#xea;" horiz-adv-x="1224" d="M80 475q0 264 141 401.5t402 137.5q258 0 390 -133t132 -385q0 -72 -66 -72h-751q0 -135 94 -208t262 -73q162 0 291 74q14 8 22 8q14 0 23 -18l49 -88q6 -12 6 -23q0 -14 -18 -26q-84 -51 -181.5 -76t-224.5 -25q-159 0 -288.5 54.5t-206 168t-76.5 283.5zM256 1161 q0 18 14 35l213 289q23 29 34 37t44 8h117q33 0 45 -9.5t33 -35.5l213 -289q14 -16 14 -35q0 -14 -12.5 -22.5t-32.5 -8.5h-96q-35 0 -50.5 9.5t-33.5 34.5l-137 204l-140 -204q-14 -25 -30.5 -34.5t-51.5 -9.5h-96q-20 0 -33.5 8.5t-13.5 22.5zM328 575h579 q0 127 -70.5 199t-211.5 72q-143 0 -220 -74t-77 -197z" />
<glyph unicode="&#xeb;" horiz-adv-x="1224" d="M80 475q0 264 141 401.5t402 137.5q258 0 390 -133t132 -385q0 -72 -66 -72h-751q0 -135 94 -208t262 -73q162 0 291 74q14 8 22 8q14 0 23 -18l49 -88q6 -12 6 -23q0 -14 -18 -26q-84 -51 -181.5 -76t-224.5 -25q-159 0 -288.5 54.5t-206 168t-76.5 283.5zM307 1206v39 q0 43 26.5 72t69.5 29h41q43 0 70 -29t27 -72v-39q0 -43 -27 -72.5t-70 -29.5h-41q-43 0 -69.5 29.5t-26.5 72.5zM328 575h579q0 127 -70.5 199t-211.5 72q-143 0 -220 -74t-77 -197zM711 1206v39q0 41 27.5 71t68.5 30h41q43 0 69.5 -29t26.5 -72v-39q0 -43 -26.5 -72.5 t-69.5 -29.5h-41q-41 0 -68.5 29.5t-27.5 72.5z" />
<glyph unicode="&#xec;" horiz-adv-x="499" d="M-14 1477q0 35 51 34h149q39 0 52.5 -10t23.5 -39l98 -268q4 -8 5 -25q0 -33 -46 -32h-106q-37 0 -53.5 9t-30.5 36l-135 264q-8 16 -8 31zM113 74v833q0 39 17 57.5t58 18.5h109q41 0 59.5 -18.5t18.5 -57.5v-833q0 -37 -17.5 -55.5t-60.5 -18.5h-109q-41 0 -58 18.5 t-17 55.5z" />
<glyph unicode="&#xed;" horiz-adv-x="499" d="M129 1169q0 16 4 25l96 268q12 29 25.5 39t50.5 10h152q51 0 51 -34q0 -14 -8 -31l-135 -264q-14 -27 -31 -36t-55 -9h-107q-43 -1 -43 32zM137 74v833q0 39 17.5 57.5t58.5 18.5h109q41 0 59 -18.5t18 -57.5v-833q0 -37 -17 -55.5t-60 -18.5h-109q-41 0 -58.5 18.5 t-17.5 55.5z" />
<glyph unicode="&#xee;" horiz-adv-x="503" d="M-115 1145q0 18 15 35l213 288q23 29 34 37t43 8h117q33 0 45.5 -9t32.5 -36l213 -288q14 -16 14 -35q0 -14 -12 -22.5t-33 -8.5h-96q-35 0 -50 9.5t-34 33.5l-137 205l-139 -205q-14 -25 -31 -34t-51 -9h-97q-20 0 -33.5 8t-13.5 23zM121 74v833q0 39 17.5 57.5 t58.5 18.5h108q41 0 59.5 -18.5t18.5 -57.5v-833q0 -37 -17.5 -55.5t-60.5 -18.5h-108q-41 0 -58.5 18.5t-17.5 55.5z" />
<glyph unicode="&#xef;" horiz-adv-x="503" d="M-59 1214v39q0 43 26.5 72t69.5 29h41q43 0 69.5 -29t26.5 -72v-39q0 -43 -26.5 -72.5t-69.5 -29.5h-41q-43 0 -69.5 29.5t-26.5 72.5zM121 74v833q0 39 17.5 57.5t58.5 18.5h108q41 0 59.5 -18.5t18.5 -57.5v-833q0 -37 -17.5 -55.5t-60.5 -18.5h-108q-41 0 -58.5 18.5 t-17.5 55.5zM344 1214v39q0 41 27.5 71t68.5 30h41q43 0 70 -29t27 -72v-39q0 -43 -27 -72.5t-70 -29.5h-41q-41 0 -68.5 29.5t-27.5 72.5z" />
<glyph unicode="&#xf0;" horiz-adv-x="1382" d="M80 375q0 182 74.5 317t212 208t321.5 73q143 0 228 -39t139 -121q2 27 2 76q0 104 -19.5 171.5t-64.5 106.5l-92 -129q-14 -20 -35 -20h-182q-14 0 -19.5 8t0.5 18l133 187q-14 2 -45 2q-135 0 -268 -64q-16 -8 -29 -8q-12 0 -20 17l-39 98q-4 16 -4 20q0 20 24 35 q156 92 389 92q63 0 121 -12l25 35q14 20 37 20h182q14 0 18.5 -8t-2.5 -18l-73 -103q190 -135 190 -448q0 -127 -33 -283q-72 -332 -261 -484.5t-445 -152.5q-465 0 -465 406zM338 381q0 -111 63.5 -165t184.5 -54q143 0 246.5 96t138.5 272q6 35 6 62q0 104 -73 159.5 t-187 55.5q-180 0 -279.5 -105.5t-99.5 -320.5z" />
<glyph unicode="&#xf1;" horiz-adv-x="1234" d="M121 74v854q0 31 10 43t43 12h117q45 0 47 -41l4 -82q139 154 399 154q166 0 267.5 -89t101.5 -268v-583q0 -37 -17.5 -55.5t-58.5 -18.5h-108q-41 0 -59.5 18.5t-18.5 55.5v567q0 100 -46 142t-149 42q-109 0 -189.5 -58t-80.5 -151v-542q0 -37 -17.5 -55.5t-60.5 -18.5 h-106q-41 0 -59.5 18.5t-18.5 55.5zM184 1298q0 23 23 52q49 63 100 96t121 33q59 0 106.5 -15.5t110.5 -44.5q47 -23 81 -35t69 -12q41 0 67.5 16.5t59.5 59.5q16 23 41 22q29 0 69 -32q45 -37 45 -64q0 -23 -20 -49q-51 -78 -106.5 -111.5t-141.5 -33.5q-47 0 -93 15 t-108 44q-59 27 -91 38t-66 11q-41 0 -63.5 -14t-57.5 -51q-14 -20 -37 -21q-27 0 -72 39q-37 35 -37 57z" />
<glyph unicode="&#xf2;" horiz-adv-x="1271" d="M80 492q0 242 144.5 382t410.5 140t411.5 -140.5t145.5 -381.5q0 -242 -145.5 -382.5t-411.5 -140.5t-410.5 140.5t-144.5 382.5zM338 492q0 -160 77 -245t220 -85q145 0 221 84t76 246q0 160 -76 242.5t-221 82.5q-143 0 -220 -83t-77 -242zM395 1477q0 35 51 34h150 q39 0 52.5 -10t23.5 -39l98 -268q4 -8 4 -25q0 -33 -45 -32h-106q-37 0 -53.5 9t-30.5 36l-136 264q-8 16 -8 31z" />
<glyph unicode="&#xf3;" horiz-adv-x="1271" d="M80 492q0 242 144.5 382t410.5 140t411.5 -140.5t145.5 -381.5q0 -242 -145.5 -382.5t-411.5 -140.5t-410.5 140.5t-144.5 382.5zM338 492q0 -160 77 -245t220 -85q145 0 221 84t76 246q0 160 -76 242.5t-221 82.5q-143 0 -220 -83t-77 -242zM492 1169q0 16 4 25l96 268 q12 29 25.5 39t50.5 10h151q51 0 51 -34q0 -14 -8 -31l-135 -264q-14 -27 -30.5 -36t-55.5 -9h-106q-43 -1 -43 32z" />
<glyph unicode="&#xf4;" horiz-adv-x="1271" d="M80 492q0 242 144.5 382t410.5 140t411.5 -140.5t145.5 -381.5q0 -242 -145.5 -382.5t-411.5 -140.5t-410.5 140.5t-144.5 382.5zM270 1161q0 18 15 35l213 289q23 29 34 37t43 8h117q33 0 45.5 -9.5t32.5 -35.5l213 -289q14 -16 14 -35q0 -14 -12 -22.5t-33 -8.5h-96 q-35 0 -50 9.5t-34 34.5l-137 204l-139 -204q-14 -25 -30.5 -34.5t-51.5 -9.5h-97q-20 0 -33.5 8.5t-13.5 22.5zM338 492q0 -160 77 -245t220 -85q145 0 221 84t76 246q0 160 -76 242.5t-221 82.5q-143 0 -220 -83t-77 -242z" />
<glyph unicode="&#xf5;" horiz-adv-x="1271" d="M80 492q0 242 144.5 382t410.5 140t411.5 -140.5t145.5 -381.5q0 -242 -145.5 -382.5t-411.5 -140.5t-410.5 140.5t-144.5 382.5zM215 1290q0 23 23 51q49 63 100 96t121 33q59 0 106 -15t111 -44q47 -23 81 -35t68 -12q41 0 68 16.5t59 59.5q16 23 41 22q29 0 70 -32 q45 -37 45 -64q0 -23 -21 -49q-51 -78 -106 -112t-141 -34q-47 0 -93.5 15.5t-107.5 44.5q-59 27 -92 38t-66 11q-41 0 -63.5 -14.5t-57.5 -51.5q-14 -20 -36 -20q-27 0 -72 39q-37 35 -37 57zM338 492q0 -160 77 -245t220 -85q145 0 221 84t76 246q0 160 -76 242.5 t-221 82.5q-143 0 -220 -83t-77 -242z" />
<glyph unicode="&#xf6;" horiz-adv-x="1271" d="M80 492q0 242 144.5 382t410.5 140t411.5 -140.5t145.5 -381.5q0 -242 -145.5 -382.5t-411.5 -140.5t-410.5 140.5t-144.5 382.5zM315 1231v39q0 43 27 71.5t70 28.5h41q43 0 69.5 -28.5t26.5 -71.5v-39q0 -43 -26.5 -73t-69.5 -30h-41q-43 0 -70 30t-27 73zM338 492 q0 -160 77 -245t220 -85q145 0 221 84t76 246q0 160 -76 242.5t-221 82.5q-143 0 -220 -83t-77 -242zM719 1231v39q0 41 27.5 70.5t68.5 29.5h41q43 0 69.5 -28.5t26.5 -71.5v-39q0 -43 -26.5 -73t-69.5 -30h-41q-41 0 -68.5 30t-27.5 73z" />
<glyph unicode="&#xf7;" horiz-adv-x="964" d="M80 573v76q0 33 13 47.5t46 14.5h686q31 0 45.5 -15.5t14.5 -46.5v-76q0 -31 -14.5 -46t-45.5 -15h-686q-33 0 -46 14.5t-13 46.5zM371 297v37q0 39 24.5 64.5t63.5 25.5h37q39 0 63.5 -25.5t24.5 -64.5v-37q0 -39 -24.5 -65.5t-63.5 -26.5h-37q-37 0 -62.5 27.5 t-25.5 64.5zM371 889v39q0 37 25.5 63.5t62.5 26.5h37q37 0 62.5 -26.5t25.5 -63.5v-39q0 -37 -24.5 -63.5t-63.5 -26.5h-37q-37 0 -62.5 26.5t-25.5 63.5z" />
<glyph unicode="&#xf8;" horiz-adv-x="1271" d="M80 492q0 242 144.5 382t410.5 140q31 0 84 -4l53 129q14 35 51 35h166q29 0 29 -27q0 -12 -6 -25l-72 -174q123 -63 187.5 -181t64.5 -275q0 -242 -145.5 -382.5t-411.5 -140.5q-33 0 -94 4l-47 -116q-12 -33 -52 -33h-166q-29 0 -28 24q0 10 6 27l68 164 q-119 63 -180.5 180t-61.5 273zM338 492q0 -154 72 -238l231 563h-6q-143 0 -220 -83t-77 -242zM618 162h17q145 0 221 84t76 246t-78 245z" />
<glyph unicode="&#xf9;" horiz-adv-x="1208" d="M111 340v567q0 39 17 57.5t58 18.5h109q41 0 59.5 -18.5t18.5 -57.5v-561q0 -98 51 -144t151 -46q106 0 178 59t72 154v538q0 39 18.5 57.5t59.5 18.5h107q41 0 59 -18.5t18 -57.5v-852q0 -33 -10 -44t-43 -11h-114q-23 0 -33 9t-13 30l-8 86q-139 -156 -383 -156 q-168 0 -270 93.5t-102 277.5zM373 1477q0 35 51 34h149q39 0 52.5 -10t23.5 -39l99 -268q4 -8 4 -25q0 -33 -45 -32h-107q-37 0 -53.5 9t-30.5 36l-135 264q-8 16 -8 31z" />
<glyph unicode="&#xfa;" horiz-adv-x="1208" d="M111 340v567q0 39 17 57.5t58 18.5h109q41 0 59.5 -18.5t18.5 -57.5v-561q0 -98 51 -144t151 -46q106 0 178 59t72 154v538q0 39 18.5 57.5t59.5 18.5h107q41 0 59 -18.5t18 -57.5v-852q0 -33 -10 -44t-43 -11h-114q-23 0 -33 9t-13 30l-8 86q-139 -156 -383 -156 q-168 0 -270 93.5t-102 277.5zM469 1169q0 16 4 25l96 268q12 29 25.5 39t50.5 10h152q51 0 51 -34q0 -14 -8 -31l-135 -264q-14 -27 -31 -36t-56 -9h-106q-43 -1 -43 32z" />
<glyph unicode="&#xfb;" horiz-adv-x="1208" d="M111 340v567q0 39 17 57.5t58 18.5h109q41 0 59.5 -18.5t18.5 -57.5v-561q0 -98 51 -144t151 -46q106 0 178 59t72 154v538q0 39 18.5 57.5t59.5 18.5h107q41 0 59 -18.5t18 -57.5v-852q0 -33 -10 -44t-43 -11h-114q-23 0 -33 9t-13 30l-8 86q-139 -156 -383 -156 q-168 0 -270 93.5t-102 277.5zM233 1161q0 18 15 35l213 289q23 29 34 37t44 8h116q33 0 45.5 -9.5t32.5 -35.5l213 -289q14 -16 15 -35q0 -14 -12.5 -22.5t-33.5 -8.5h-96q-35 0 -50 9.5t-34 34.5l-137 204l-139 -204q-14 -25 -30.5 -34.5t-51.5 -9.5h-96q-21 0 -34.5 8.5 t-13.5 22.5z" />
<glyph unicode="&#xfc;" horiz-adv-x="1208" d="M111 340v567q0 39 17 57.5t58 18.5h109q41 0 59.5 -18.5t18.5 -57.5v-561q0 -98 51 -144t151 -46q106 0 178 59t72 154v538q0 39 18.5 57.5t59.5 18.5h107q41 0 59 -18.5t18 -57.5v-852q0 -33 -10 -44t-43 -11h-114q-23 0 -33 9t-13 30l-8 86q-139 -156 -383 -156 q-168 0 -270 93.5t-102 277.5zM274 1214v39q0 43 27 72t70 29h41q43 0 69.5 -29t26.5 -72v-39q0 -43 -26.5 -72.5t-69.5 -29.5h-41q-43 0 -70 29.5t-27 72.5zM678 1214v39q0 41 27.5 71t68.5 30h41q43 0 69.5 -29t26.5 -72v-39q0 -43 -26.5 -72.5t-69.5 -29.5h-41 q-41 0 -68.5 29.5t-27.5 72.5z" />
<glyph unicode="&#xfd;" horiz-adv-x="1218" d="M86 -209q0 12 8 23l58 98q12 20 24 20q10 0 25 -12q33 -25 66.5 -37t80.5 -12q61 0 96 40t72 134l-414 881q-8 20 -8 28q0 29 33 29h174q27 0 39 -8t22 -31l275 -643l274 643q10 23 22.5 31t39.5 8h174q33 0 33 -29q0 -8 -9 -28l-385 -822q-80 -168 -134 -254 t-122.5 -127.5t-171.5 -41.5q-77 0 -142.5 22.5t-113.5 60.5q-16 14 -16 27zM500 1186q0 16 4 24l96 269q12 29 25.5 39t50.5 10h151q51 0 52 -35q0 -14 -9 -31l-135 -264q-14 -27 -30.5 -36t-55.5 -9h-106q-43 0 -43 33z" />
<glyph unicode="&#xfe;" horiz-adv-x="1263" d="M121 -340v1688q0 39 17.5 57t58.5 18h104q41 0 59.5 -18.5t18.5 -56.5v-373q49 18 111.5 28.5t119.5 10.5q279 0 426.5 -132t147.5 -393q0 -242 -130 -381t-358 -139q-215 0 -317 105v-414q0 -39 -17.5 -56.5t-60.5 -17.5h-104q-41 0 -58.5 18.5t-17.5 55.5zM379 383 q0 -104 74.5 -165.5t183.5 -61.5q145 0 216 88t71 254q0 176 -84 251.5t-256 75.5q-59 0 -114.5 -10t-90.5 -29v-403z" />
<glyph unicode="&#xff;" horiz-adv-x="1218" d="M86 -209q0 12 8 23l58 98q12 20 24 20q10 0 25 -12q33 -25 66.5 -37t80.5 -12q61 0 96 40t72 134l-414 881q-8 20 -8 28q0 29 33 29h174q27 0 39 -8t22 -31l275 -643l274 643q10 23 22.5 31t39.5 8h174q33 0 33 -29q0 -8 -9 -28l-385 -822q-80 -168 -134 -254 t-122.5 -127.5t-171.5 -41.5q-77 0 -142.5 22.5t-113.5 60.5q-16 14 -16 27zM322 1231v39q0 43 26.5 71.5t69.5 28.5h41q43 0 69.5 -28.5t26.5 -71.5v-39q0 -43 -26.5 -73t-69.5 -30h-41q-43 0 -69.5 30t-26.5 73zM725 1231v39q0 41 27.5 70.5t68.5 29.5h41q43 0 69.5 -28.5 t26.5 -71.5v-39q0 -43 -26.5 -73t-69.5 -30h-41q-41 0 -68.5 30t-27.5 73z" />
<glyph unicode="&#x100;" horiz-adv-x="1501" d="M80 31q0 12 6 26l541 1282q12 31 26.5 42.5t40.5 11.5h113q29 0 42 -11.5t25 -42.5l541 -1282q6 -14 6 -26q0 -31 -35 -31h-178q-27 0 -38 7t-21 30l-117 287h-565l-115 -287q-10 -23 -21.5 -30t-37.5 -7h-178q-35 0 -35 31zM397 1663v53q0 39 16.5 56.5t57.5 17.5h559 q41 0 57.5 -17.5t16.5 -56.5v-53q0 -39 -16.5 -55.5t-57.5 -16.5h-559q-41 0 -57.5 16.5t-16.5 55.5zM532 514h435l-217 537z" />
<glyph unicode="&#x101;" horiz-adv-x="1259" d="M80 434q0 172 75.5 304t216 204t326.5 72q260 0 441 -123v-836q0 -31 -13.5 -43t-46.5 -12h-112q-23 0 -34 9t-15 30l-17 80q-63 -78 -156.5 -114t-226.5 -36q-201 0 -319.5 122t-118.5 343zM338 442q0 -147 68.5 -216.5t209.5 -69.5q109 0 192 63.5t83 167.5v399 q-43 23 -87 32t-108 9q-162 0 -260 -102t-98 -283zM342 1257v54q0 39 16.5 56t57.5 17h559q41 0 57.5 -17t16.5 -56v-54q0 -39 -16.5 -55t-57.5 -16h-559q-41 0 -57.5 16.5t-16.5 54.5z" />
<glyph unicode="&#x102;" horiz-adv-x="1501" d="M80 31q0 12 6 26l541 1282q12 31 26.5 42.5t40.5 11.5h113q29 0 42 -11.5t25 -42.5l541 -1282q6 -14 6 -26q0 -31 -35 -31h-178q-27 0 -38 7t-21 30l-117 287h-565l-115 -287q-10 -23 -21.5 -30t-37.5 -7h-178q-35 0 -35 31zM412 1882q0 16 9 26.5t23 10.5h136 q20 0 27 -9t7 -30q0 -74 30 -114t106 -40q74 0 104.5 40t30.5 114q0 20 7 29.5t28 9.5h135q14 0 23 -10.5t9 -26.5q0 -150 -87 -242t-250 -92q-168 0 -253 91.5t-85 242.5zM532 514h435l-217 537z" />
<glyph unicode="&#x103;" horiz-adv-x="1259" d="M80 434q0 172 75.5 304t216 204t326.5 72q260 0 441 -123v-836q0 -31 -13.5 -43t-46.5 -12h-112q-23 0 -34 9t-15 30l-17 80q-63 -78 -156.5 -114t-226.5 -36q-201 0 -319.5 122t-118.5 343zM338 442q0 -147 68.5 -216.5t209.5 -69.5q109 0 192 63.5t83 167.5v399 q-43 23 -87 32t-108 9q-162 0 -260 -102t-98 -283zM354 1485q0 16 9.5 26.5t23.5 10.5h135q20 0 27.5 -9.5t7.5 -29.5q0 -74 29.5 -114t105.5 -40q74 0 104.5 40t30.5 114q0 20 7.5 29.5t27.5 9.5h135q14 0 23.5 -10.5t9.5 -26.5q0 -150 -87 -242t-251 -92q-168 0 -253 91 t-85 243z" />
<glyph unicode="&#x104;" horiz-adv-x="1501" d="M80 31q0 12 6 26l541 1282q12 31 26.5 42.5t40.5 11.5h113q29 0 42 -11.5t25 -42.5l541 -1282q6 -14 6 -26q0 -31 -35 -31h-45q8 -10 -4 -23q-72 -86 -96 -131t-24 -90q0 -55 49 -55q29 0 45 8q12 4 14 4q8 0 14 -14l31 -68q4 -8 4 -12q0 -12 -24 -22q-49 -25 -152 -25 q-88 0 -133 45t-45 115q0 57 29.5 116.5t95.5 135.5q20 20 26 22q-14 8 -22 31l-117 287h-565l-115 -287q-10 -23 -21.5 -30t-37.5 -7h-178q-35 0 -35 31zM532 514h435l-217 537z" />
<glyph unicode="&#x105;" horiz-adv-x="1259" d="M80 434q0 172 75.5 304t216 204t326.5 72q260 0 441 -123v-836q0 -25 -7.5 -37t-27.5 -16q0 -6 -6 -12q-72 -86 -96.5 -131t-24.5 -90q0 -55 49 -56q29 0 45 8q12 4 14 5q8 0 15 -15l30 -67q4 -8 5 -13q0 -12 -25 -22q-49 -25 -152 -25q-88 0 -133 45t-45 115 q0 57 30 116.5t95 135.5q18 18 23 20q-6 8 -10 23l-17 80q-63 -78 -156.5 -114t-226.5 -36q-201 0 -319.5 122t-118.5 343zM338 442q0 -147 68.5 -216.5t209.5 -69.5q109 0 192 63.5t83 167.5v399q-43 23 -87 32t-108 9q-162 0 -260 -102t-98 -283z" />
<glyph unicode="&#x106;" horiz-adv-x="1386" d="M80 696q0 350 187.5 538.5t535.5 188.5q139 0 258 -28.5t201 -81.5q18 -12 18 -27q0 -12 -10 -29l-58 -98q-12 -18 -22 -18q-8 0 -29 10q-129 78 -330 78q-231 0 -362 -133t-131 -400q0 -270 135 -402t365 -132q213 0 350 80q20 10 26 10q12 0 25 -19l64 -106 q6 -12 6 -21q0 -12 -23 -26q-158 -111 -477 -111q-348 0 -538.5 188.5t-190.5 538.5zM653 1575q0 16 4 24l97 269q12 29 25.5 39t49.5 10h152q51 0 51 -35q0 -14 -8 -31l-135 -264q-14 -27 -30.5 -36t-55.5 -9h-107q-43 0 -43 33z" />
<glyph unicode="&#x107;" horiz-adv-x="1157" d="M80 487q0 156 69.5 275t199.5 185.5t304 66.5q129 0 219.5 -24.5t167.5 -80.5q18 -12 19 -26q0 -12 -10 -29l-56 -96q-12 -20 -22 -21q-10 0 -29 13q-63 39 -125.5 58t-148.5 19q-154 0 -242 -91t-88 -249q0 -166 88 -248.5t258 -82.5q86 0 149.5 20.5t122.5 59.5 q16 10 27 10q12 0 25 -21l59 -100q8 -10 8 -23q0 -14 -20 -28q-82 -53 -176.5 -79t-221.5 -26q-272 0 -424.5 134.5t-152.5 383.5zM492 1169q0 16 4 25l96 268q12 29 25.5 39t50.5 10h151q51 0 51 -34q0 -14 -8 -31l-135 -264q-14 -27 -30.5 -36t-55.5 -9h-106 q-43 -1 -43 32z" />
<glyph unicode="&#x108;" horiz-adv-x="1386" d="M80 696q0 350 187.5 538.5t535.5 188.5q139 0 258 -28.5t201 -81.5q18 -12 18 -27q0 -12 -10 -29l-58 -98q-12 -18 -22 -18q-8 0 -29 10q-129 78 -330 78q-231 0 -362 -133t-131 -400q0 -270 135 -402t365 -132q213 0 350 80q20 10 26 10q12 0 25 -19l64 -106 q6 -12 6 -21q0 -12 -23 -26q-158 -111 -477 -111q-348 0 -538.5 188.5t-190.5 538.5zM418 1542q0 18 14 35l213 289q23 29 34 37t44 8h117q33 0 45 -9.5t33 -35.5l212 -289q14 -16 15 -35q0 -14 -12.5 -22.5t-32.5 -8.5h-96q-35 0 -50.5 9.5t-33.5 33.5l-138 205l-139 -205 q-14 -25 -30.5 -34t-51.5 -9h-96q-21 0 -34 8.5t-13 22.5z" />
<glyph unicode="&#x109;" horiz-adv-x="1157" d="M80 487q0 156 69.5 275t199.5 185.5t304 66.5q129 0 219.5 -24.5t167.5 -80.5q18 -12 19 -26q0 -12 -10 -29l-56 -96q-12 -20 -22 -21q-10 0 -29 13q-63 39 -125.5 58t-148.5 19q-154 0 -242 -91t-88 -249q0 -166 88 -248.5t258 -82.5q86 0 149.5 20.5t122.5 59.5 q16 10 27 10q12 0 25 -21l59 -100q8 -10 8 -23q0 -14 -20 -28q-82 -53 -176.5 -79t-221.5 -26q-272 0 -424.5 134.5t-152.5 383.5zM279 1161q0 18 14 35l213 289q23 29 34 37t44 8h116q33 0 45.5 -9.5t32.5 -35.5l213 -289q14 -16 15 -35q0 -14 -12.5 -22.5t-32.5 -8.5h-97 q-35 0 -50 9.5t-34 34.5l-137 204l-139 -204q-14 -25 -30.5 -34.5t-51.5 -9.5h-96q-21 0 -34 8.5t-13 22.5z" />
<glyph unicode="&#x10a;" horiz-adv-x="1386" d="M80 696q0 350 187.5 538.5t535.5 188.5q139 0 258 -28.5t201 -81.5q18 -12 18 -27q0 -12 -10 -29l-58 -98q-12 -18 -22 -18q-8 0 -29 10q-129 78 -330 78q-231 0 -362 -133t-131 -400q0 -270 135 -402t365 -132q213 0 350 80q20 10 26 10q12 0 25 -19l64 -106 q6 -12 6 -21q0 -12 -23 -26q-158 -111 -477 -111q-348 0 -538.5 188.5t-190.5 538.5zM666 1681v39q0 41 27.5 71t68.5 30h43q41 0 68.5 -30t27.5 -71v-39q0 -43 -26.5 -72.5t-69.5 -29.5h-43q-41 0 -68.5 29.5t-27.5 72.5z" />
<glyph unicode="&#x10b;" horiz-adv-x="1157" d="M80 487q0 156 69.5 275t199.5 185.5t304 66.5q129 0 219.5 -24.5t167.5 -80.5q18 -12 19 -26q0 -12 -10 -29l-56 -96q-12 -20 -22 -21q-10 0 -29 13q-63 39 -125.5 58t-148.5 19q-154 0 -242 -91t-88 -249q0 -166 88 -248.5t258 -82.5q86 0 149.5 20.5t122.5 59.5 q16 10 27 10q12 0 25 -21l59 -100q8 -10 8 -23q0 -14 -20 -28q-82 -53 -176.5 -79t-221.5 -26q-272 0 -424.5 134.5t-152.5 383.5zM522 1276v39q0 41 28 70.5t68 29.5h44q41 0 68.5 -29.5t27.5 -70.5v-39q0 -43 -26.5 -72.5t-69.5 -29.5h-44q-40 0 -68 29.5t-28 72.5z" />
<glyph unicode="&#x10c;" horiz-adv-x="1386" d="M80 696q0 350 187.5 538.5t535.5 188.5q139 0 258 -28.5t201 -81.5q18 -12 18 -27q0 -12 -10 -29l-58 -98q-12 -18 -22 -18q-8 0 -29 10q-129 78 -330 78q-231 0 -362 -133t-131 -400q0 -270 135 -402t365 -132q213 0 350 80q20 10 26 10q12 0 25 -19l64 -106 q6 -12 6 -21q0 -12 -23 -26q-158 -111 -477 -111q-348 0 -538.5 188.5t-190.5 538.5zM451 1915q0 27 36 27h109q35 0 49 -7.5t31 -31.5l141 -207l139 207q14 25 28.5 32t51.5 7h107q39 0 39 -27q0 -20 -17 -39l-213 -289q-18 -27 -31.5 -35t-46.5 -8h-116q-33 0 -44.5 8.5 t-33.5 34.5l-213 289q-16 23 -16 39z" />
<glyph unicode="&#x10d;" horiz-adv-x="1157" d="M80 487q0 156 69.5 275t199.5 185.5t304 66.5q129 0 219.5 -24.5t167.5 -80.5q18 -12 19 -26q0 -12 -10 -29l-56 -96q-12 -20 -22 -21q-10 0 -29 13q-63 39 -125.5 58t-148.5 19q-154 0 -242 -91t-88 -249q0 -166 88 -248.5t258 -82.5q86 0 149.5 20.5t122.5 59.5 q16 10 27 10q12 0 25 -21l59 -100q8 -10 8 -23q0 -14 -20 -28q-82 -53 -176.5 -79t-221.5 -26q-272 0 -424.5 134.5t-152.5 383.5zM266 1509q0 27 37 27h109q35 0 49 -7t31 -32l141 -207l139 207q14 25 28.5 32t51.5 7h106q39 0 39 -27q0 -20 -16 -39l-213 -288 q-18 -27 -31.5 -35t-46.5 -8h-117q-32 0 -43.5 8t-33.5 35l-213 288q-16 23 -17 39z" />
<glyph unicode="&#x10e;" horiz-adv-x="1398" d="M121 74v1243q0 39 17.5 57.5t58.5 18.5h409q346 0 529.5 -166t183.5 -531q0 -696 -713 -696h-409q-41 0 -58.5 18.5t-17.5 55.5zM254 1915q0 27 37 27h108q35 0 49.5 -7.5t30.5 -31.5l142 -207l139 207q14 25 28.5 32t51.5 7h106q39 0 39 -27q0 -20 -16 -39l-213 -289 q-18 -27 -31.5 -35t-46.5 -8h-117q-33 0 -44 8.5t-34 34.5l-213 289q-16 23 -16 39zM383 199h240q217 0 326.5 112.5t109.5 384.5t-109.5 384t-326.5 112h-240v-993z" />
<glyph unicode="&#x10f;" horiz-adv-x="1566" d="M80 494q0 154 59.5 271.5t171 183t262.5 65.5q215 0 312 -96v399q0 39 18.5 57.5t59.5 18.5h102q41 0 59.5 -18.5t18.5 -57.5v-1215q-78 -57 -209 -95t-272 -38q-582 1 -582 525zM338 487q0 -176 82 -253.5t248 -77.5q65 0 122.5 13t94.5 36v418q0 100 -70 151t-180 51 q-150 0 -223.5 -90t-73.5 -248zM1225 1194q0 16 4 25l96 268q12 29 26.5 39t51.5 10h133q51 0 51 -35q0 -14 -8 -31l-135 -264q-16 -27 -31.5 -36t-54.5 -9h-88q-45 0 -45 33z" />
<glyph unicode="&#x110;" horiz-adv-x="1490" d="M39 668v55q0 39 15.5 56.5t56.5 17.5h102v520q0 39 18.5 57.5t59.5 18.5h409q344 0 527.5 -166t183.5 -531q0 -696 -711 -696h-409q-41 0 -59.5 18.5t-18.5 55.5v524h-102q-41 0 -56.5 16.5t-15.5 53.5zM475 199h240q217 0 326.5 112.5t109.5 384.5t-109.5 384 t-326.5 112h-240v-395h295q41 0 57.5 -17.5t16.5 -56.5v-55q0 -37 -16.5 -53.5t-57.5 -16.5h-295v-399z" />
<glyph unicode="&#x111;" horiz-adv-x="1308" d="M80 494q0 154 59.5 271.5t171 183t262.5 65.5q215 0 312 -96v172h-277q-37 0 -50 12t-13 47v55q0 35 13 49.5t50 14.5h277v49q0 39 18.5 57.5t59.5 18.5h102q41 0 59.5 -18.5t18.5 -57.5v-49h82q37 0 51 -14.5t14 -49.5v-55q0 -33 -14 -46t-51 -13h-82v-988 q-78 -57 -209 -95t-272 -38q-582 1 -582 525zM338 487q0 -176 82 -253.5t248 -77.5q137 0 217 49v418q0 100 -70 151t-180 51q-150 0 -223.5 -90t-73.5 -248z" />
<glyph unicode="&#x112;" horiz-adv-x="1179" d="M121 74v1243q0 39 17.5 57.5t58.5 18.5h852q41 0 56 -16.5t15 -55.5v-55q0 -39 -15 -56.5t-56 -17.5h-666v-397h483q41 0 57.5 -16.5t16.5 -55.5v-51q0 -39 -16.5 -56.5t-57.5 -17.5h-483v-399h664q41 0 57 -17.5t16 -56.5v-55q0 -37 -16.5 -53.5t-56.5 -16.5h-850 q-41 0 -58.5 18.5t-17.5 55.5zM252 1663v53q0 39 16.5 56.5t57.5 17.5h559q41 0 57 -17.5t16 -56.5v-53q0 -39 -16 -55.5t-57 -16.5h-559q-41 0 -57.5 16.5t-16.5 55.5z" />
<glyph unicode="&#x113;" horiz-adv-x="1224" d="M80 475q0 264 141 401.5t402 137.5q258 0 390 -133t132 -385q0 -72 -66 -72h-751q0 -135 94 -208t262 -73q162 0 291 74q14 8 22 8q14 0 23 -18l49 -88q6 -12 6 -23q0 -14 -18 -26q-84 -51 -181.5 -76t-224.5 -25q-159 0 -288.5 54.5t-206 168t-76.5 283.5zM268 1274v53 q0 39 16.5 56.5t57.5 17.5h559q41 0 57.5 -17.5t16.5 -56.5v-53q0 -39 -16.5 -55.5t-57.5 -16.5h-559q-41 0 -57.5 16.5t-16.5 55.5zM328 575h579q0 127 -70.5 199t-211.5 72q-143 0 -220 -74t-77 -197z" />
<glyph unicode="&#x114;" horiz-adv-x="1179" d="M121 74v1243q0 39 17.5 57.5t58.5 18.5h852q41 0 56 -16.5t15 -55.5v-55q0 -39 -15 -56.5t-56 -17.5h-666v-397h483q41 0 57.5 -16.5t16.5 -55.5v-51q0 -39 -16.5 -56.5t-57.5 -17.5h-483v-399h664q41 0 57 -17.5t16 -56.5v-55q0 -37 -16.5 -53.5t-56.5 -16.5h-850 q-41 0 -58.5 18.5t-17.5 55.5zM293 1882q0 16 9 26.5t24 10.5h135q20 0 27.5 -9t7.5 -30q0 -74 29.5 -114t105.5 -40q74 0 104.5 40t30.5 114q0 20 7 29.5t28 9.5h135q14 0 23.5 -10.5t9.5 -26.5q0 -150 -87 -242t-251 -92q-168 0 -253 91.5t-85 242.5z" />
<glyph unicode="&#x115;" horiz-adv-x="1224" d="M80 475q0 264 141 401.5t402 137.5q258 0 390 -133t132 -385q0 -72 -66 -72h-751q0 -135 94 -208t262 -73q162 0 291 74q14 8 22 8q14 0 23 -18l49 -88q6 -12 6 -23q0 -14 -18 -26q-84 -51 -181.5 -76t-224.5 -25q-159 0 -288.5 54.5t-206 168t-76.5 283.5zM285 1477 q0 16 9 26t23 10h136q20 0 27 -9t7 -29q0 -74 30 -114t106 -40q74 0 104.5 40t30.5 114q0 20 7 29t28 9h135q14 0 23.5 -10t9.5 -26q0 -150 -87.5 -242t-250.5 -92q-168 0 -253 91t-85 243zM328 575h579q0 127 -70.5 199t-211.5 72q-143 0 -220 -74t-77 -197z" />
<glyph unicode="&#x116;" horiz-adv-x="1179" d="M121 74v1243q0 39 17.5 57.5t58.5 18.5h852q41 0 56 -16.5t15 -55.5v-55q0 -39 -15 -56.5t-56 -17.5h-666v-397h483q41 0 57.5 -16.5t16.5 -55.5v-51q0 -39 -16.5 -56.5t-57.5 -17.5h-483v-399h664q41 0 57 -17.5t16 -56.5v-55q0 -37 -16.5 -53.5t-56.5 -16.5h-850 q-41 0 -58.5 18.5t-17.5 55.5zM504 1681v39q0 41 27.5 71t68.5 30h43q41 0 68.5 -30t27.5 -71v-39q0 -43 -26.5 -72.5t-69.5 -29.5h-43q-41 0 -68.5 29.5t-27.5 72.5z" />
<glyph unicode="&#x117;" horiz-adv-x="1224" d="M80 475q0 264 141 401.5t402 137.5q258 0 390 -133t132 -385q0 -72 -66 -72h-751q0 -135 94 -208t262 -73q162 0 291 74q14 8 22 8q14 0 23 -18l49 -88q6 -12 6 -23q0 -14 -18 -26q-84 -51 -181.5 -76t-224.5 -25q-159 0 -288.5 54.5t-206 168t-76.5 283.5zM328 575h579 q0 127 -70.5 199t-211.5 72q-143 0 -220 -74t-77 -197zM504 1276v39q0 41 27.5 70.5t68.5 29.5h43q41 0 68.5 -29.5t27.5 -70.5v-39q0 -43 -26.5 -72.5t-69.5 -29.5h-43q-41 0 -68.5 29.5t-27.5 72.5z" />
<glyph unicode="&#x118;" horiz-adv-x="1179" d="M121 74v1243q0 39 17.5 57.5t58.5 18.5h852q41 0 56 -16.5t15 -55.5v-55q0 -39 -15 -56.5t-56 -17.5h-666v-397h483q41 0 57.5 -16.5t16.5 -55.5v-51q0 -39 -16.5 -56.5t-57.5 -17.5h-483v-399h664q41 0 57 -17.5t16 -56.5v-55q0 -37 -14 -52.5t-51 -17.5v-4q0 -8 -6 -16 q-72 -86 -96.5 -131.5t-24.5 -90.5q0 -55 49 -55q29 0 45 8q12 4 14 4q8 0 15 -14l30 -68q4 -8 4 -12q0 -12 -24 -22q-49 -25 -152 -25q-88 0 -133 45t-45 115q0 57 30 116.5t95 135.5l14 14h-673q-41 0 -58.5 18.5t-17.5 55.5z" />
<glyph unicode="&#x119;" horiz-adv-x="1224" d="M80 475q0 264 141 401.5t402 137.5q258 0 390 -133t132 -385q0 -72 -66 -72h-751q0 -135 94 -208t262 -73q162 0 291 74q14 8 22 8q14 0 23 -18l49 -88q6 -12 6 -21q0 -8 -6 -18l-4 -6q-72 -86 -96.5 -131t-24.5 -90q0 -55 49 -56q29 0 45 8l15 5q8 0 14 -15l31 -67 q4 -8 4 -13q0 -12 -25 -22q-49 -25 -151 -25q-88 0 -133 45t-45 115t47 149q-57 -8 -144 -8q-160 0 -289 54.5t-205.5 168t-76.5 283.5zM328 575h579q0 127 -70.5 199t-211.5 72q-143 0 -220 -74t-77 -197z" />
<glyph unicode="&#x11a;" horiz-adv-x="1179" d="M121 74v1243q0 39 17.5 57.5t58.5 18.5h852q41 0 56 -16.5t15 -55.5v-55q0 -39 -15 -56.5t-56 -17.5h-666v-397h483q41 0 57.5 -16.5t16.5 -55.5v-51q0 -39 -16.5 -56.5t-57.5 -17.5h-483v-399h664q41 0 57 -17.5t16 -56.5v-55q0 -37 -16.5 -53.5t-56.5 -16.5h-850 q-41 0 -58.5 18.5t-17.5 55.5zM264 1915q0 27 37 27h109q35 0 49 -7.5t30 -31.5l142 -207l139 207q14 25 28.5 32t51.5 7h106q39 0 39 -27q0 -20 -16 -39l-213 -289q-18 -27 -31.5 -35t-46.5 -8h-117q-32 0 -43.5 8.5t-33.5 34.5l-213 289q-16 23 -17 39z" />
<glyph unicode="&#x11b;" horiz-adv-x="1224" d="M80 475q0 264 141 401.5t402 137.5q258 0 390 -133t132 -385q0 -72 -66 -72h-751q0 -135 94 -208t262 -73q162 0 291 74q14 8 22 8q14 0 23 -18l49 -88q6 -12 6 -23q0 -14 -18 -26q-84 -51 -181.5 -76t-224.5 -25q-159 0 -288.5 54.5t-206 168t-76.5 283.5zM254 1509 q0 27 37 27h108q35 0 49.5 -7t30.5 -32l142 -207l139 207q14 25 28.5 32t51.5 7h106q39 0 39 -27q0 -20 -16 -39l-213 -288q-18 -27 -31.5 -35t-46.5 -8h-117q-33 0 -44 8t-34 35l-213 288q-16 23 -16 39zM328 575h579q0 127 -70.5 199t-211.5 72q-143 0 -220 -74t-77 -197z " />
<glyph unicode="&#x11c;" horiz-adv-x="1433" d="M80 696q0 348 191.5 537.5t537.5 189.5q139 0 260 -28.5t201 -81.5q18 -12 18 -27q0 -10 -8 -24l-59 -103q-12 -18 -25 -18q-6 0 -27 10q-139 78 -331 78q-233 0 -366.5 -132t-133.5 -401q0 -270 129 -401t354 -131q82 0 160 13t127 38v379h-270q-41 0 -57.5 17.5 t-16.5 56.5v53q0 39 16.5 54.5t57.5 15.5h432q45 0 64.5 -21.5t19.5 -67.5v-540q0 -31 -6.5 -46.5t-26.5 -27.5q-188 -119 -512 -119q-348 0 -538.5 188.5t-190.5 538.5zM440 1518q0 18 15 34l213 289q23 29 34 37t43 8h117q33 0 45.5 -9t32.5 -36l213 -289q14 -16 14 -34 q0 -14 -12 -22.5t-33 -8.5h-96q-35 0 -50 9t-34 34l-137 205l-139 -205q-14 -25 -31 -34t-51 -9h-97q-20 0 -33.5 8t-13.5 23z" />
<glyph unicode="&#x11d;" horiz-adv-x="1273" d="M80 479q0 258 152.5 396.5t441.5 138.5q133 0 261 -37t208 -92v-703q0 -248 -121 -389t-379 -141q-119 0 -231.5 22.5t-171.5 59.5q-33 18 -17 45l60 100q12 20 24 21q8 0 21 -6q113 -57 293 -58q137 0 200.5 65.5t63.5 221.5q-57 -61 -134 -91t-186 -30q-229 0 -357 125 t-128 352zM291 1161q0 18 14 35l213 289q23 29 34 37t44 8h117q33 0 45 -9.5t33 -35.5l213 -289q14 -16 14 -35q0 -14 -12.5 -22.5t-32.5 -8.5h-96q-35 0 -50.5 9.5t-33.5 34.5l-138 204l-139 -204q-14 -25 -30.5 -34.5t-51.5 -9.5h-96q-21 0 -34 8.5t-13 22.5zM338 496 q0 -152 71.5 -226.5t217.5 -74.5q114 0 186 60t72 167v364q-39 18 -98.5 28.5t-124.5 10.5q-324 0 -324 -329z" />
<glyph unicode="&#x11e;" horiz-adv-x="1433" d="M80 696q0 348 191.5 537.5t537.5 189.5q139 0 260 -28.5t201 -81.5q18 -12 18 -27q0 -10 -8 -24l-59 -103q-12 -18 -25 -18q-6 0 -27 10q-139 78 -331 78q-233 0 -366.5 -132t-133.5 -401q0 -270 129 -401t354 -131q82 0 160 13t127 38v379h-270q-41 0 -57.5 17.5 t-16.5 56.5v53q0 39 16.5 54.5t57.5 15.5h432q45 0 64.5 -21.5t19.5 -67.5v-540q0 -31 -6.5 -46.5t-26.5 -27.5q-188 -119 -512 -119q-348 0 -538.5 188.5t-190.5 538.5zM461 1833q0 16 9 26.5t24 10.5h135q20 0 27.5 -9.5t7.5 -29.5q0 -74 29.5 -114t105.5 -40 q74 0 104.5 40t30.5 114q0 20 7 29.5t28 9.5h135q14 0 23.5 -10.5t9.5 -26.5q0 -150 -87 -242t-251 -92q-168 0 -253 91t-85 243z" />
<glyph unicode="&#x11f;" horiz-adv-x="1263" d="M80 479q0 258 152.5 396.5t441.5 138.5q133 0 261 -37t208 -92v-703q0 -248 -121 -389t-379 -141q-119 0 -231.5 22.5t-171.5 59.5q-33 18 -17 45l60 100q12 20 24 21q8 0 21 -6q113 -57 293 -58q137 0 200.5 65.5t63.5 221.5q-57 -61 -134 -91t-186 -30q-229 0 -357 125 t-128 352zM324 1468q0 16 9 26.5t23 10.5h136q20 0 27 -9t7 -30q0 -74 30 -113.5t106 -39.5q74 0 104.5 40t30.5 113q0 20 7 29.5t27 9.5h136q14 0 23 -10t9 -27q0 -150 -87 -241.5t-250 -91.5q-168 0 -253 91t-85 242zM338 496q0 -152 71.5 -226.5t217.5 -74.5 q114 0 186 60t72 167v364q-39 18 -98.5 28.5t-124.5 10.5q-324 0 -324 -329z" />
<glyph unicode="&#x120;" horiz-adv-x="1433" d="M80 696q0 348 191.5 537.5t537.5 189.5q139 0 260 -28.5t201 -81.5q18 -12 18 -27q0 -10 -8 -24l-59 -103q-12 -18 -25 -18q-6 0 -27 10q-139 78 -331 78q-233 0 -366.5 -132t-133.5 -401q0 -270 129 -401t354 -131q82 0 160 13t127 38v379h-270q-41 0 -57.5 17.5 t-16.5 56.5v53q0 39 16.5 54.5t57.5 15.5h432q45 0 64.5 -21.5t19.5 -67.5v-540q0 -31 -6.5 -46.5t-26.5 -27.5q-188 -119 -512 -119q-348 0 -538.5 188.5t-190.5 538.5zM678 1632v39q0 41 27.5 71t68.5 30h43q41 0 68.5 -30t27.5 -71v-39q0 -43 -26.5 -72.5t-69.5 -29.5 h-43q-41 0 -68.5 29.5t-27.5 72.5z" />
<glyph unicode="&#x121;" horiz-adv-x="1263" d="M80 479q0 258 152.5 396.5t441.5 138.5q133 0 261 -37t208 -92v-703q0 -248 -121 -389t-379 -141q-119 0 -231.5 22.5t-171.5 59.5q-33 18 -17 45l60 100q12 20 24 21q8 0 21 -6q113 -57 293 -58q137 0 200.5 65.5t63.5 221.5q-57 -61 -134 -91t-186 -30q-229 0 -357 125 t-128 352zM338 496q0 -152 71.5 -226.5t217.5 -74.5q114 0 186 60t72 167v364q-39 18 -98.5 28.5t-124.5 10.5q-324 0 -324 -329zM553 1262v38q0 41 27.5 71t68.5 30h43q41 0 68.5 -30t27.5 -71v-38q0 -43 -26.5 -73t-69.5 -30h-43q-41 0 -68.5 30t-27.5 73z" />
<glyph unicode="&#x122;" horiz-adv-x="1433" d="M80 696q0 348 191.5 537.5t537.5 189.5q139 0 260 -28.5t201 -81.5q18 -12 18 -27q0 -10 -8 -24l-59 -103q-12 -18 -25 -18q-6 0 -27 10q-139 78 -331 78q-233 0 -366.5 -132t-133.5 -401q0 -270 129 -401t354 -131q82 0 160 13t127 38v379h-270q-41 0 -57.5 17.5 t-16.5 56.5v53q0 39 16.5 54.5t57.5 15.5h432q45 0 64.5 -21.5t19.5 -67.5v-540q0 -31 -6.5 -46.5t-26.5 -27.5q-188 -119 -512 -119q-348 0 -538.5 188.5t-190.5 538.5zM635 -459q0 6 4 23l94 309q8 33 23.5 43t50.5 10h106q51 0 52 -30q0 -10 -11 -37l-133 -312 q-12 -35 -59 -34h-90q-37 -1 -37 28z" />
<glyph unicode="&#x123;" horiz-adv-x="1263" d="M80 479q0 258 152.5 396.5t441.5 138.5q133 0 261 -37t208 -92v-703q0 -248 -121 -389t-379 -141q-119 0 -231.5 22.5t-171.5 59.5q-33 18 -17 45l60 100q12 20 24 21q8 0 21 -6q113 -57 293 -58q137 0 200.5 65.5t63.5 221.5q-57 -61 -134 -91t-186 -30q-229 0 -357 125 t-128 352zM338 496q0 -152 71.5 -226.5t217.5 -74.5q114 0 186 60t72 167v364q-39 18 -98.5 28.5t-124.5 10.5q-324 0 -324 -329zM555 1188q0 10 10 37l133 311q12 35 60 35h90q37 0 37 -29q0 -6 -4 -22l-95 -310q-8 -33 -23 -43t-50 -10h-107q-51 0 -51 31z" />
<glyph unicode="&#x124;" horiz-adv-x="1437" d="M121 74v1243q0 39 17.5 57.5t58.5 18.5h108q41 0 59.5 -18.5t18.5 -57.5v-516h672v516q0 39 18.5 57.5t59.5 18.5h106q41 0 59.5 -18.5t18.5 -57.5v-1243q0 -37 -17.5 -55.5t-60.5 -18.5h-106q-41 0 -59.5 18.5t-18.5 55.5v528h-672v-528q0 -37 -17.5 -55.5t-60.5 -18.5 h-108q-41 0 -58.5 18.5t-17.5 55.5zM354 1567q0 18 15 35l213 288q23 29 34 37t43 8h117q33 0 45.5 -9t32.5 -36l213 -288q14 -16 14 -35q0 -14 -12 -22.5t-33 -8.5h-96q-35 0 -50.5 9t-33.5 34l-137 205l-139 -205q-14 -25 -31 -34t-51 -9h-97q-20 0 -33.5 8t-13.5 23z" />
<glyph unicode="&#x125;" horiz-adv-x="1220" d="M121 74v1263q0 31 10 43.5t43 12.5h141q33 0 44.5 -12.5t11.5 -43.5v-458q68 68 157.5 101.5t212.5 33.5q166 0 267.5 -89t101.5 -268v-583q0 -37 -17.5 -55.5t-58.5 -18.5h-108q-41 0 -59.5 18.5t-18.5 55.5v567q0 100 -48 142t-147 42q-68 0 -130 -26.5t-101 -73.5 t-39 -109v-542q0 -37 -17.5 -55.5t-60.5 -18.5h-106q-41 0 -59.5 18.5t-18.5 55.5zM168 1542q0 18 14 35l213 289q23 29 34 37t44 8h117q33 0 45 -9.5t33 -35.5l213 -289q14 -16 14 -35q0 -14 -12.5 -22.5t-32.5 -8.5h-96q-35 0 -50.5 9.5t-33.5 33.5l-138 205l-139 -205 q-14 -25 -30.5 -34t-51.5 -9h-96q-20 0 -33.5 8.5t-13.5 22.5z" />
<glyph unicode="&#x126;" horiz-adv-x="1462" d="M57 1067v59q0 33 13.5 45.5t46.5 12.5h45v133q0 39 17.5 57.5t58.5 18.5h108q41 0 59.5 -18.5t18.5 -57.5v-133h672v133q0 39 18.5 57.5t59.5 18.5h106q41 0 59.5 -18.5t18.5 -57.5v-133h26q33 0 46.5 -12.5t13.5 -45.5v-59q0 -33 -12.5 -44t-47.5 -11h-26v-938 q0 -37 -17.5 -55.5t-60.5 -18.5h-106q-41 0 -59.5 18.5t-18.5 55.5v528h-672v-528q0 -37 -17.5 -55.5t-60.5 -18.5h-108q-41 0 -58.5 18.5t-17.5 55.5v938h-45q-33 0 -46.5 11t-13.5 44zM424 801h672v211h-672v-211z" />
<glyph unicode="&#x127;" horiz-adv-x="1302" d="M39 1147v47q0 39 15.5 52.5t56.5 13.5h90v77q0 31 11 43.5t44 12.5h119q33 0 43 -12.5t10 -43.5v-77h219q41 0 57.5 -13.5t16.5 -52.5v-47q0 -37 -15.5 -50.5t-58.5 -13.5h-219v-221q70 70 169 111t226 41q166 0 267.5 -89t101.5 -268v-583q0 -37 -17.5 -55.5 t-60.5 -18.5h-106q-43 0 -61.5 18.5t-18.5 55.5v567q0 100 -48.5 142t-146.5 42q-68 0 -130 -26.5t-101 -73.5t-39 -109v-542q0 -37 -17.5 -55.5t-58.5 -18.5h-108q-41 0 -59.5 18.5t-18.5 55.5v1009h-90q-43 0 -57.5 12.5t-14.5 51.5z" />
<glyph unicode="&#x128;" horiz-adv-x="493" d="M-180 1638q0 23 22 52q49 63 100.5 96t120.5 33q59 0 106.5 -15.5t111.5 -44.5q47 -23 80.5 -35t68.5 -12q41 0 67.5 16.5t59.5 59.5q16 23 41 22q29 0 70 -32q45 -37 45 -64q0 -23 -21 -49q-51 -78 -106.5 -111.5t-141.5 -33.5q-47 0 -93 15t-107 44q-59 27 -92 38 t-66 11q-41 0 -63.5 -14.5t-57.5 -50.5q-14 -20 -37 -21q-27 0 -71 39q-37 35 -37 57zM113 74v1243q0 39 17 57.5t58 18.5h109q41 0 59.5 -18.5t18.5 -57.5v-1243q0 -37 -17.5 -55.5t-60.5 -18.5h-109q-41 0 -58 18.5t-17 55.5z" />
<glyph unicode="&#x129;" horiz-adv-x="622" d="M-111 1298q0 23 23 52q49 63 100 96t121 33q59 0 106.5 -15.5t110.5 -44.5q47 -23 81 -35t69 -12q41 0 67.5 16.5t59.5 59.5q16 23 41 22q29 0 69 -32q45 -37 45 -64q0 -23 -20 -49q-51 -78 -106.5 -111.5t-141.5 -33.5q-47 0 -93 15t-108 44q-59 27 -92 38t-65 11 q-41 0 -63.5 -14t-57.5 -51q-14 -20 -37 -21q-27 0 -72 39q-37 35 -37 57zM178 74v833q0 39 17.5 57.5t58.5 18.5h108q41 0 59.5 -18.5t18.5 -57.5v-833q0 -37 -17 -55.5t-61 -18.5h-108q-41 0 -58.5 18.5t-17.5 55.5z" />
<glyph unicode="&#x12a;" horiz-adv-x="491" d="M-106 1622v55q0 39 15 56.5t56 17.5h559q41 0 57.5 -17.5t16.5 -56.5v-55q0 -39 -16.5 -55.5t-57.5 -16.5h-559q-41 0 -56 16.5t-15 55.5zM115 74v1243q0 39 18.5 57.5t59.5 18.5h106q41 0 59.5 -18.5t18.5 -57.5v-1243q0 -37 -17.5 -55.5t-60.5 -18.5h-106 q-41 0 -59.5 18.5t-18.5 55.5z" />
<glyph unicode="&#x12b;" horiz-adv-x="534" d="M-88 1274v53q0 39 16.5 56.5t57.5 17.5h559q41 0 57 -17.5t16 -56.5v-53q0 -39 -16 -55.5t-57 -16.5h-559q-41 0 -57.5 16.5t-16.5 55.5zM135 74v833q0 39 17.5 57.5t58.5 18.5h108q41 0 59.5 -18.5t18.5 -57.5v-833q0 -37 -17.5 -55.5t-60.5 -18.5h-108 q-41 0 -58.5 18.5t-17.5 55.5z" />
<glyph unicode="&#x12c;" horiz-adv-x="555" d="M-61 1876q0 16 9 26.5t23 10.5h135q20 0 27.5 -9.5t7.5 -29.5q0 -74 30 -114t105 -40q74 0 105 40t31 114q0 20 7 29.5t27 9.5h136q14 0 23 -10.5t9 -26.5q0 -150 -87 -242t-251 -92q-167 0 -252 91t-85 243zM145 74v1243q0 39 17.5 57.5t58.5 18.5h109q41 0 59.5 -18.5 t18.5 -57.5v-1243q0 -37 -17.5 -55.5t-60.5 -18.5h-109q-41 0 -58.5 18.5t-17.5 55.5z" />
<glyph unicode="&#x12d;" horiz-adv-x="555" d="M-61 1493q0 16 9 26.5t23 10.5h135q20 0 27.5 -9.5t7.5 -29.5q0 -74 31 -114t104 -40q76 0 106 40t30 114q0 20 7 29.5t27 9.5h136q14 0 23 -10.5t9 -26.5q0 -152 -86 -243t-252 -91q-165 0 -251 91t-86 243zM145 74v833q0 39 18.5 57.5t59.5 18.5h107q41 0 59.5 -18.5 t18.5 -57.5v-833q0 -37 -17.5 -55.5t-60.5 -18.5h-107q-41 0 -59.5 18.5t-18.5 55.5z" />
<glyph unicode="&#x12e;" horiz-adv-x="505" d="M20 -254q0 57 30 116.5t95 135.5q12 12 13 12q-27 18 -27 64v1243q0 39 17.5 57.5t58.5 18.5h108q41 0 59.5 -18.5t18.5 -57.5v-1243q0 -59 -49 -72q0 -4 -6 -10q-72 -86 -96.5 -131t-24.5 -90q0 -55 49 -56q29 0 45 9q12 4 15 4q8 0 14 -15l31 -67q4 -8 4 -13 q0 -12 -25 -22q-49 -25 -151 -25q-88 0 -133.5 45t-45.5 115z" />
<glyph unicode="&#x12f;" horiz-adv-x="501" d="M-6 -254q0 57 29.5 116.5t95.5 135.5q8 8 10 12q-29 14 -29 64v833q0 39 18.5 57.5t59.5 18.5h107q41 0 59 -18.5t18 -57.5v-833q0 -57 -45 -70q0 -6 -6 -12q-72 -86 -96.5 -131t-24.5 -90q0 -55 50 -56q29 0 45 9q12 4 14 4q8 0 14 -15l31 -67q4 -8 4 -13q0 -12 -24 -22 q-49 -25 -152 -25q-88 0 -133 45t-45 115zM84 1251v43q0 41 26.5 70t75.5 29h88q50 0 77.5 -29t27.5 -70v-43q0 -41 -27.5 -69.5t-77.5 -28.5h-88q-49 0 -75.5 28.5t-26.5 69.5z" />
<glyph unicode="&#x130;" horiz-adv-x="483" d="M109 74v1243q0 39 17 57.5t58 18.5h109q41 0 59.5 -18.5t18.5 -57.5v-1243q0 -37 -17.5 -55.5t-60.5 -18.5h-109q-41 0 -58 18.5t-17 55.5zM127 1632v39q0 41 27.5 71t68.5 30h43q41 0 68.5 -30t27.5 -71v-39q0 -43 -26.5 -72.5t-69.5 -29.5h-43q-41 0 -68.5 29.5 t-27.5 72.5z" />
<glyph unicode="&#x131;" horiz-adv-x="503" d="M121 74v833q0 39 17.5 57.5t58.5 18.5h108q41 0 59.5 -18.5t18.5 -57.5v-833q0 -37 -17.5 -55.5t-60.5 -18.5h-108q-41 0 -58.5 18.5t-17.5 55.5z" />
<glyph unicode="&#x132;" horiz-adv-x="1398" d="M121 74v1243q0 39 17.5 57.5t58.5 18.5h108q41 0 59.5 -18.5t18.5 -57.5v-1243q0 -37 -17.5 -55.5t-60.5 -18.5h-108q-41 0 -58.5 18.5t-17.5 55.5zM428 96q0 12 10 29l60 100q12 20 24 21q10 0 27 -13q47 -33 114.5 -52t143.5 -19q106 0 156.5 56t50.5 171v928 q0 39 18.5 57.5t59.5 18.5h106q41 0 59.5 -18.5t18.5 -57.5v-928q0 -193 -110.5 -306.5t-331.5 -113.5q-226 1 -388 101q-18 10 -18 26z" />
<glyph unicode="&#x133;" horiz-adv-x="1038" d="M113 1251v43q0 41 26.5 70t75.5 29h88q49 0 77 -29t28 -70v-43q0 -41 -28 -69.5t-77 -28.5h-88q-49 0 -75.5 28.5t-26.5 69.5zM129 74v833q0 39 18.5 57.5t59.5 18.5h106q41 0 59.5 -18.5t18.5 -57.5v-833q0 -37 -17.5 -55.5t-60.5 -18.5h-106q-41 0 -59.5 18.5 t-18.5 55.5zM154 -272q0 10 10 26l57 99q12 20 25 20q12 0 26 -12q47 -31 93.5 -48.5t101.5 -17.5q96 0 134 45t38 142v925q0 39 18.5 57.5t59.5 18.5h106q41 0 59.5 -18.5t18.5 -57.5v-932q0 -174 -97 -273t-292 -99q-102 0 -189 24.5t-151 69.5q-18 14 -18 31zM621 1251 v43q0 41 27.5 70t76.5 29h88q49 0 77 -29t28 -70v-43q0 -41 -28 -69.5t-77 -28.5h-88q-49 0 -76.5 28.5t-27.5 69.5z" />
<glyph unicode="&#x134;" horiz-adv-x="1144" d="M39 96q0 12 10 29l60 100q12 20 24 21q12 0 27 -13q47 -33 114.5 -52t143.5 -19q106 0 156.5 56t50.5 171v928q0 39 18.5 57.5t58.5 18.5h107q41 0 59.5 -18.5t18.5 -57.5v-928q0 -193 -110.5 -306.5t-332.5 -113.5q-225 1 -387 101q-18 10 -18 26zM397 1567q0 18 15 35 l213 288q23 29 34 37t43 8h117q33 0 45.5 -9t32.5 -36l213 -288q14 -16 14 -35q0 -14 -12 -22.5t-33 -8.5h-96q-35 0 -50 9t-34 34l-137 205l-139 -205q-14 -25 -31 -34t-51 -9h-97q-20 0 -33.5 8t-13.5 23z" />
<glyph unicode="&#x135;" horiz-adv-x="1034" d="M31 -223q0 10 10 26l57 99q12 20 25 20q12 0 27 -12q92 -66 196 -66q94 0 132 45t38 142v876q0 76 78 76h108q41 0 59.5 -18.5t18.5 -57.5v-882q0 -174 -97 -273.5t-292 -99.5q-104 0 -193 23.5t-149 70.5q-18 14 -18 31zM287 1178q0 18 14 34l213 289q23 29 34 37t44 8 h117q33 0 45 -9t32 -36l213 -289q14 -16 15 -34q0 -14 -12.5 -22.5t-32.5 -8.5h-97q-35 0 -50 9t-34 34l-137 205l-139 -205q-14 -25 -30.5 -34t-51.5 -9h-96q-21 0 -34 8t-13 23z" />
<glyph unicode="&#x136;" horiz-adv-x="1298" d="M121 74v1243q0 39 17.5 57.5t58.5 18.5h108q41 0 59.5 -18.5t18.5 -57.5v-1243q0 -37 -17.5 -55.5t-60.5 -18.5h-108q-41 0 -58.5 18.5t-17.5 55.5zM395 -459q0 6 4 23l95 309q8 33 23 43t50 10h107q51 0 51 -30q0 -10 -10 -37l-133 -312q-12 -35 -60 -34h-90 q-37 -1 -37 28zM412 698q0 27 7 41.5t27 40.5l482 588q12 16 24.5 20.5t38.5 4.5h189q14 0 22 -8.5t8 -20.5q0 -16 -12 -29l-530 -637l542 -641q12 -12 13 -28q0 -12 -8.5 -20.5t-22.5 -8.5h-195q-22 0 -33.5 4t-23.5 19l-494 593q-18 23 -26 39.5t-8 42.5z" />
<glyph unicode="&#x137;" horiz-adv-x="1148" d="M121 74v1243q0 39 17.5 57.5t58.5 18.5h108q41 0 59.5 -18.5t18.5 -57.5v-1243q0 -37 -17.5 -55.5t-60.5 -18.5h-108q-41 0 -58.5 18.5t-17.5 55.5zM362 -459q0 6 5 23l94 309q8 33 23.5 43t50.5 10h106q51 0 51 -30q0 -10 -10 -37l-133 -312q-12 -35 -60 -34h-90 q-37 -1 -37 28zM410 512q0 27 8 44t26 38l349 364q12 14 23 19.5t38 5.5h190q14 0 21.5 -8t7.5 -21q0 -16 -12 -28l-408 -414l422 -455q12 -12 12 -26q0 -12 -8 -21.5t-22 -9.5h-197q-22 0 -32.5 4t-22.5 19l-361 407q-18 20 -26 37.5t-8 44.5z" />
<glyph unicode="&#x138;" horiz-adv-x="1136" d="M121 119v788q0 45 22.5 60.5t85.5 15.5h76q41 0 59.5 -18.5t18.5 -57.5v-833q0 -45 -23.5 -59.5t-87.5 -14.5h-75q-50 0 -63 28.5t-13 90.5zM410 512q0 27 8 44t26 38l328 364q12 14 23.5 19.5t38.5 5.5h190q14 0 21.5 -8t7.5 -21q0 -16 -13 -28l-387 -414l402 -455 q12 -12 12 -28q0 -12 -8 -20.5t-23 -8.5h-196q-23 0 -33 4t-23 19l-340 407q-20 27 -27 41t-7 41z" />
<glyph unicode="&#x139;" horiz-adv-x="1122" d="M121 74v1243q0 39 17.5 57.5t58.5 18.5h108q41 0 59.5 -18.5t18.5 -57.5v-1118h627q41 0 57 -17.5t16 -56.5v-55q0 -37 -16 -53.5t-57 -16.5h-813q-41 0 -58.5 18.5t-17.5 55.5zM166 1526q0 16 4 24l96 269q12 29 25.5 39t50.5 10h152q51 0 51 -35q0 -14 -8 -31 l-136 -264q-14 -27 -30.5 -36t-55.5 -9h-106q-43 0 -43 33z" />
<glyph unicode="&#x13a;" horiz-adv-x="583" d="M133 74v1243q0 39 17.5 57.5t58.5 18.5h108q41 0 59.5 -18.5t18.5 -57.5v-1243q0 -37 -17.5 -55.5t-60.5 -18.5h-108q-41 0 -58.5 18.5t-17.5 55.5zM152 1628q0 16 4 25l96 268q12 29 25.5 39t50.5 10h151q51 0 51 -35q0 -14 -8 -30l-135 -265q-14 -27 -30.5 -36 t-55.5 -9h-106q-43 0 -43 33z" />
<glyph unicode="&#x13b;" horiz-adv-x="1122" d="M121 74v1243q0 39 17.5 57.5t58.5 18.5h108q41 0 59.5 -18.5t18.5 -57.5v-1118h627q41 0 57 -17.5t16 -56.5v-55q0 -37 -16 -53.5t-57 -16.5h-813q-41 0 -58.5 18.5t-17.5 55.5zM397 -459q0 6 4 23l95 309q8 33 23.5 43t49.5 10h107q51 0 51 -30q0 -10 -10 -37l-133 -312 q-12 -35 -60 -34h-90q-37 -1 -37 28z" />
<glyph unicode="&#x13c;" horiz-adv-x="581" d="M41 -459q0 6 4 23l94 309q8 33 23.5 43t50.5 10h106q51 0 52 -30q0 -10 -11 -37l-133 -312q-12 -35 -59 -34h-90q-37 -1 -37 28zM139 74v1243q0 39 17.5 57.5t58.5 18.5h109q41 0 59 -18.5t18 -57.5v-1243q0 -37 -17 -55.5t-60 -18.5h-109q-41 0 -58.5 18.5t-17.5 55.5z " />
<glyph unicode="&#x13d;" horiz-adv-x="1155" d="M121 74v1243q0 39 17.5 57.5t58.5 18.5h108q41 0 59.5 -18.5t18.5 -57.5v-1118h627q41 0 57 -17.5t16 -56.5v-55q0 -37 -16 -53.5t-57 -16.5h-813q-41 0 -58.5 18.5t-17.5 55.5zM674 1104q0 6 4 22l94 310q8 33 23.5 43t50.5 10h106q51 0 52 -31q0 -10 -11 -37l-133 -311 q-12 -35 -59 -35h-90q-37 0 -37 29z" />
<glyph unicode="&#x13e;" horiz-adv-x="884" d="M121 74v1243q0 39 17.5 57.5t58.5 18.5h108q41 0 59.5 -18.5t18.5 -57.5v-1243q0 -37 -17.5 -55.5t-60.5 -18.5h-108q-41 0 -58.5 18.5t-17.5 55.5zM535 1198q0 6 4 23l94 309q8 33 23.5 43t50.5 10h106q51 0 51 -31q0 -10 -10 -36l-133 -312q-12 -35 -59 -35h-91 q-36 0 -36 29z" />
<glyph unicode="&#x13f;" horiz-adv-x="1122" d="M121 74v1243q0 39 17.5 57.5t58.5 18.5h108q41 0 59.5 -18.5t18.5 -57.5v-1118h627q41 0 57 -17.5t16 -56.5v-55q0 -37 -16 -53.5t-57 -16.5h-813q-41 0 -58.5 18.5t-17.5 55.5zM621 674v39q0 43 26.5 71.5t69.5 28.5h41q41 0 68.5 -29.5t27.5 -70.5v-39q0 -43 -26.5 -73 t-69.5 -30h-41q-43 0 -69.5 30t-26.5 73z" />
<glyph unicode="&#x140;" horiz-adv-x="784" d="M121 74v1243q0 39 17.5 57.5t58.5 18.5h108q41 0 59.5 -18.5t18.5 -57.5v-1243q0 -37 -17.5 -55.5t-60.5 -18.5h-108q-41 0 -58.5 18.5t-17.5 55.5zM532 662v38q0 43 27 72t70 29h41q41 0 68.5 -30t27.5 -71v-38q0 -43 -26.5 -73t-69.5 -30h-41q-43 0 -70 29.5t-27 73.5z " />
<glyph unicode="&#x141;" horiz-adv-x="1286" d="M18 551q0 20 27 33l240 137v596q0 39 18.5 57.5t58.5 18.5h107q41 0 59.5 -18.5t18.5 -57.5v-447l160 91q16 10 26 10q16 0 35 -27l53 -88q8 -10 8 -22q0 -18 -28 -35l-254 -146v-454h627q40 0 56.5 -17.5t16.5 -56.5v-55q0 -37 -16.5 -53.5t-56.5 -16.5h-812 q-41 0 -59 18.5t-18 55.5v430l-144 -82q-20 -10 -30 -10q-16 0 -31 22l-51 88q-10 16 -11 29z" />
<glyph unicode="&#x142;" horiz-adv-x="819" d="M18 563q0 20 27 33l223 127v594q0 39 18.5 57.5t59.5 18.5h107q41 0 59 -18.5t18 -57.5v-445l146 84q16 10 26 11q16 0 35 -27l56 -86q8 -11 8 -23q0 -18 -29 -34l-242 -138v-585q0 -37 -17 -55.5t-60 -18.5h-107q-41 0 -59.5 18.5t-18.5 55.5v434l-127 -72 q-20 -10 -28 -10q-18 0 -33 23l-51 86q-10 16 -11 28z" />
<glyph unicode="&#x143;" horiz-adv-x="1429" d="M121 74v1243q0 39 17.5 57.5t60.5 18.5h94q29 0 45 -8.5t33 -32.5l676 -938v903q0 39 17 57.5t58 18.5h109q41 0 59.5 -18.5t18.5 -57.5v-1243q0 -37 -17.5 -55.5t-60.5 -18.5h-96q-29 0 -43.5 7t-32.5 32l-676 936v-901q0 -37 -17.5 -55.5t-60.5 -18.5h-108 q-41 0 -58.5 18.5t-17.5 55.5zM594 1550q0 16 4 25l96 268q12 29 25.5 39t50.5 10h152q51 0 51 -34q0 -14 -8 -31l-136 -264q-14 -27 -30.5 -36t-55.5 -9h-106q-43 -1 -43 32z" />
<glyph unicode="&#x144;" horiz-adv-x="1220" d="M121 74v854q0 31 10 43t43 12h117q45 0 47 -41l4 -82q139 154 399 154q166 0 267.5 -89t101.5 -268v-583q0 -37 -17.5 -55.5t-58.5 -18.5h-108q-41 0 -59.5 18.5t-18.5 55.5v567q0 100 -46 142t-149 42q-109 0 -189.5 -58t-80.5 -151v-542q0 -37 -17.5 -55.5t-60.5 -18.5 h-106q-41 0 -59.5 18.5t-18.5 55.5zM496 1186q0 16 4 24l96 269q12 29 25.5 39t50.5 10h151q51 0 51 -35q0 -14 -8 -31l-135 -264q-14 -27 -30.5 -36t-55.5 -9h-106q-43 0 -43 33z" />
<glyph unicode="&#x145;" horiz-adv-x="1429" d="M121 74v1243q0 39 17.5 57.5t60.5 18.5h94q29 0 45 -8.5t33 -32.5l676 -938v903q0 39 17 57.5t58 18.5h109q41 0 59.5 -18.5t18.5 -57.5v-1243q0 -37 -17.5 -55.5t-60.5 -18.5h-96q-29 0 -43.5 7t-32.5 32l-676 936v-901q0 -37 -17.5 -55.5t-60.5 -18.5h-108 q-41 0 -58.5 18.5t-17.5 55.5zM532 -459q0 6 5 23l94 309q8 33 23.5 43t50.5 10h106q51 0 51 -30q0 -10 -10 -37l-133 -312q-12 -35 -60 -34h-90q-37 -1 -37 28z" />
<glyph unicode="&#x146;" horiz-adv-x="1220" d="M121 74v854q0 31 10 43t43 12h117q45 0 47 -41l4 -82q139 154 399 154q166 0 267.5 -89t101.5 -268v-583q0 -37 -17.5 -55.5t-58.5 -18.5h-108q-41 0 -59.5 18.5t-18.5 55.5v567q0 100 -46 142t-149 42q-109 0 -189.5 -58t-80.5 -151v-542q0 -37 -17.5 -55.5t-60.5 -18.5 h-106q-41 0 -59.5 18.5t-18.5 55.5zM446 -459q0 6 5 23l94 309q8 33 23.5 43t49.5 10h107q51 0 51 -30q0 -10 -10 -37l-133 -312q-12 -35 -60 -34h-90q-37 -1 -37 28z" />
<glyph unicode="&#x147;" horiz-adv-x="1429" d="M121 74v1243q0 39 17.5 57.5t60.5 18.5h94q29 0 45 -8.5t33 -32.5l676 -938v903q0 39 17 57.5t58 18.5h109q41 0 59.5 -18.5t18.5 -57.5v-1243q0 -37 -17.5 -55.5t-60.5 -18.5h-96q-29 0 -43.5 7t-32.5 32l-676 936v-901q0 -37 -17.5 -55.5t-60.5 -18.5h-108 q-41 0 -58.5 18.5t-17.5 55.5zM348 1890q0 27 37 27h109q35 0 49 -7t30 -32l142 -207l139 207q14 25 28.5 32t51.5 7h106q39 0 39 -27q0 -20 -16 -39l-213 -288q-18 -27 -31.5 -35t-46.5 -8h-117q-32 0 -43.5 8t-33.5 35l-213 288q-16 23 -17 39z" />
<glyph unicode="&#x148;" horiz-adv-x="1232" d="M121 74v854q0 31 10 43t43 12h117q45 0 47 -41l4 -82q139 154 399 154q166 0 267.5 -89t101.5 -268v-583q0 -37 -17.5 -55.5t-58.5 -18.5h-108q-41 0 -59.5 18.5t-18.5 55.5v567q0 100 -46 142t-149 42q-109 0 -189.5 -58t-80.5 -151v-542q0 -37 -17.5 -55.5t-60.5 -18.5 h-106q-41 0 -59.5 18.5t-18.5 55.5zM264 1501q0 27 37 27h109q35 0 49 -7.5t30 -31.5l142 -207l139 207q14 25 28.5 32t51.5 7h106q39 0 39 -27q0 -20 -16 -39l-213 -288q-18 -27 -31.5 -35.5t-46.5 -8.5h-117q-32 0 -43.5 8.5t-33.5 35.5l-213 288q-16 23 -17 39z" />
<glyph unicode="&#x149;" horiz-adv-x="1374" d="M16 1104q0 6 4 22l95 310q8 33 23.5 43t49.5 10h107q51 0 51 -31q0 -10 -10 -37l-133 -311q-12 -35 -60 -35h-90q-37 0 -37 29zM272 74v854q0 31 10.5 43t43.5 12h116q45 0 47 -41l5 -82q139 154 399 154q166 0 267.5 -89t101.5 -268v-583q0 -37 -17.5 -55.5t-58.5 -18.5 h-109q-41 0 -59.5 18.5t-18.5 55.5v567q0 100 -46 142t-148 42q-109 0 -189.5 -58t-80.5 -151v-542q0 -37 -17.5 -55.5t-60.5 -18.5h-107q-41 0 -59.5 18.5t-18.5 55.5z" />
<glyph unicode="&#x14a;" horiz-adv-x="1429" d="M121 74v1243q0 39 17.5 57.5t60.5 18.5h94q29 0 45 -8.5t33 -32.5l676 -938v903q0 39 17 57.5t58 18.5h109q41 0 59.5 -18.5t18.5 -57.5v-1407q0 -193 -111 -306.5t-332 -113.5q-229 0 -387 98q-18 12 -18 29q0 12 8 27l59 98q12 20 27 20q14 0 27 -10q49 -31 116.5 -50 t141.5 -19q106 0 156.5 56t50.5 171v147l-664 918v-901q0 -37 -17.5 -55.5t-60.5 -18.5h-108q-41 0 -58.5 18.5t-17.5 55.5z" />
<glyph unicode="&#x14b;" horiz-adv-x="1220" d="M121 74v854q0 31 10 43t43 12h117q23 0 33 -9t12 -32l6 -82q66 70 170 112t229 42q166 0 267.5 -89t101.5 -268v-817q0 -176 -97.5 -275.5t-291.5 -99.5q-100 0 -188.5 26t-151.5 71q-18 12 -19 28q0 12 11 29l57 96q12 20 25 21q14 0 26 -10q92 -66 195 -66q96 0 134 44 t38 140v799q0 98 -49 140t-146 42q-68 0 -130 -26.5t-101 -73.5t-39 -109v-542q0 -37 -17.5 -55.5t-60.5 -18.5h-106q-41 0 -59.5 18.5t-18.5 55.5z" />
<glyph unicode="&#x14c;" horiz-adv-x="1560" d="M80 696q0 346 181 536.5t519 190.5q336 0 518.5 -190.5t182.5 -536.5t-182.5 -536.5t-518.5 -190.5q-338 0 -519 190.5t-181 536.5zM338 696q0 -262 113.5 -398t328.5 -136t328 136t113 398t-113 397.5t-328 135.5t-328.5 -135.5t-113.5 -397.5zM408 1638v54q0 39 16 56 t57 17h559q41 0 57.5 -17t16.5 -56v-54q0 -39 -16.5 -55t-57.5 -16h-559q-41 0 -57 16t-16 55z" />
<glyph unicode="&#x14d;" horiz-adv-x="1271" d="M80 492q0 242 144.5 382t410.5 140t411.5 -140.5t145.5 -381.5q0 -242 -145.5 -382.5t-411.5 -140.5t-410.5 140.5t-144.5 382.5zM281 1274v53q0 39 16 56.5t57 17.5h559q41 0 57.5 -17.5t16.5 -56.5v-53q0 -39 -16.5 -55.5t-57.5 -16.5h-559q-41 0 -57 16.5t-16 55.5z M338 492q0 -160 77 -245t220 -85q145 0 221 84t76 246q0 160 -76 242.5t-221 82.5q-143 0 -220 -83t-77 -242z" />
<glyph unicode="&#x14e;" horiz-adv-x="1560" d="M80 696q0 346 181 536.5t519 190.5q336 0 518.5 -190.5t182.5 -536.5t-182.5 -536.5t-518.5 -190.5q-338 0 -519 190.5t-181 536.5zM338 696q0 -262 113.5 -398t328.5 -136t328 136t113 398t-113 397.5t-328 135.5t-328.5 -135.5t-113.5 -397.5zM424 1858q0 16 9 26 t24 10h135q20 0 27.5 -9t7.5 -30q0 -74 29.5 -113.5t105.5 -39.5q74 0 104.5 40t30.5 113q0 20 7 29.5t28 9.5h135q14 0 23.5 -10t9.5 -26q0 -150 -87 -242t-251 -92q-168 0 -253 91t-85 243z" />
<glyph unicode="&#x14f;" horiz-adv-x="1271" d="M80 492q0 242 144.5 382t410.5 140t411.5 -140.5t145.5 -381.5q0 -242 -145.5 -382.5t-411.5 -140.5t-410.5 140.5t-144.5 382.5zM301 1477q0 16 9 26t24 10h135q20 0 27.5 -9t7.5 -29q0 -74 29.5 -114t105.5 -40q74 0 104.5 40t30.5 114q0 20 7 29t28 9h135 q14 0 23.5 -10t9.5 -26q0 -150 -87 -242t-251 -92q-168 0 -253 91t-85 243zM338 492q0 -160 77 -245t220 -85q145 0 221 84t76 246q0 160 -76 242.5t-221 82.5q-143 0 -220 -83t-77 -242z" />
<glyph unicode="&#x150;" horiz-adv-x="1560" d="M80 696q0 346 181 536.5t519 190.5q336 0 518.5 -190.5t182.5 -536.5t-182.5 -536.5t-518.5 -190.5q-338 0 -519 190.5t-181 536.5zM338 696q0 -262 113.5 -398t328.5 -136t328 136t113 398t-113 397.5t-328 135.5t-328.5 -135.5t-113.5 -397.5zM446 1559q0 10 7 24 l133 268q14 29 27.5 39.5t48.5 10.5h135q23 0 38 -9.5t15 -23.5t-12 -33l-170 -264q-20 -29 -35 -37t-51 -8h-90q-46 0 -46 33zM854 1559q0 12 6 24l133 268q14 29 27.5 39.5t50.5 10.5h133q25 0 39 -9.5t14 -25.5q0 -14 -10 -31l-172 -264q-18 -27 -33.5 -36t-52.5 -9h-88 q-47 0 -47 33z" />
<glyph unicode="&#x151;" horiz-adv-x="1271" d="M80 492q0 242 144.5 382t410.5 140t411.5 -140.5t145.5 -381.5q0 -242 -145.5 -382.5t-411.5 -140.5t-410.5 140.5t-144.5 382.5zM281 1169q0 10 6 25l133 268q14 29 27.5 39t48.5 10h135q23 0 38 -9t15 -23t-12 -33l-170 -264q-20 -29 -34.5 -37t-51.5 -8h-90 q-45 -1 -45 32zM338 492q0 -160 77 -245t220 -85q145 0 221 84t76 246q0 160 -76 242.5t-221 82.5q-143 0 -220 -83t-77 -242zM688 1169q0 12 6 25l133 268q14 29 27.5 39t50.5 10h133q25 0 39.5 -9t14.5 -25q0 -14 -11 -31l-172 -264q-18 -27 -33.5 -36t-52.5 -9h-88 q-47 -1 -47 32z" />
<glyph unicode="&#x152;" horiz-adv-x="2396" d="M100 696q0 346 181.5 536.5t519.5 190.5q332 0 514 -186v80q0 39 17.5 57.5t58.5 18.5h852q41 0 56 -16.5t15 -55.5v-55q0 -39 -15 -56.5t-56 -17.5h-666v-397h483q41 0 57.5 -16.5t16.5 -55.5v-51q0 -39 -16.5 -56.5t-57.5 -17.5h-483v-399h664q41 0 57 -17.5t16 -56.5 v-55q0 -37 -16.5 -53.5t-56.5 -16.5h-850q-41 0 -58.5 18.5t-17.5 55.5v82q-182 -186 -514 -187q-338 0 -519.5 190.5t-181.5 536.5zM358 696q0 -262 114 -398t329 -136t327.5 136t112.5 398t-112.5 397.5t-327.5 135.5t-329 -135.5t-114 -397.5z" />
<glyph unicode="&#x153;" horiz-adv-x="2080" d="M80 492q0 242 144.5 382t410.5 140q147 0 252.5 -50.5t173.5 -166.5q66 117 169 167t249 50q258 0 390 -133t132 -385q0 -72 -66 -72h-747l-2 -31q10 -121 103 -185.5t251 -64.5q162 0 291 74q14 8 22 8q14 0 23 -18l49 -88q6 -12 6 -23q0 -14 -18 -26 q-84 -51 -181.5 -76t-224.5 -25q-145 0 -255.5 49.5t-186.5 169.5q-68 -117 -174.5 -168t-255.5 -51q-266 0 -410.5 140.5t-144.5 382.5zM338 492q0 -160 77 -245t220 -85q145 0 221 84t76 246q0 160 -76 242.5t-221 82.5q-143 0 -220 -83t-77 -242zM1184 596l4 -21h575 q0 127 -70.5 199t-211.5 72q-137 0 -214 -67.5t-83 -182.5z" />
<glyph unicode="&#x154;" horiz-adv-x="1296" d="M121 74v1243q0 39 17.5 57.5t58.5 18.5h534q238 0 362 -111t124 -328q0 -143 -68 -244.5t-197 -152.5l228 -504q6 -12 6 -22q0 -31 -37 -31h-168q-27 0 -39 7t-22 30l-207 485h-330v-448q0 -37 -17.5 -55.5t-60.5 -18.5h-108q-41 0 -58.5 18.5t-17.5 55.5zM383 719h295 q143 0 210.5 55t67.5 180q0 123 -61 180.5t-186 57.5h-326v-473zM496 1550q0 16 4 25l96 268q12 29 25.5 39t50.5 10h151q51 0 51 -34q0 -14 -8 -31l-135 -264q-14 -27 -30.5 -36t-55.5 -9h-106q-43 -1 -43 32z" />
<glyph unicode="&#x155;" horiz-adv-x="851" d="M121 74v854q0 31 10 43t43 12h117q23 0 33 -9t12 -32l6 -74q121 145 317 146q90 0 138 -31q12 -8 15 -17.5t-1 -21.5l-37 -123q-6 -20 -22 -20l-17 4q-49 23 -112 22q-104 0 -172 -58t-68 -159v-536q0 -37 -17.5 -55.5t-60.5 -18.5h-106q-41 0 -59.5 18.5t-18.5 55.5z M289 1186q0 16 4 24l96 269q12 29 25.5 39t50.5 10h151q51 0 52 -35q0 -14 -9 -31l-135 -264q-14 -27 -30.5 -36t-55.5 -9h-106q-43 0 -43 33z" />
<glyph unicode="&#x156;" horiz-adv-x="1296" d="M121 74v1243q0 39 17.5 57.5t58.5 18.5h534q238 0 362 -111t124 -328q0 -143 -68 -244.5t-197 -152.5l228 -504q6 -12 6 -22q0 -31 -37 -31h-168q-27 0 -39 7t-22 30l-207 485h-330v-448q0 -37 -17.5 -55.5t-60.5 -18.5h-108q-41 0 -58.5 18.5t-17.5 55.5zM383 719h295 q143 0 210.5 55t67.5 180q0 123 -61 180.5t-186 57.5h-326v-473zM449 -459q0 6 4 23l94 309q8 33 23.5 43t50.5 10h106q51 0 51 -30q0 -10 -10 -37l-133 -312q-12 -35 -60 -34h-90q-36 -1 -36 28z" />
<glyph unicode="&#x157;" horiz-adv-x="851" d="M76 -459q0 6 4 23l94 309q8 33 23.5 43t50.5 10h106q51 0 52 -30q0 -10 -11 -37l-133 -312q-12 -35 -59 -34h-90q-37 -1 -37 28zM121 74v854q0 31 10 43t43 12h117q23 0 33 -9t12 -32l6 -74q121 145 317 146q90 0 138 -31q12 -8 15 -17.5t-1 -21.5l-37 -123 q-6 -20 -22 -20l-17 4q-49 23 -112 22q-104 0 -172 -58t-68 -159v-536q0 -37 -17.5 -55.5t-60.5 -18.5h-106q-41 0 -59.5 18.5t-18.5 55.5z" />
<glyph unicode="&#x158;" horiz-adv-x="1296" d="M121 74v1243q0 39 17.5 57.5t58.5 18.5h534q238 0 362 -111t124 -328q0 -143 -68 -244.5t-197 -152.5l228 -504q6 -12 6 -22q0 -31 -37 -31h-168q-27 0 -39 7t-22 30l-207 485h-330v-448q0 -37 -17.5 -55.5t-60.5 -18.5h-108q-41 0 -58.5 18.5t-17.5 55.5zM266 1890 q0 27 37 27h109q35 0 49 -7t31 -32l141 -207l139 207q14 25 28.5 32t51.5 7h106q39 0 39 -27q0 -20 -16 -39l-213 -288q-18 -27 -31.5 -35t-46.5 -8h-117q-32 0 -43.5 8t-33.5 35l-213 288q-16 23 -17 39zM383 719h295q143 0 210.5 55t67.5 180q0 123 -61 180.5t-186 57.5 h-326v-473z" />
<glyph unicode="&#x159;" horiz-adv-x="851" d="M76 1509q0 27 37 27h108q35 0 49.5 -7t30.5 -32l141 -207l140 207q14 25 28.5 32t51.5 7h106q39 0 39 -27q0 -20 -16 -39l-213 -288q-18 -27 -32 -35t-46 -8h-117q-33 0 -44 8t-34 35l-213 288q-16 23 -16 39zM121 74v854q0 31 10 43t43 12h117q23 0 33 -9t12 -32l6 -74 q121 145 317 146q90 0 138 -31q12 -8 15 -17.5t-1 -21.5l-37 -123q-6 -20 -22 -20l-17 4q-49 23 -112 22q-104 0 -172 -58t-68 -159v-536q0 -37 -17.5 -55.5t-60.5 -18.5h-106q-41 0 -59.5 18.5t-18.5 55.5z" />
<glyph unicode="&#x15a;" horiz-adv-x="1206" d="M82 123q0 14 8 24l68 107q12 18 22 18t27 -10q76 -45 176 -72.5t203 -27.5q139 0 209.5 46t70.5 148q0 61 -26.5 98.5t-77.5 64t-166 71.5l-47 18q-133 53 -220 102.5t-144.5 129.5t-57.5 194q0 186 142.5 287.5t373.5 101.5q141 0 244.5 -26.5t179.5 -81.5 q25 -18 25 -35q0 -12 -9 -23l-65 -106q-12 -18 -21 -18q-8 0 -26 12q-131 84 -326 84q-129 0 -194.5 -47t-65.5 -150q0 -63 27.5 -101t81 -64.5t172.5 -71.5l51 -21q150 -59 233.5 -109.5t129.5 -125t46 -191.5q0 -176 -132 -277.5t-376 -101.5q-145 0 -285 32t-224 89 q-27 18 -27 33zM530 1550q0 16 5 25l96 268q12 29 25.5 39t50.5 10h151q51 0 51 -34q0 -14 -8 -31l-135 -264q-14 -27 -30.5 -36t-55.5 -9h-107q-43 -1 -43 32z" />
<glyph unicode="&#x15b;" horiz-adv-x="1067" d="M80 102q0 12 8 23l57 100q10 18 21 19q10 0 27 -11q61 -37 151 -61.5t166 -24.5q117 0 167 24t50 85q0 35 -19.5 56.5t-58.5 38t-129 44.5l-67 23q-117 39 -186.5 75.5t-107.5 93t-38 142.5q0 139 117.5 212t306.5 73q229 0 395 -99q27 -14 27 -30q0 -10 -11 -27l-55 -88 q-12 -18 -20 -18t-25 10q-53 33 -128 52.5t-150 19.5q-102 0 -150.5 -21.5t-48.5 -83.5q0 -53 56.5 -84t195.5 -74l67 -20q160 -51 224.5 -121t64.5 -174q0 -127 -111.5 -207t-328.5 -80q-123 0 -240 25.5t-201 77.5q-27 14 -26 30zM438 1169q0 16 4 25l97 268 q12 29 25.5 39t49.5 10h152q51 0 51 -34q0 -14 -8 -31l-135 -264q-14 -27 -30.5 -36t-55.5 -9h-107q-43 -1 -43 32z" />
<glyph unicode="&#x15c;" horiz-adv-x="1206" d="M82 123q0 14 8 24l68 107q12 18 22 18t27 -10q76 -45 176 -72.5t203 -27.5q139 0 209.5 46t70.5 148q0 61 -26.5 98.5t-77.5 64t-166 71.5l-47 18q-133 53 -220 102.5t-144.5 129.5t-57.5 194q0 186 142.5 287.5t373.5 101.5q141 0 244.5 -26.5t179.5 -81.5 q25 -18 25 -35q0 -12 -9 -23l-65 -106q-12 -18 -21 -18q-8 0 -26 12q-131 84 -326 84q-129 0 -194.5 -47t-65.5 -150q0 -63 27.5 -101t81 -64.5t172.5 -71.5l51 -21q150 -59 233.5 -109.5t129.5 -125t46 -191.5q0 -176 -132 -277.5t-376 -101.5q-145 0 -285 32t-224 89 q-27 18 -27 33zM256 1542q0 18 14 35l213 289q23 29 34 37t44 8h117q33 0 45 -9.5t33 -35.5l213 -289q14 -16 14 -35q0 -14 -12.5 -22.5t-32.5 -8.5h-96q-35 0 -50.5 9.5t-33.5 33.5l-137 205l-140 -205q-14 -25 -30.5 -34t-51.5 -9h-96q-20 0 -33.5 8.5t-13.5 22.5z" />
<glyph unicode="&#x15d;" horiz-adv-x="1067" d="M80 102q0 12 8 23l57 100q10 18 21 19q10 0 27 -11q61 -37 151 -61.5t166 -24.5q117 0 167 24t50 85q0 35 -19.5 56.5t-58.5 38t-129 44.5l-67 23q-117 39 -186.5 75.5t-107.5 93t-38 142.5q0 139 117.5 212t306.5 73q229 0 395 -99q27 -14 27 -30q0 -10 -11 -27l-55 -88 q-12 -18 -20 -18t-25 10q-53 33 -128 52.5t-150 19.5q-102 0 -150.5 -21.5t-48.5 -83.5q0 -53 56.5 -84t195.5 -74l67 -20q160 -51 224.5 -121t64.5 -174q0 -127 -111.5 -207t-328.5 -80q-123 0 -240 25.5t-201 77.5q-27 14 -26 30zM180 1161q0 18 15 35l213 289 q23 29 34 37t43 8h117q33 0 45 -9.5t33 -35.5l213 -289q14 -16 14 -35q0 -14 -12 -22.5t-33 -8.5h-96q-35 0 -50.5 9.5t-33.5 34.5l-137 204l-139 -204q-14 -25 -31 -34.5t-51 -9.5h-97q-20 0 -33.5 8.5t-13.5 22.5z" />
<glyph unicode="&#x15e;" horiz-adv-x="1206" d="M82 123q0 14 8 24l66 105q12 18 22 18t27 -10q74 -47 174 -72.5t207 -25.5q139 0 209.5 46t70.5 148q0 68 -29.5 109t-91 70.5t-194.5 78.5t-220 96.5t-145.5 127.5t-58.5 196q0 184 138 286.5t360 102.5q279 0 442 -108q25 -18 25 -35q0 -12 -9 -23l-65 -106 q-12 -18 -21 -18q-8 0 -26 12q-125 84 -326 84q-121 0 -189.5 -47t-68.5 -150q0 -63 27.5 -102t77 -63.5t153.5 -65.5q20 -8 37.5 -15.5t34.5 -13.5q147 -57 232 -107.5t131 -125t46 -191.5q0 -150 -96 -247t-278 -124q0 -4 -2 -6l-48 -102q72 -6 110 -44t38 -108 q0 -78 -59.5 -123t-169.5 -45q-47 0 -94.5 9.5t-75.5 23.5q-18 10 -22.5 16.5t1.5 20.5l31 72q6 16 18 16q2 0 19 -8q35 -20 94 -21q43 0 61.5 13.5t18.5 46.5q0 39 -29 52t-96 13h-31q-16 0 -21.5 9.5t1.5 23.5l53 135q-129 6 -248 37t-192 82q-27 18 -27 33z" />
<glyph unicode="&#x15f;" horiz-adv-x="1067" d="M80 102q0 12 8 23l57 100q10 18 21 19q10 0 27 -11q61 -37 151 -61.5t166 -24.5q117 0 167 24t50 85q0 35 -19.5 56.5t-58.5 38t-129 44.5l-67 23q-117 39 -186.5 75.5t-107.5 93t-38 142.5q0 139 117.5 212t306.5 73q229 0 395 -99q27 -14 27 -30q0 -10 -11 -27l-55 -88 q-12 -18 -20 -18t-25 10q-53 33 -128 52.5t-150 19.5q-102 0 -150.5 -21.5t-48.5 -83.5q0 -53 56.5 -84t195.5 -74l67 -20q160 -51 224.5 -121t64.5 -174q0 -109 -83 -184.5t-242 -96.5l-3 -4l-47 -102q72 -6 110 -44t38 -108q0 -78 -59.5 -123t-170.5 -45q-47 0 -94 9.5 t-74 23.5q-18 10 -22 16.5t2 20.5l29 72q6 16 18 16q2 0 19 -8q39 -20 94 -21q43 0 61.5 13.5t18.5 46.5q0 39 -29 52t-94 13h-31q-16 0 -21.5 9.5t1.5 23.5l53 137q-217 14 -355 99q-27 14 -26 30z" />
<glyph unicode="&#x160;" horiz-adv-x="1206" d="M82 123q0 14 8 24l68 107q12 18 22 18t27 -10q76 -45 176 -72.5t203 -27.5q139 0 209.5 46t70.5 148q0 61 -26.5 98.5t-77.5 64t-166 71.5l-47 18q-133 53 -220 102.5t-144.5 129.5t-57.5 194q0 186 142.5 287.5t373.5 101.5q141 0 244.5 -26.5t179.5 -81.5 q25 -18 25 -35q0 -12 -9 -23l-65 -106q-12 -18 -21 -18q-8 0 -26 12q-131 84 -326 84q-129 0 -194.5 -47t-65.5 -150q0 -63 27.5 -101t81 -64.5t172.5 -71.5l51 -21q150 -59 233.5 -109.5t129.5 -125t46 -191.5q0 -176 -132 -277.5t-376 -101.5q-145 0 -285 32t-224 89 q-27 18 -27 33zM264 1915q0 27 37 27h109q35 0 49 -7.5t30 -31.5l142 -207l139 207q14 25 28.5 32t51.5 7h106q39 0 39 -27q0 -20 -16 -39l-213 -289q-18 -27 -31.5 -35t-46.5 -8h-117q-32 0 -43.5 8.5t-33.5 34.5l-213 289q-16 23 -17 39z" />
<glyph unicode="&#x161;" horiz-adv-x="1067" d="M80 102q0 12 8 23l57 100q10 18 21 19q10 0 27 -11q61 -37 151 -61.5t166 -24.5q117 0 167 24t50 85q0 35 -19.5 56.5t-58.5 38t-129 44.5l-67 23q-117 39 -186.5 75.5t-107.5 93t-38 142.5q0 139 117.5 212t306.5 73q229 0 395 -99q27 -14 27 -30q0 -10 -11 -27l-55 -88 q-12 -18 -20 -18t-25 10q-53 33 -128 52.5t-150 19.5q-102 0 -150.5 -21.5t-48.5 -83.5q0 -53 56.5 -84t195.5 -74l67 -20q160 -51 224.5 -121t64.5 -174q0 -127 -111.5 -207t-328.5 -80q-123 0 -240 25.5t-201 77.5q-27 14 -26 30zM182 1501q0 27 37 27h109q35 0 49 -7.5 t31 -31.5l141 -207l139 207q14 25 28.5 32t51.5 7h106q39 0 39 -27q0 -20 -16 -39l-213 -288q-18 -27 -31.5 -35.5t-46.5 -8.5h-117q-32 0 -43.5 8.5t-33.5 35.5l-213 288q-16 23 -17 39z" />
<glyph unicode="&#x162;" horiz-adv-x="1202" d="M39 1264v55q0 39 15.5 56.5t56.5 17.5h979q40 0 56.5 -17.5t16.5 -56.5v-55q0 -39 -16.5 -55.5t-56.5 -16.5h-359v-1118q0 -39 -18 -58v-4q0 -2 -4 -18l-47 -103q147 -12 147 -151q0 -78 -59.5 -124t-169.5 -46q-47 0 -94.5 10t-73.5 25q-18 10 -22.5 16t1.5 21l29 71 q6 14 16 15q8 0 21 -7q41 -23 94 -22q43 0 61.5 14.5t18.5 44.5q0 41 -29 54.5t-94 13.5h-31q-16 0 -21 9t1 24l55 139l2 6q-45 12 -45 70v1118h-358q-41 0 -56.5 16.5t-15.5 55.5z" />
<glyph unicode="&#x163;" horiz-adv-x="935" d="M39 858v55q0 39 13.5 54.5t53.5 15.5h117v113q0 43 15.5 80.5t48.5 95.5q12 25 23.5 32t39.5 7h68q37 0 52 -17.5t15 -52.5v-258h242q41 0 54.5 -15.5t13.5 -54.5v-55q0 -39 -13.5 -53t-54.5 -14h-242v-451q0 -94 33 -136t113 -42q47 0 79.5 11t71.5 38q10 8 23 8 q12 0 24 -18l60 -99q8 -10 8 -22q0 -14 -20 -29q-96 -61 -215 -76q0 -12 -5 -18l-47 -102q147 -12 148 -152q0 -78 -59.5 -124t-170.5 -46q-47 0 -94 10.5t-74 24.5q-18 10 -22 16t2 21l29 71q6 14 16 15q8 0 21 -6q41 -23 94 -23q43 0 61.5 14.5t18.5 44.5q0 41 -29 54.5 t-94 13.5h-31q-16 0 -21.5 9t1.5 24l55 139q2 10 10 19q-125 27 -186.5 118.5t-61.5 233.5v459h-117q-41 0 -54 14t-13 53z" />
<glyph unicode="&#x164;" horiz-adv-x="1202" d="M39 1264v55q0 39 15.5 56.5t56.5 17.5h979q41 0 57 -17.5t16 -56.5v-55q0 -39 -16.5 -55.5t-56.5 -16.5h-359v-1118q0 -37 -17.5 -55.5t-60.5 -18.5h-106q-41 0 -59.5 18.5t-18.5 55.5v1118h-358q-41 0 -56.5 16.5t-15.5 55.5zM238 1890q0 27 36 27h109q35 0 49 -7 t31 -32l141 -207l139 207q14 25 28.5 32t51.5 7h107q39 0 39 -27q0 -20 -17 -39l-213 -288q-18 -27 -31.5 -35t-45.5 -8h-117q-33 0 -44.5 8t-33.5 35l-213 288q-16 23 -16 39z" />
<glyph unicode="&#x165;" horiz-adv-x="1026" d="M39 858v55q0 39 13.5 54.5t53.5 15.5h117v113q0 43 15.5 80.5t48.5 95.5q12 25 23.5 32t39.5 7h68q37 0 52 -17.5t15 -52.5v-258h242q41 0 54.5 -15.5t13.5 -54.5v-55q0 -39 -13.5 -53t-54.5 -14h-242v-451q0 -94 33 -136t113 -42q47 0 79.5 11t71.5 38q10 8 23 8 q12 0 24 -18l60 -99q8 -10 8 -22q0 -14 -20 -29q-127 -82 -304 -82q-174 0 -262 96.5t-88 266.5v459h-117q-41 0 -54 14t-13 53zM651 1270q0 6 4 22l95 310q8 33 23 43t50 10h107q51 0 51 -31q0 -10 -10 -37l-133 -311q-12 -35 -60 -35h-90q-37 0 -37 29z" />
<glyph unicode="&#x166;" horiz-adv-x="1202" d="M39 1264v55q0 39 15.5 56.5t56.5 17.5h979q40 0 56.5 -17.5t16.5 -56.5v-55q0 -39 -16.5 -55.5t-56.5 -16.5h-359v-320h148q41 0 57 -17t16 -56v-54q0 -39 -16 -55t-57 -16h-148v-600q0 -37 -17.5 -55.5t-60.5 -18.5h-106q-41 0 -59.5 18.5t-18.5 55.5v600h-152 q-41 0 -56 16.5t-15 54.5v54q0 39 15 56t56 17h152v320h-358q-41 0 -56.5 16.5t-15.5 55.5z" />
<glyph unicode="&#x167;" horiz-adv-x="952" d="M39 506v55q0 39 13.5 54.5t53.5 15.5h117v160h-117q-41 0 -54 14t-13 53v55q0 39 13.5 54.5t53.5 15.5h117v113q0 43 15.5 80.5t48.5 95.5q12 25 23.5 32t39.5 7h68q37 0 52 -17.5t15 -52.5v-258h242q41 0 54.5 -15.5t13.5 -54.5v-55q0 -39 -13.5 -53t-54.5 -14h-242 v-160h242q41 0 54.5 -15.5t13.5 -54.5v-55q0 -39 -13.5 -53.5t-54.5 -14.5h-242v-98q0 -94 33 -136t113 -42q47 0 79.5 11t71.5 38q10 8 23 8q12 0 24 -18l60 -99q8 -10 8 -22q0 -14 -20 -29q-127 -82 -304 -82q-174 0 -262 96.5t-88 266.5v106h-117q-41 0 -54 14.5 t-13 53.5z" />
<glyph unicode="&#x168;" horiz-adv-x="1466" d="M111 492v825q0 39 17 57.5t58 18.5h109q41 0 59.5 -18.5t18.5 -57.5v-832q0 -160 93 -241.5t267 -81.5q172 0 265.5 82t93.5 241v832q0 39 18 57.5t59 18.5h107q80 0 80 -76v-825q0 -160 -79 -278t-220.5 -181.5t-323.5 -63.5q-184 0 -325.5 62.5t-219 181.5t-77.5 279z M328 1663q0 23 22 51q49 63 100.5 96t120.5 33q59 0 106.5 -15.5t110.5 -43.5q47 -23 81 -35t69 -12q41 0 67.5 16t59.5 59q16 23 41 23q29 0 70 -33q45 -37 45 -63q0 -23 -21 -49q-51 -78 -106.5 -112t-141.5 -34q-47 0 -93 15.5t-107 44.5q-59 27 -91 38t-67 11 q-41 0 -63.5 -14.5t-57.5 -51.5q-14 -20 -37 -20q-27 0 -71 39q-37 35 -37 57z" />
<glyph unicode="&#x169;" horiz-adv-x="1208" d="M111 340v567q0 39 17 57.5t58 18.5h109q41 0 59.5 -18.5t18.5 -57.5v-561q0 -98 51 -144t151 -46q106 0 178 59t72 154v538q0 39 18.5 57.5t59.5 18.5h107q41 0 59 -18.5t18 -57.5v-852q0 -33 -10 -44t-43 -11h-114q-23 0 -33 9t-13 30l-8 86q-139 -156 -383 -156 q-168 0 -270 93.5t-102 277.5zM184 1298q0 23 23 52q49 63 100 96t121 33q59 0 106.5 -15.5t110.5 -44.5q47 -23 81 -35t69 -12q41 0 67.5 16.5t59.5 59.5q16 23 41 22q29 0 69 -32q45 -37 45 -64q0 -23 -20 -49q-51 -78 -106.5 -111.5t-141.5 -33.5q-47 0 -93 15t-108 44 q-59 27 -91 38t-66 11q-41 0 -63.5 -14t-57.5 -51q-14 -20 -37 -21q-27 0 -72 39q-37 35 -37 57z" />
<glyph unicode="&#x16a;" horiz-adv-x="1466" d="M111 492v825q0 39 17 57.5t58 18.5h109q41 0 59.5 -18.5t18.5 -57.5v-832q0 -160 93 -241.5t267 -81.5q172 0 265.5 82t93.5 241v832q0 39 18 57.5t59 18.5h107q80 0 80 -76v-825q0 -160 -79 -278t-220.5 -181.5t-323.5 -63.5q-184 0 -325.5 62.5t-219 181.5t-77.5 279z M383 1638v54q0 39 16.5 56t57.5 17h559q41 0 57.5 -17t16.5 -56v-54q0 -39 -16.5 -55t-57.5 -16h-559q-41 0 -57.5 16t-16.5 55z" />
<glyph unicode="&#x16b;" horiz-adv-x="1208" d="M111 340v567q0 39 17 57.5t58 18.5h109q41 0 59.5 -18.5t18.5 -57.5v-561q0 -98 51 -144t151 -46q106 0 178 59t72 154v538q0 39 18.5 57.5t59.5 18.5h107q41 0 59 -18.5t18 -57.5v-852q0 -33 -10 -44t-43 -11h-114q-23 0 -33 9t-13 30l-8 86q-139 -156 -383 -156 q-168 0 -270 93.5t-102 277.5zM227 1274v53q0 39 16.5 56.5t57.5 17.5h559q41 0 57.5 -17.5t16.5 -56.5v-53q0 -39 -16.5 -55.5t-57.5 -16.5h-559q-41 0 -57.5 16.5t-16.5 55.5z" />
<glyph unicode="&#x16c;" horiz-adv-x="1466" d="M111 492v825q0 39 17 57.5t58 18.5h109q41 0 59.5 -18.5t18.5 -57.5v-832q0 -160 93 -241.5t267 -81.5q172 0 265.5 82t93.5 241v832q0 39 18 57.5t59 18.5h107q80 0 80 -76v-825q0 -160 -79 -278t-220.5 -181.5t-323.5 -63.5q-184 0 -325.5 62.5t-219 181.5t-77.5 279z M397 1858q0 16 9.5 26t23.5 10h135q20 0 27.5 -9t7.5 -30q0 -74 29.5 -113.5t105.5 -39.5q74 0 104.5 40t30.5 113q0 20 7.5 29.5t27.5 9.5h135q14 0 23.5 -10t9.5 -26q0 -150 -87 -242t-251 -92q-168 0 -253 91t-85 243z" />
<glyph unicode="&#x16d;" horiz-adv-x="1208" d="M111 340v567q0 39 17 57.5t58 18.5h109q41 0 59.5 -18.5t18.5 -57.5v-561q0 -98 51 -144t151 -46q106 0 178 59t72 154v538q0 39 18.5 57.5t59.5 18.5h107q41 0 59 -18.5t18 -57.5v-852q0 -33 -10 -44t-43 -11h-114q-23 0 -33 9t-13 30l-8 86q-139 -156 -383 -156 q-168 0 -270 93.5t-102 277.5zM258 1477q0 16 9 26t24 10h135q20 0 27.5 -9t7.5 -29q0 -74 29.5 -114t105.5 -40q74 0 104.5 40t30.5 114q0 20 7 29t28 9h135q14 0 23.5 -10t9.5 -26q0 -150 -87 -242t-251 -92q-168 0 -253 91t-85 243z" />
<glyph unicode="&#x16e;" horiz-adv-x="1466" d="M111 492v825q0 39 17 57.5t58 18.5h109q41 0 59.5 -18.5t18.5 -57.5v-832q0 -160 93 -241.5t267 -81.5q172 0 265.5 82t93.5 241v832q0 39 18 57.5t59 18.5h107q80 0 80 -76v-825q0 -160 -79 -278t-220.5 -181.5t-323.5 -63.5q-184 0 -325.5 62.5t-219 181.5t-77.5 279z M502 1720q0 100 69.5 170t169.5 70t170 -69.5t70 -170.5q0 -100 -69.5 -169.5t-170.5 -69.5q-100 0 -169.5 69.5t-69.5 169.5zM631 1720q0 -45 32.5 -77.5t77.5 -32.5t77 32.5t32 77.5t-32 77t-77 32t-77.5 -32t-32.5 -77z" />
<glyph unicode="&#x16f;" horiz-adv-x="1208" d="M111 340v567q0 39 17 57.5t58 18.5h109q41 0 59.5 -18.5t18.5 -57.5v-561q0 -98 51 -144t151 -46q106 0 178 59t72 154v538q0 39 18.5 57.5t59.5 18.5h107q41 0 59 -18.5t18 -57.5v-852q0 -33 -10 -44t-43 -11h-114q-23 0 -33 9t-13 30l-8 86q-139 -156 -383 -156 q-168 0 -270 93.5t-102 277.5zM356 1339q0 100 70 170t170 70t170 -69.5t70 -170.5q0 -100 -70 -169.5t-170 -69.5t-170 69.5t-70 169.5zM485 1339q0 -45 33 -77.5t78 -32.5t77 32.5t32 77.5t-32 77t-77 32t-78 -32t-33 -77z" />
<glyph unicode="&#x170;" horiz-adv-x="1490" d="M111 492v825q0 39 17 57.5t58 18.5h109q41 0 59.5 -18.5t18.5 -57.5v-832q0 -160 93 -241.5t267 -81.5q172 0 265.5 82t93.5 241v832q0 39 18 57.5t59 18.5h107q80 0 80 -76v-825q0 -160 -79 -278t-220.5 -181.5t-323.5 -63.5q-184 0 -325.5 62.5t-219 181.5t-77.5 279z M414 1559q0 10 6 24l133 268q14 29 27.5 39.5t48.5 10.5h135q23 0 38 -9.5t15 -23.5t-12 -33l-170 -264q-20 -29 -34.5 -37t-51.5 -8h-90q-45 0 -45 33zM821 1559q0 12 6 24l134 268q14 29 27 39.5t50 10.5h133q25 0 39.5 -9.5t14.5 -25.5q0 -14 -11 -31l-172 -264 q-18 -27 -33.5 -36t-52.5 -9h-88q-47 0 -47 33z" />
<glyph unicode="&#x171;" horiz-adv-x="1208" d="M111 340v567q0 39 17 57.5t58 18.5h109q41 0 59.5 -18.5t18.5 -57.5v-561q0 -98 51 -144t151 -46q106 0 178 59t72 154v538q0 39 18.5 57.5t59.5 18.5h107q41 0 59 -18.5t18 -57.5v-852q0 -33 -10 -44t-43 -11h-114q-23 0 -33 9t-13 30l-8 86q-139 -156 -383 -156 q-168 0 -270 93.5t-102 277.5zM262 1178q0 10 6 24l133 268q14 29 27.5 39.5t48.5 10.5h135q23 0 38.5 -9.5t15.5 -23.5t-13 -33l-170 -264q-20 -29 -34.5 -37t-51.5 -8h-90q-45 0 -45 33zM670 1178q0 12 6 24l133 268q14 29 27.5 39.5t50.5 10.5h133q25 0 39 -9.5t14 -25.5 q0 -14 -10 -31l-172 -264q-18 -27 -33.5 -36t-52.5 -9h-88q-47 0 -47 33z" />
<glyph unicode="&#x172;" horiz-adv-x="1466" d="M111 492v825q0 39 17 57.5t58 18.5h109q41 0 59.5 -18.5t18.5 -57.5v-832q0 -160 93 -241.5t267 -81.5q172 0 265.5 82t93.5 241v832q0 39 18 57.5t59 18.5h107q80 0 80 -76v-825q0 -211 -133 -346.5t-359 -168.5q0 -6 -6 -12q-72 -86 -96.5 -131t-24.5 -90q0 -55 49 -55 q29 0 45 8q12 4 15 4q8 0 14 -14l31 -68q4 -8 4 -12q0 -12 -25 -23q-49 -25 -151 -24q-88 0 -133 45t-45 114q0 57 29.5 117t95.5 135q-252 16 -403.5 155.5t-151.5 365.5z" />
<glyph unicode="&#x173;" horiz-adv-x="1208" d="M111 340v567q0 39 17 57.5t58 18.5h109q41 0 59.5 -18.5t18.5 -57.5v-561q0 -98 51 -144t151 -46q106 0 178 59t72 154v538q0 39 18.5 57.5t59.5 18.5h107q41 0 59 -18.5t18 -57.5v-852q0 -31 -8 -42t-35 -13l-6 -8q-72 -86 -96 -131t-24 -90q0 -55 49 -56q29 0 45 9 q12 4 14 4q8 0 14 -15l31 -67q4 -8 4 -13q0 -12 -24 -22q-49 -25 -152 -25q-88 0 -133 45t-45 115q0 57 29.5 116.5t95.5 135.5l12 12t19 13l-3 16l-8 86q-139 -156 -383 -156q-168 0 -270 93.5t-102 277.5z" />
<glyph unicode="&#x174;" horiz-adv-x="1804" d="M82 1362q0 31 39 31h166q31 0 43 -10.5t16 -32.5l205 -901l246 794q8 25 19 34t38 9h94q27 0 38 -9t20 -34l247 -794l203 901q4 23 17.5 33t42.5 10h167q39 0 39 -31q0 -12 -2 -19l-325 -1292q-8 -29 -23.5 -40t-44.5 -11h-110q-29 0 -44.5 11.5t-23.5 39.5l-248 819 l-246 -819q-8 -29 -23.5 -40t-43.5 -11h-113q-31 0 -46 11.5t-21 39.5l-324 1292q-2 6 -2 19zM537 1542q0 18 14 35l213 289q23 29 34 37t44 8h116q33 0 45.5 -9.5t32.5 -35.5l213 -289q14 -16 15 -35q0 -14 -12.5 -22.5t-32.5 -8.5h-97q-35 0 -50 9.5t-34 33.5l-137 205 l-139 -205q-14 -25 -30.5 -34t-51.5 -9h-96q-21 0 -34 8.5t-13 22.5z" />
<glyph unicode="&#x175;" horiz-adv-x="1593" d="M82 956q0 27 33 27h157q25 0 35 -8t15 -29l178 -627l202 539q8 20 18.5 29.5t33.5 9.5h88q23 0 32 -8t17 -31l201 -539l180 627q6 20 14 28.5t35 8.5h158q33 0 32 -27q0 -10 -2 -16l-280 -897q-8 -27 -19.5 -35t-35.5 -8h-119q-23 0 -33 9t-21 34l-204 551l-205 -551 q-10 -25 -21.5 -34t-33.5 -9h-117q-25 0 -37 9t-21 34l-278 897q-2 6 -2 16zM432 1161q0 18 14 35l213 289q23 29 34.5 37t43.5 8h117q33 0 45 -9.5t33 -35.5l213 -289q14 -16 14 -35q0 -14 -12 -22.5t-33 -8.5h-96q-35 0 -50.5 9.5t-33.5 34.5l-137 204l-140 -204 q-14 -25 -30.5 -34.5t-51.5 -9.5h-96q-20 0 -33.5 8.5t-13.5 22.5z" />
<glyph unicode="&#x176;" horiz-adv-x="1449" d="M80 1362q0 31 37 31h176q27 0 36 -7.5t21 -25.5l375 -651l373 651q10 18 21 25.5t36 7.5h178q37 0 37 -31q0 -12 -8 -27l-506 -868v-393q0 -37 -17.5 -55.5t-60.5 -18.5h-108q-41 0 -59.5 18.5t-18.5 55.5v395l-504 866q-8 14 -8 27zM360 1542q0 18 15 35l213 289 q23 29 34 37t44 8h116q33 0 45.5 -9.5t32.5 -35.5l213 -289q14 -16 14 -35q0 -14 -12 -22.5t-33 -8.5h-96q-35 0 -50 9.5t-34 33.5l-137 205l-139 -205q-14 -25 -30.5 -34t-51.5 -9h-96q-21 0 -34.5 8.5t-13.5 22.5z" />
<glyph unicode="&#x177;" horiz-adv-x="1218" d="M86 -209q0 12 8 23l58 98q12 20 24 20q10 0 25 -12q33 -25 66.5 -37t80.5 -12q61 0 96 40t72 134l-414 881q-8 20 -8 28q0 29 33 29h174q27 0 39 -8t22 -31l275 -643l274 643q10 23 22.5 31t39.5 8h174q33 0 33 -29q0 -8 -9 -28l-385 -822q-80 -168 -134 -254 t-122.5 -127.5t-171.5 -41.5q-77 0 -142.5 22.5t-113.5 60.5q-16 14 -16 27zM264 1161q0 18 15 35l213 289q23 29 34 37t43 8h117q33 0 45 -9.5t33 -35.5l213 -289q14 -16 14 -35q0 -14 -12 -22.5t-33 -8.5h-96q-35 0 -50.5 9.5t-33.5 34.5l-137 204l-140 -204 q-14 -25 -30.5 -34.5t-50.5 -9.5h-97q-20 0 -33.5 8.5t-13.5 22.5z" />
<glyph unicode="&#x178;" horiz-adv-x="1449" d="M80 1362q0 31 37 31h176q27 0 36 -7.5t21 -25.5l375 -651l373 651q10 18 21 25.5t36 7.5h178q37 0 37 -31q0 -12 -8 -27l-506 -868v-393q0 -37 -17.5 -55.5t-60.5 -18.5h-108q-41 0 -59.5 18.5t-18.5 55.5v395l-504 866q-8 14 -8 27zM420 1620v39q0 43 26.5 71.5 t69.5 28.5h41q43 0 69.5 -28.5t26.5 -71.5v-39q0 -43 -26.5 -72.5t-69.5 -29.5h-41q-43 0 -69.5 29.5t-26.5 72.5zM823 1620v39q0 41 28 70.5t69 29.5h41q43 0 69.5 -28.5t26.5 -71.5v-39q0 -43 -26.5 -72.5t-69.5 -29.5h-41q-41 0 -69 29.5t-28 72.5z" />
<glyph unicode="&#x179;" horiz-adv-x="1296" d="M80 70q0 35 9 60.5t38 62.5l739 999h-684q-41 0 -59.5 17.5t-18.5 56.5v55q0 39 18.5 55.5t59.5 16.5h963q39 0 53 -16.5t14 -55.5q0 -37 -8 -59.5t-39 -63.5l-737 -999h713q41 0 58.5 -17.5t17.5 -56.5v-55q0 -37 -17.5 -53.5t-58.5 -16.5h-996q-39 0 -52 15.5t-13 54.5 zM590 1550q0 16 4 25l96 268q12 29 25.5 39t50.5 10h152q51 0 51 -34q0 -14 -8 -31l-136 -264q-14 -27 -30.5 -36t-55.5 -9h-106q-43 -1 -43 32z" />
<glyph unicode="&#x17a;" horiz-adv-x="1124" d="M82 59q0 55 12 82t58 74l544 567h-518q-41 0 -59.5 16.5t-18.5 55.5v59q0 39 18.5 54.5t59.5 15.5h789q33 0 45 -13.5t12 -45.5q0 -55 -13.5 -85t-54.5 -73l-528 -567h539q41 0 59 -17.5t18 -56.5v-55q0 -37 -18 -53.5t-59 -16.5h-824q-34 0 -47.5 13.5t-13.5 45.5z M494 1186q0 16 4 24l96 269q12 29 25.5 39t50.5 10h151q51 0 51 -35q0 -14 -8 -31l-135 -264q-14 -27 -30.5 -36t-55.5 -9h-106q-43 0 -43 33z" />
<glyph unicode="&#x17b;" horiz-adv-x="1296" d="M80 70q0 35 9 60.5t38 62.5l739 999h-684q-41 0 -59.5 17.5t-18.5 56.5v55q0 39 18.5 55.5t59.5 16.5h963q39 0 53 -16.5t14 -55.5q0 -37 -8 -59.5t-39 -63.5l-737 -999h713q41 0 58.5 -17.5t17.5 -56.5v-55q0 -37 -17.5 -53.5t-58.5 -16.5h-996q-39 0 -52 15.5t-13 54.5 zM565 1657v39q0 41 28 70.5t69 29.5h43q41 0 68.5 -29.5t27.5 -70.5v-39q0 -43 -26.5 -73t-69.5 -30h-43q-41 0 -69 30t-28 73z" />
<glyph unicode="&#x17c;" horiz-adv-x="1124" d="M82 59q0 55 12 82t58 74l544 567h-518q-41 0 -59.5 16.5t-18.5 55.5v59q0 39 18.5 54.5t59.5 15.5h789q33 0 45 -13.5t12 -45.5q0 -55 -13.5 -85t-54.5 -73l-528 -567h539q41 0 59 -17.5t18 -56.5v-55q0 -37 -18 -53.5t-59 -16.5h-824q-34 0 -47.5 13.5t-13.5 45.5z M467 1276v39q0 41 27.5 70.5t68.5 29.5h43q41 0 68.5 -29.5t27.5 -70.5v-39q0 -43 -26.5 -72.5t-69.5 -29.5h-43q-41 0 -68.5 29.5t-27.5 72.5z" />
<glyph unicode="&#x17d;" horiz-adv-x="1296" d="M80 70q0 35 9 60.5t38 62.5l739 999h-684q-41 0 -59.5 17.5t-18.5 56.5v55q0 39 18.5 55.5t59.5 16.5h963q39 0 53 -16.5t14 -55.5q0 -37 -8 -59.5t-39 -63.5l-737 -999h713q41 0 58.5 -17.5t17.5 -56.5v-55q0 -37 -17.5 -53.5t-58.5 -16.5h-996q-39 0 -52 15.5t-13 54.5 zM301 1915q0 27 37 27h108q35 0 49.5 -7.5t30.5 -31.5l142 -207l139 207q14 25 28.5 32t51.5 7h106q39 0 39 -27q0 -20 -16 -39l-213 -289q-18 -27 -31.5 -35t-46.5 -8h-117q-33 0 -44 8.5t-34 34.5l-213 289q-16 23 -16 39z" />
<glyph unicode="&#x17e;" horiz-adv-x="1124" d="M82 59q0 55 12 82t58 74l544 567h-518q-41 0 -59.5 16.5t-18.5 55.5v59q0 39 18.5 54.5t59.5 15.5h789q33 0 45 -13.5t12 -45.5q0 -55 -13.5 -85t-54.5 -73l-528 -567h539q41 0 59 -17.5t18 -56.5v-55q0 -37 -18 -53.5t-59 -16.5h-824q-34 0 -47.5 13.5t-13.5 45.5z M213 1509q0 27 37 27h108q35 0 49.5 -7t30.5 -32l142 -207l139 207q14 25 28.5 32t51.5 7h106q39 0 39 -27q0 -20 -16 -39l-213 -288q-18 -27 -31.5 -35t-46.5 -8h-117q-33 0 -44 8t-34 35l-213 288q-16 23 -16 39z" />
<glyph unicode="&#x18f;" horiz-adv-x="1454" d="M80 698q0 72 63 72h981q0 236 -108.5 347.5t-360.5 111.5q-199 0 -374 -86q-20 -10 -29 -10q-10 0 -23 18l-57 98q-10 16 -10 29q0 20 18 29q92 57 227.5 86.5t286.5 29.5q328 0 504 -189.5t176 -524.5q0 -354 -167 -547t-492 -193q-635 0 -635 729zM317 600 q0 -211 99.5 -324.5t298.5 -113.5q196 0 302.5 117.5t106.5 320.5h-807z" />
<glyph unicode="&#x192;" horiz-adv-x="1146" d="M-197 -256q0 8 11 25l61 86q12 18 25 18q4 0 20 -8q37 -23 71 -34t79 -11q86 0 126 44t50 134l82 793h-121q-41 0 -57.5 17t-16.5 56v47q0 39 16.5 55.5t57.5 16.5h141l8 76q18 172 122 268t288 96t283 -80q16 -12 16 -26q0 -8 -10 -25l-60 -86q-12 -18 -24 -18 q-6 0 -23 8q-39 23 -72.5 34t-76.5 11q-86 0 -126 -42t-50 -132l-11 -84h205q41 0 57.5 -16.5t16.5 -55.5v-47q0 -39 -16.5 -56t-57.5 -17h-225l-82 -789q-18 -170 -120.5 -266t-287.5 -96q-178 -1 -280 77q-18 14 -19 27z" />
<glyph unicode="&#x1a0;" horiz-adv-x="1644" d="M80 696q0 346 181 536.5t519 190.5q297 0 475 -153q78 6 112 54t34 155q0 31 9 43t34 12h135q27 0 37 -12.5t10 -42.5q0 -309 -237 -379q92 -168 92 -404q0 -346 -182.5 -536.5t-518.5 -190.5q-338 0 -519 190.5t-181 536.5zM338 696q0 -262 113.5 -398t328.5 -136 t328 136t113 398t-113 397.5t-328 135.5t-328.5 -135.5t-113.5 -397.5z" />
<glyph unicode="&#x1a1;" horiz-adv-x="1437" d="M80 492q0 242 144.5 382t410.5 140q135 0 241.5 -40t178.5 -114q74 8 107.5 56.5t33.5 152.5q0 31 9 43t34 12h135q25 0 35 -12t10 -43q0 -162 -63.5 -257t-194.5 -126q31 -88 31 -194q0 -242 -145.5 -382.5t-411.5 -140.5t-410.5 140.5t-144.5 382.5zM338 492 q0 -160 77 -245t220 -85q145 0 221 84t76 246q0 160 -76 242.5t-221 82.5q-143 0 -220 -83t-77 -242z" />
<glyph unicode="&#x1af;" horiz-adv-x="1734" d="M111 492v825q0 39 17 57.5t58 18.5h109q41 0 59.5 -18.5t18.5 -57.5v-832q0 -158 99 -240.5t261 -82.5q160 0 259.5 83t99.5 240v832q0 76 77 76h109q41 0 58.5 -18.5t17.5 -57.5v-51q74 10 106.5 59t32.5 154q0 31 9 43t34 12h135q25 0 35 -12.5t10 -42.5 q0 -377 -360 -404v-583q0 -160 -79 -278t-220.5 -181.5t-323.5 -63.5q-184 0 -325.5 62.5t-219 181.5t-77.5 279z" />
<glyph unicode="&#x1b0;" horiz-adv-x="1454" d="M111 340v567q0 39 17 57.5t58 18.5h109q78 0 78 -76v-561q0 -100 51 -145t151 -45q106 0 178 59t72 154v538q0 39 17.5 57.5t58.5 18.5h109q78 0 77 -76v-28q55 4 81 22.5t35 56t9 111.5q0 37 18.5 46t57.5 9h103q25 0 35 -12t10 -43q0 -184 -84 -283.5t-265 -115.5v-615 q0 -33 -10 -44t-43 -11h-116q-23 0 -33.5 9t-12.5 30l-6 86q-135 -156 -389 -156q-172 0 -269 98.5t-97 272.5z" />
<glyph unicode="&#x1cd;" horiz-adv-x="1501" d="M80 31q0 12 6 26l541 1282q12 31 26.5 42.5t40.5 11.5h113q29 0 42 -11.5t25 -42.5l541 -1282q6 -14 6 -26q0 -31 -35 -31h-178q-27 0 -38 7t-21 30l-117 287h-565l-115 -287q-10 -23 -21.5 -30t-37.5 -7h-178q-35 0 -35 31zM385 1890q0 27 37 27h108q35 0 49.5 -7 t30.5 -32l142 -207l139 207q14 25 28.5 32t51.5 7h106q39 0 39 -27q0 -20 -16 -39l-213 -288q-18 -27 -31.5 -35t-46.5 -8h-117q-33 0 -44 8t-34 35l-213 288q-16 23 -16 39zM532 514h435l-217 537z" />
<glyph unicode="&#x1ce;" horiz-adv-x="1259" d="M80 434q0 172 75.5 304t216 204t326.5 72q260 0 441 -123v-836q0 -31 -13.5 -43t-46.5 -12h-112q-23 0 -34 9t-15 30l-17 80q-63 -78 -156.5 -114t-226.5 -36q-201 0 -319.5 122t-118.5 343zM338 442q0 -147 68.5 -216.5t209.5 -69.5q109 0 192 63.5t83 167.5v399 q-43 23 -87 32t-108 9q-162 0 -260 -102t-98 -283zM358 1526q0 27 37 26h109q35 0 49 -7t31 -32l141 -206l139 206q14 25 28.5 32t51.5 7h107q39 0 39 -26q0 -20 -17 -39l-213 -289q-18 -27 -31.5 -35t-46.5 -8h-116q-33 0 -44.5 8t-33.5 35l-213 289q-16 23 -17 39z" />
<glyph unicode="&#x1cf;" horiz-adv-x="602" d="M-66 1890q0 27 37 27h109q35 0 49 -7t31 -32l141 -207l139 207q14 25 28.5 32t51.5 7h107q39 0 39 -27q0 -20 -17 -39l-213 -288q-18 -27 -31.5 -35t-46.5 -8h-116q-33 0 -44.5 8t-33.5 35l-213 288q-16 23 -17 39zM170 74v1243q0 39 17.5 57.5t58.5 18.5h108 q41 0 59.5 -18.5t18.5 -57.5v-1243q0 -37 -17.5 -55.5t-60.5 -18.5h-108q-41 0 -58.5 18.5t-17.5 55.5z" />
<glyph unicode="&#x1d0;" horiz-adv-x="602" d="M-72 1534q0 12 14.5 19.5t39.5 7.5h96q37 0 53 -9.5t31 -33.5l137 -203l137 203q18 25 33.5 34t50.5 9h96q49 0 50 -29q0 -12 -13 -31l-217 -295q-18 -27 -31.5 -35t-48.5 -8h-114q-35 0 -48.5 8.5t-31.5 34.5l-219 297q-14 16 -15 31zM176 74v833q0 39 17.5 57.5 t58.5 18.5h108q41 0 59.5 -18.5t18.5 -57.5v-833q0 -37 -17.5 -55.5t-60.5 -18.5h-108q-41 0 -58.5 18.5t-17.5 55.5z" />
<glyph unicode="&#x1d1;" horiz-adv-x="1560" d="M80 696q0 346 181 536.5t519 190.5q336 0 518.5 -190.5t182.5 -536.5t-182.5 -536.5t-518.5 -190.5q-338 0 -519 190.5t-181 536.5zM338 696q0 -262 113.5 -398t328.5 -136t328 136t113 398t-113 397.5t-328 135.5t-328.5 -135.5t-113.5 -397.5zM393 1890q0 27 37 27h109 q35 0 49 -7t30 -32l142 -207l139 207q14 25 28.5 32t51.5 7h106q39 0 39 -27q0 -20 -16 -39l-213 -288q-18 -27 -31.5 -35t-46.5 -8h-117q-32 0 -43.5 8t-33.5 35l-213 288q-16 23 -17 39z" />
<glyph unicode="&#x1d2;" horiz-adv-x="1271" d="M80 492q0 242 144.5 382t410.5 140t411.5 -140.5t145.5 -381.5q0 -242 -145.5 -382.5t-411.5 -140.5t-410.5 140.5t-144.5 382.5zM268 1501q0 27 37 27h109q35 0 49 -7.5t31 -31.5l141 -207l139 207q14 25 28.5 32t51.5 7h107q39 0 38 -27q0 -20 -16 -39l-213 -288 q-18 -27 -31.5 -35.5t-46.5 -8.5h-117q-32 0 -43.5 8.5t-33.5 35.5l-213 288q-16 23 -17 39zM338 492q0 -160 77 -245t220 -85q145 0 221 84t76 246q0 160 -76 242.5t-221 82.5q-143 0 -220 -83t-77 -242z" />
<glyph unicode="&#x1d3;" horiz-adv-x="1466" d="M111 492v825q0 39 17 57.5t58 18.5h109q41 0 59.5 -18.5t18.5 -57.5v-832q0 -160 93 -241.5t267 -81.5q172 0 265.5 82t93.5 241v832q0 39 18 57.5t59 18.5h107q80 0 80 -76v-825q0 -160 -79 -278t-220.5 -181.5t-323.5 -63.5q-184 0 -325.5 62.5t-219 181.5t-77.5 279z M367 1890q0 27 36 27h109q35 0 49 -7t31 -32l141 -207l139 207q14 25 28.5 32t51.5 7h107q39 0 39 -27q0 -20 -17 -39l-213 -288q-18 -27 -31.5 -35t-45.5 -8h-117q-33 0 -44.5 8t-33.5 35l-213 288q-16 23 -16 39z" />
<glyph unicode="&#x1d4;" horiz-adv-x="1208" d="M111 340v567q0 39 17 57.5t58 18.5h109q41 0 59.5 -18.5t18.5 -57.5v-561q0 -98 51 -144t151 -46q106 0 178 59t72 154v538q0 39 18.5 57.5t59.5 18.5h107q41 0 59 -18.5t18 -57.5v-852q0 -33 -10 -44t-43 -11h-114q-23 0 -33 9t-13 30l-8 86q-139 -156 -383 -156 q-168 0 -270 93.5t-102 277.5zM231 1501q0 27 37 27h109q35 0 49 -7.5t31 -31.5l141 -207l139 207q14 25 28.5 32t51.5 7h107q39 0 39 -27q0 -20 -17 -39l-213 -288q-18 -27 -31.5 -35.5t-46.5 -8.5h-116q-33 0 -44.5 8.5t-33.5 35.5l-213 288q-16 23 -17 39z" />
<glyph unicode="&#x1d5;" horiz-adv-x="1466" d="M111 492v825q0 39 17 57.5t58 18.5h109q41 0 59.5 -18.5t18.5 -57.5v-832q0 -160 93 -241.5t267 -81.5q172 0 265.5 82t93.5 241v832q0 39 18 57.5t59 18.5h107q80 0 80 -76v-825q0 -160 -79 -278t-220.5 -181.5t-323.5 -63.5q-184 0 -325.5 62.5t-219 181.5t-77.5 279z M377 1958v53q0 39 16.5 56.5t57.5 17.5h559q41 0 57 -17.5t16 -56.5v-53q0 -39 -16 -55.5t-57 -16.5h-559q-41 0 -57.5 16.5t-16.5 55.5zM416 1628v39q0 43 26.5 71.5t69.5 28.5h41q43 0 69.5 -28.5t26.5 -71.5v-39q0 -43 -26.5 -72.5t-69.5 -29.5h-41q-43 0 -69.5 29.5 t-26.5 72.5zM819 1628v39q0 41 27.5 70.5t68.5 29.5h41q43 0 70 -28.5t27 -71.5v-39q0 -43 -27 -72.5t-70 -29.5h-41q-41 0 -68.5 29.5t-27.5 72.5z" />
<glyph unicode="&#x1d6;" horiz-adv-x="1208" d="M111 340v567q0 39 17 57.5t58 18.5h109q41 0 59.5 -18.5t18.5 -57.5v-561q0 -98 51 -144t151 -46q106 0 178 59t72 154v538q0 39 18.5 57.5t59.5 18.5h107q41 0 59 -18.5t18 -57.5v-852q0 -33 -10 -44t-43 -11h-114q-23 0 -33 9t-13 30l-8 86q-139 -156 -383 -156 q-168 0 -270 93.5t-102 277.5zM246 1593v54q0 39 16.5 56t56.5 17h560q41 0 57 -17t16 -56v-54q0 -39 -16 -55t-57 -16h-560q-40 0 -56.5 16t-16.5 55zM287 1165v39q0 43 26.5 72t69.5 29h41q43 0 69.5 -29t26.5 -72v-39q0 -43 -26.5 -72.5t-69.5 -29.5h-41 q-43 0 -69.5 29.5t-26.5 72.5zM690 1165v39q0 41 27.5 71t68.5 30h41q43 0 70 -29t27 -72v-39q0 -43 -27 -72.5t-70 -29.5h-41q-41 0 -68.5 29.5t-27.5 72.5z" />
<glyph unicode="&#x1d7;" horiz-adv-x="1466" d="M111 492v825q0 39 17 57.5t58 18.5h109q41 0 59.5 -18.5t18.5 -57.5v-832q0 -160 93 -241.5t267 -81.5q172 0 265.5 82t93.5 241v832q0 39 18 57.5t59 18.5h107q80 0 80 -76v-825q0 -160 -79 -278t-220.5 -181.5t-323.5 -63.5q-184 0 -325.5 62.5t-219 181.5t-77.5 279z M408 1667v39q0 41 27.5 70.5t68.5 29.5h41q43 0 69.5 -28.5t26.5 -71.5v-39q0 -43 -26.5 -72.5t-69.5 -29.5h-41q-41 0 -68.5 29.5t-27.5 72.5zM653 1864q0 8 4 20l72 199q10 29 22.5 39t47.5 10h102q43 0 43 -31q0 -12 -10 -33l-100 -190q-16 -29 -31 -37t-49 -8h-62 q-39 0 -39 31zM825 1667v39q0 43 27 71.5t70 28.5h41q41 0 68.5 -29.5t27.5 -70.5v-39q0 -43 -26.5 -72.5t-69.5 -29.5h-41q-43 0 -70 29.5t-27 72.5z" />
<glyph unicode="&#x1d8;" horiz-adv-x="1208" d="M111 340v567q0 39 17 57.5t58 18.5h109q41 0 59.5 -18.5t18.5 -57.5v-561q0 -98 51 -144t151 -46q106 0 178 59t72 154v538q0 39 18.5 57.5t59.5 18.5h107q41 0 59 -18.5t18 -57.5v-852q0 -33 -10 -44t-43 -11h-114q-23 0 -33 9t-13 30l-8 86q-139 -156 -383 -156 q-168 0 -270 93.5t-102 277.5zM276 1278v39q0 41 28 70.5t69 29.5h41q43 0 69.5 -28.5t26.5 -71.5v-39q0 -43 -26.5 -72.5t-69.5 -29.5h-41q-41 0 -69 29.5t-28 72.5zM522 1475q0 8 4 20l72 199q10 29 22.5 39t47.5 10h102q43 0 43 -31q0 -12 -10 -33l-101 -190 q-16 -29 -30.5 -37t-48.5 -8h-62q-39 0 -39 31zM694 1278v39q0 43 27 71.5t70 28.5h40q41 0 69 -29.5t28 -70.5v-39q0 -43 -27 -72.5t-70 -29.5h-40q-43 0 -70 29.5t-27 72.5z" />
<glyph unicode="&#x1d9;" horiz-adv-x="1466" d="M111 492v825q0 39 17 57.5t58 18.5h109q41 0 59.5 -18.5t18.5 -57.5v-832q0 -160 93 -241.5t267 -81.5q172 0 265.5 82t93.5 241v832q0 39 18 57.5t59 18.5h107q80 0 80 -76v-825q0 -160 -79 -278t-220.5 -181.5t-323.5 -63.5q-184 0 -325.5 62.5t-219 181.5t-77.5 279z M360 2173q0 20 25 20h145q18 0 26.5 -3t16.5 -13l152 -188l154 188q8 10 16 13t27 3h145q25 0 25 -20q0 -10 -9 -19l-229 -270q-20 -27 -34.5 -35t-47.5 -8h-92q-33 0 -46 8.5t-36 34.5l-229 270q-8 8 -9 19zM406 1667v39q0 41 27.5 70.5t68.5 29.5h41q43 0 69.5 -28.5 t26.5 -71.5v-39q0 -43 -26.5 -72.5t-69.5 -29.5h-41q-43 0 -69.5 29.5t-26.5 72.5zM823 1667v39q0 43 27 71.5t70 28.5h41q41 0 68.5 -29.5t27.5 -70.5v-39q0 -43 -28 -72.5t-68 -29.5h-41q-43 0 -70 29.5t-27 72.5z" />
<glyph unicode="&#x1da;" horiz-adv-x="1208" d="M111 340v567q0 39 17 57.5t58 18.5h109q41 0 59.5 -18.5t18.5 -57.5v-561q0 -98 51 -144t151 -46q106 0 178 59t72 154v538q0 39 18.5 57.5t59.5 18.5h107q41 0 59 -18.5t18 -57.5v-852q0 -33 -10 -44t-43 -11h-114q-23 0 -33 9t-13 30l-8 86q-139 -156 -383 -156 q-168 0 -270 93.5t-102 277.5zM238 1780q0 20 24 20h146q18 0 26 -3t17 -13l151 -189l154 189q8 10 16 13t27 3h145q25 0 25 -20q0 -10 -8 -19l-230 -270q-20 -27 -34.5 -35t-47.5 -8h-92q-33 0 -46 8t-36 35l-229 270q-8 8 -8 19zM283 1274v39q0 41 27.5 70.5t68.5 29.5h41 q43 0 69.5 -28.5t26.5 -71.5v-39q0 -43 -26.5 -73t-69.5 -30h-41q-43 0 -69.5 30t-26.5 73zM700 1274v39q0 43 27 71.5t70 28.5h41q41 0 68.5 -29.5t27.5 -70.5v-39q0 -43 -27.5 -73t-68.5 -30h-41q-43 0 -70 30t-27 73z" />
<glyph unicode="&#x1db;" horiz-adv-x="1466" d="M111 492v825q0 39 17 57.5t58 18.5h109q41 0 59.5 -18.5t18.5 -57.5v-832q0 -160 93 -241.5t267 -81.5q172 0 265.5 82t93.5 241v832q0 39 18 57.5t59 18.5h107q80 0 80 -76v-825q0 -160 -79 -278t-220.5 -181.5t-323.5 -63.5q-184 0 -325.5 62.5t-219 181.5t-77.5 279z M412 1667v39q0 41 26.5 69.5t67.5 28.5h41q41 0 67.5 -28.5t26.5 -69.5v-39q0 -43 -26.5 -71.5t-67.5 -28.5h-41q-43 0 -68.5 28.5t-25.5 71.5zM524 2097q0 31 43 31h101q35 0 47 -10.5t22 -38.5l70 -197q4 -12 4 -20q0 -31 -39 -31h-59q-35 0 -49.5 8t-30.5 37l-98 188 q-10 20 -11 33zM823 1667v39q0 41 27 69.5t68 28.5h40q41 0 69 -28.5t28 -69.5v-39q0 -41 -28 -70.5t-69 -29.5h-40q-44 0 -69.5 28.5t-25.5 71.5z" />
<glyph unicode="&#x1dc;" horiz-adv-x="1208" d="M111 340v567q0 39 17 57.5t58 18.5h109q41 0 59.5 -18.5t18.5 -57.5v-561q0 -98 51 -144t151 -46q106 0 178 59t72 154v538q0 39 18.5 57.5t59.5 18.5h107q41 0 59 -18.5t18 -57.5v-852q0 -33 -10 -44t-43 -11h-114q-23 0 -33 9t-13 30l-8 86q-139 -156 -383 -156 q-168 0 -270 93.5t-102 277.5zM266 1278v39q0 41 28 70.5t68 29.5h41q43 0 70 -28.5t27 -71.5v-39q0 -43 -27 -72.5t-70 -29.5h-41q-43 0 -69.5 29.5t-26.5 72.5zM381 1712q0 31 43 31h102q35 0 47.5 -10.5t22.5 -38.5l72 -199q4 -12 4 -20q0 -31 -39 -31h-62q-34 0 -48.5 8 t-30.5 37l-101 190q-10 20 -10 33zM684 1278v39q0 43 26.5 71.5t69.5 28.5h41q41 0 69 -29.5t28 -70.5v-39q0 -43 -28 -72.5t-69 -29.5h-41q-43 0 -69.5 29.5t-26.5 72.5z" />
<glyph unicode="&#x1e6;" horiz-adv-x="1433" d="M80 696q0 348 191.5 537.5t537.5 189.5q139 0 260 -28.5t201 -81.5q18 -12 18 -27q0 -10 -8 -24l-59 -103q-12 -18 -25 -18q-6 0 -27 10q-139 78 -331 78q-233 0 -366.5 -132t-133.5 -401q0 -270 129 -401t354 -131q82 0 160 13t127 38v379h-270q-41 0 -57.5 17.5 t-16.5 56.5v53q0 39 16.5 54.5t57.5 15.5h432q45 0 64.5 -21.5t19.5 -67.5v-540q0 -31 -6.5 -46.5t-26.5 -27.5q-188 -119 -512 -119q-348 0 -538.5 188.5t-190.5 538.5zM446 1890q0 27 37 27h109q35 0 49 -7t31 -32l141 -207l139 207q14 25 28.5 32t51.5 7h107q39 0 39 -27 q0 -20 -17 -39l-213 -288q-18 -27 -31.5 -35t-46.5 -8h-116q-33 0 -44.5 8t-33.5 35l-213 288q-16 23 -17 39z" />
<glyph unicode="&#x1e7;" horiz-adv-x="1259" d="M80 479q0 258 152.5 396.5t441.5 138.5q133 0 261 -37t208 -92v-703q0 -248 -121 -389t-379 -141q-119 0 -231.5 22.5t-171.5 59.5q-33 18 -17 45l60 100q12 20 24 21q8 0 21 -6q113 -57 293 -58q137 0 200.5 65.5t63.5 221.5q-57 -61 -134 -91t-186 -30q-229 0 -357 125 t-128 352zM311 1501q0 27 37 27h109q35 0 49 -7.5t31 -31.5l141 -207l139 207q14 25 28.5 32t51.5 7h107q39 0 38 -27q0 -20 -16 -39l-213 -288q-18 -27 -31.5 -35.5t-46.5 -8.5h-117q-32 0 -43.5 8.5t-33.5 35.5l-213 288q-16 23 -17 39zM338 496q0 -152 71.5 -226.5 t217.5 -74.5q114 0 186 60t72 167v364q-39 18 -98.5 28.5t-124.5 10.5q-324 0 -324 -329z" />
<glyph unicode="&#x1fa;" horiz-adv-x="1501" d="M80 31q0 12 6 26l539 1280q-51 31 -83 85.5t-32 119.5q0 100 69.5 170t170.5 70q100 0 169.5 -70t69.5 -170q0 -63 -30.5 -117.5t-84.5 -87.5l541 -1280q6 -14 6 -26q0 -31 -35 -31h-178q-27 0 -38 7t-21 30l-117 287h-565l-115 -287q-10 -23 -21.5 -30t-37.5 -7h-178 q-35 0 -35 31zM532 514h435l-217 537zM631 1868q0 16 4 24l96 269q12 29 25.5 39t50.5 10h151q51 0 52 -35q0 -14 -9 -31l-135 -264q-14 -27 -30.5 -36t-55.5 -9h-106q-43 0 -43 33zM639 1542q0 -45 33 -77.5t78 -32.5t76.5 32.5t31.5 77.5t-31.5 77t-76.5 32t-78 -32 t-33 -77z" />
<glyph unicode="&#x1fb;" horiz-adv-x="1259" d="M80 434q0 172 75.5 304t216 204t326.5 72q260 0 441 -123v-836q0 -31 -13.5 -43t-46.5 -12h-112q-23 0 -34 9t-15 30l-17 80q-63 -78 -156.5 -114t-226.5 -36q-201 0 -319.5 122t-118.5 343zM338 442q0 -147 68.5 -216.5t209.5 -69.5q109 0 192 63.5t83 167.5v399 q-43 23 -87 32t-108 9q-162 0 -260 -102t-98 -283zM446 1356q0 100 70 169.5t170 69.5t170 -69.5t70 -169.5t-70 -170t-170 -70t-170 69.5t-70 170.5zM541 1702q0 12 4 20l96 215q12 23 26.5 31t49.5 8h151q51 0 52 -28q0 -10 -9 -25l-135 -211q-14 -23 -30.5 -30t-55.5 -7 h-106q-43 0 -43 27zM575 1356q0 -45 33 -78t78 -33t77 33t32 78t-32 76.5t-77 31.5t-78 -31.5t-33 -76.5z" />
<glyph unicode="&#x1fc;" horiz-adv-x="1814" d="M82 33q0 16 4 24l541 1282q12 29 29.5 41.5t45.5 12.5h979q41 0 57.5 -16.5t16.5 -55.5v-55q0 -39 -16.5 -56.5t-57.5 -17.5h-591v-397h411q41 0 57.5 -16.5t16.5 -55.5v-51q0 -39 -16.5 -56.5t-57.5 -17.5h-411v-399h591q41 0 57.5 -17.5t16.5 -56.5v-55 q0 -37 -16.5 -53.5t-57.5 -16.5h-761q-78 0 -78 76v250h-375l-115 -289q-8 -23 -21.5 -30t-43.5 -7h-172q-33 0 -33 33zM526 514h316v678h-47zM891 1526q0 16 4 24l96 269q12 29 25.5 39t50.5 10h152q51 0 51 -35q0 -14 -8 -31l-136 -264q-14 -27 -30.5 -36t-55.5 -9h-106 q-43 0 -43 33z" />
<glyph unicode="&#x1fd;" horiz-adv-x="1947" d="M80 272q0 162 107.5 239t304.5 77h319v41q0 102 -63.5 157.5t-210.5 55.5q-82 0 -145.5 -15.5t-125.5 -46.5q-20 -8 -24 -8q-8 0 -15.5 7t-13.5 20l-43 84q-6 12 -6 20q0 14 20 27q72 39 170.5 61.5t202.5 22.5q154 0 247 -49.5t142 -143.5q55 94 159.5 143.5t242.5 49.5 q258 0 389 -133t131 -385q0 -72 -64 -72h-737q0 -133 90 -207t254 -74q168 0 287 74q14 8 24 8t23 -18l47 -88q8 -10 8 -23q0 -14 -20 -26q-82 -53 -177.5 -77t-216.5 -24q-147 0 -263.5 57.5t-178.5 166.5q-70 -106 -192.5 -165t-272.5 -59q-182 0 -290.5 75t-108.5 228z M305 285q0 -74 47 -108t154 -34q145 0 225 60.5t80 177.5v55h-307q-102 0 -150.5 -34.5t-48.5 -116.5zM825 1186q0 16 4 24l97 269q12 29 25.5 39t49.5 10h152q51 0 51 -35q0 -14 -8 -31l-135 -264q-14 -27 -30.5 -36t-55.5 -9h-107q-43 0 -43 33zM1067 575h565 q0 133 -67.5 202t-214.5 69q-283 0 -283 -271z" />
<glyph unicode="&#x1fe;" horiz-adv-x="1560" d="M80 696q0 346 181 536.5t519 190.5q88 0 162 -12l39 92q8 20 18.5 27.5t30.5 7.5h166q29 0 29 -25q0 -10 -6 -26l-60 -148q158 -84 240 -248.5t82 -394.5q0 -346 -182.5 -536.5t-518.5 -190.5q-96 0 -174 15l-51 -127q-8 -18 -18.5 -25.5t-32.5 -7.5h-166q-29 0 -29 22 q0 12 6 29l76 184q-152 86 -231.5 248t-79.5 389zM338 696q0 -287 139 -426l389 953q-39 6 -86 6q-215 0 -328.5 -135.5t-113.5 -397.5zM639 1526q0 16 4 24l96 269q12 29 25.5 39t50.5 10h152q51 0 51 -35q0 -14 -8 -31l-136 -264q-14 -27 -30.5 -36t-55.5 -9h-106 q-43 0 -43 33zM682 170q41 -8 98 -8q215 0 328 136t113 398q0 299 -148 434z" />
<glyph unicode="&#x1ff;" horiz-adv-x="1271" d="M80 492q0 242 144.5 382t410.5 140q31 0 84 -4l53 129q14 35 51 35h166q29 0 29 -27q0 -12 -6 -25l-72 -174q123 -63 187.5 -181t64.5 -275q0 -242 -145.5 -382.5t-411.5 -140.5q-33 0 -94 4l-47 -116q-12 -33 -52 -33h-166q-29 0 -28 24q0 10 6 27l68 164 q-119 63 -180.5 180t-61.5 273zM338 492q0 -154 72 -238l231 563h-6q-143 0 -220 -83t-77 -242zM547 1219q0 16 4 24l96 268q12 29 25.5 39.5t50.5 10.5h151q51 0 52 -35q0 -14 -8 -31l-136 -264q-14 -27 -30.5 -36t-55.5 -9h-106q-43 0 -43 33zM618 162h17q145 0 221 84 t76 246t-78 245z" />
<glyph unicode="&#x218;" horiz-adv-x="1208" d="M82 119q0 8 10 24l64 103q10 18 20 18t27 -10q70 -41 176 -66.5t209 -25.5q139 0 209.5 46t70.5 148q0 70 -33.5 114t-96 73.5t-185.5 70.5q-129 45 -218 94.5t-147.5 128t-58.5 197.5q0 193 132 291t351 98q147 0 264 -28.5t193 -79.5q25 -18 25 -35q0 -12 -9 -23 l-63 -102q-12 -18 -23 -18q-8 0 -24 10q-131 82 -328 82q-258 0 -258 -197q0 -72 36 -113.5t92 -67.5t202 -79q150 -55 233.5 -103t129.5 -124t46 -197q0 -176 -129 -277.5t-378 -101.5q-144 0 -287.5 30t-224.5 87q-27 18 -27 33zM387 -506q0 4 4 21l107 335 q8 33 22.5 42.5t50.5 9.5h107q49 0 49 -31q0 -18 -8 -37l-144 -336q-10 -18 -23 -26.5t-38 -8.5h-90q-37 0 -37 31z" />
<glyph unicode="&#x219;" horiz-adv-x="1067" d="M80 102q0 12 8 23l57 100q10 18 21 19q10 0 27 -11q61 -37 151 -61.5t166 -24.5q117 0 167 24t50 85q0 35 -19.5 56.5t-58.5 38t-129 44.5l-67 23q-117 39 -186.5 75.5t-107.5 93t-38 142.5q0 139 117.5 212t306.5 73q229 0 395 -99q27 -14 27 -30q0 -10 -11 -27l-55 -88 q-12 -18 -20 -18t-25 10q-53 33 -128 52.5t-150 19.5q-102 0 -150.5 -21.5t-48.5 -83.5q0 -53 56.5 -84t195.5 -74l67 -20q160 -51 224.5 -121t64.5 -174q0 -127 -111.5 -207t-328.5 -80q-123 0 -240 25.5t-201 77.5q-27 14 -26 30zM338 -508q0 6 4 23l104 335 q10 33 24.5 42.5t49.5 9.5h107q51 0 51 -31q0 -12 -10 -37l-144 -336q-8 -18 -21.5 -26.5t-37.5 -8.5h-90q-37 0 -37 29z" />
<glyph unicode="&#x21a;" horiz-adv-x="1202" d="M39 1264v55q0 39 15.5 56.5t56.5 17.5h979q41 0 57 -17.5t16 -56.5v-55q0 -39 -16.5 -55.5t-56.5 -16.5h-359v-1118q0 -37 -17.5 -55.5t-60.5 -18.5h-106q-41 0 -59.5 18.5t-18.5 55.5v1118h-358q-41 0 -56.5 16.5t-15.5 55.5zM385 -459q0 6 4 23l94 309q8 33 23.5 43 t50.5 10h107q51 0 51 -30q0 -10 -10 -37l-134 -312q-12 -35 -59 -34h-90q-37 -1 -37 28z" />
<glyph unicode="&#x21b;" horiz-adv-x="935" d="M39 858v55q0 39 13.5 54.5t53.5 15.5h117v113q0 43 15.5 80.5t48.5 95.5q12 25 23.5 32t39.5 7h68q37 0 52 -17.5t15 -52.5v-258h242q41 0 54.5 -15.5t13.5 -54.5v-55q0 -39 -13.5 -53t-54.5 -14h-242v-451q0 -94 33 -136t113 -42q47 0 79.5 11t71.5 38q10 8 23 8 q12 0 24 -18l60 -99q8 -10 8 -22q0 -14 -20 -29q-127 -82 -304 -82q-174 0 -262 96.5t-88 266.5v459h-117q-41 0 -54 14t-13 53zM356 -459q0 6 4 23l95 309q8 33 23.5 43t49.5 10h107q51 0 51 -30q0 -10 -10 -37l-133 -312q-12 -35 -60 -34h-90q-37 -1 -37 28z" />
<glyph unicode="&#x237;" horiz-adv-x="612" d="M-258 -223q0 10 10 26l58 99q12 20 24 20q10 0 27 -12q92 -66 196 -66q94 0 132 45t38 142v876q0 76 78 76h109q41 0 59.5 -18.5t18.5 -57.5v-882q0 -174 -97.5 -273.5t-292.5 -99.5q-104 0 -193 23.5t-149 70.5q-18 14 -18 31z" />
<glyph unicode="&#x251;" horiz-adv-x="1259" d="M80 434q0 172 75.5 304t216 204t326.5 72q260 0 441 -123v-836q0 -31 -13.5 -43t-46.5 -12h-112q-23 0 -34 9t-15 30l-17 80q-63 -78 -156.5 -114t-226.5 -36q-201 0 -319.5 122t-118.5 343zM338 442q0 -147 68.5 -216.5t209.5 -69.5q109 0 192 63.5t83 167.5v399 q-82 41 -195 41q-162 0 -260 -102t-98 -283z" />
<glyph unicode="&#x259;" horiz-adv-x="1224" d="M80 487q0 70 63 70h752q0 135 -94 208t-262 73q-160 0 -289 -74q-14 -8 -25 -8q-12 0 -22 18l-49 88q-6 12 -7 23q0 16 21 28q82 51 179 76t224 25q160 0 290 -55.5t207 -169t77 -283.5q0 -262 -142.5 -399.5t-402.5 -137.5t-390 132t-130 386zM317 406q0 -129 71 -200 t212 -71t218 74t77 197h-578z" />
<glyph unicode="&#x2bb;" horiz-adv-x="503" d="M78 977q0 12 10 37l148 346q8 18 21 26.5t40 8.5h90q37 0 37 -29q0 -4 -4 -20l-111 -349q-10 -31 -24.5 -41t-48.5 -10h-107q-51 0 -51 31z" />
<glyph unicode="&#x2bc;" horiz-adv-x="503" d="M80 975q0 6 4 22l109 346q10 33 24 42.5t49 9.5h107q51 0 51 -31q0 -10 -10 -35l-148 -348q-12 -35 -59 -35h-90q-37 0 -37 29z" />
<glyph unicode="&#x2be;" d="M-135 1163v107q0 20 9 27.5t30 7.5q51 0 76.5 18t25.5 66q0 49 -25.5 67.5t-76.5 18.5q-20 0 -29.5 7t-9.5 27v107q0 14 10 23.5t27 9.5q137 0 212.5 -58.5t75.5 -201.5q0 -141 -77.5 -200t-210.5 -59q-17 0 -27 9.5t-10 23.5z" />
<glyph unicode="&#x2bf;" d="M-147 1389q0 143 75.5 201.5t212.5 58.5q16 0 26.5 -9.5t10.5 -23.5v-107q0 -20 -9 -27t-30 -7q-53 0 -78.5 -18.5t-25.5 -67.5q0 -47 25.5 -65.5t78.5 -18.5q20 0 29.5 -7.5t9.5 -27.5v-107q0 -14 -10 -23.5t-27 -9.5q-133 0 -210.5 58.5t-77.5 200.5z" />
<glyph unicode="&#x2c6;" horiz-adv-x="888" d="M80 1180q0 16 14 32l213 289q18 27 33.5 36t50.5 9h107q35 0 50 -9t34 -36l213 -289q14 -16 14 -34q0 -14 -13.5 -22.5t-33.5 -8.5h-96q-35 0 -50.5 9t-33.5 34l-138 205l-137 -205q-14 -25 -30.5 -34t-53.5 -9h-96q-23 0 -35 9t-12 24z" />
<glyph unicode="&#x2c7;" horiz-adv-x="888" d="M74 1534q0 12 14 19.5t39 7.5h96q35 0 52.5 -9.5t31.5 -33.5l137 -203l138 203q18 25 33.5 34t50.5 9h96q49 0 49 -29q0 -12 -12 -31l-217 -295q-18 -27 -31.5 -35t-48.5 -8h-115q-35 0 -48 8.5t-32 34.5l-219 297q-14 16 -14 31z" />
<glyph unicode="&#x2c8;" d="M-109 1219v217q0 41 19.5 58t58.5 17h60q39 0 58 -17t19 -58v-217q0 -41 -19 -58.5t-58 -17.5h-60q-39 0 -58.5 17.5t-19.5 58.5z" />
<glyph unicode="&#x2c9;" horiz-adv-x="722" d="M8 1282v53q0 39 16.5 56.5t57.5 17.5h561q41 0 56.5 -17.5t15.5 -56.5v-53q0 -39 -15.5 -55.5t-56.5 -16.5h-561q-41 0 -57.5 16.5t-16.5 55.5z" />
<glyph unicode="&#x2ca;" d="M-141 1194q0 16 4 25l98 268q10 29 24.5 39t51.5 10h149q25 0 39.5 -9t14.5 -26q0 -10 -11 -31l-135 -264q-14 -27 -29.5 -36t-54.5 -9h-106q-45 0 -45 33z" />
<glyph unicode="&#x2cb;" d="M-225 1501q0 35 51 35h149q39 0 52.5 -10t23.5 -39l99 -268q4 -8 4 -25q0 -33 -45 -33h-107q-37 0 -53.5 9.5t-30.5 35.5l-135 264q-8 16 -8 31z" />
<glyph unicode="&#x2cc;" d="M-109 -152q0 41 19.5 58.5t58.5 17.5h60q39 0 58 -17.5t19 -58.5v-217q0 -41 -19 -58t-58 -17h-60q-39 0 -58.5 17t-19.5 58v217z" />
<glyph unicode="&#x2d8;" horiz-adv-x="835" d="M80 1501q0 16 9 26.5t24 10.5h135q20 0 27.5 -9t7.5 -30q0 -74 29.5 -113.5t105.5 -39.5q74 0 104.5 39.5t30.5 113.5q0 20 7 29.5t28 9.5h135q14 0 23.5 -10t9.5 -27q0 -150 -87 -242t-251 -92q-168 0 -253 91.5t-85 242.5z" />
<glyph unicode="&#x2d9;" horiz-adv-x="393" d="M80 1300v39q0 43 26.5 72t69.5 29h41q41 0 68.5 -30t27.5 -71v-39q0 -43 -26.5 -72.5t-69.5 -29.5h-41q-43 0 -69.5 29.5t-26.5 72.5z" />
<glyph unicode="&#x2da;" horiz-adv-x="636" d="M78 1356q0 102 69.5 170.5t169.5 68.5t171 -68.5t71 -170.5t-70.5 -171t-171.5 -69q-100 0 -169.5 68.5t-69.5 171.5zM207 1356q0 -47 31.5 -79t78.5 -32q48 0 79.5 32t31.5 79q0 45 -31.5 76.5t-79.5 31.5q-47 0 -78.5 -31.5t-31.5 -76.5z" />
<glyph unicode="&#x2db;" horiz-adv-x="514" d="M80 -309q0 57 29.5 116.5t95.5 135.5q14 16 23.5 21t27.5 5h121q18 0 24.5 -10t-4.5 -22q-74 -84 -98.5 -130.5t-24.5 -91.5q0 -27 13.5 -41t36.5 -14q29 0 49 10l8 4q6 0 16 -16l33 -68q2 -4 2 -12q0 -10 -18 -18q-53 -29 -142 -29q-94 0 -143 42t-49 118z" />
<glyph unicode="&#x2dc;" horiz-adv-x="1024" d="M76 1298q0 18 22 52q47 61 98.5 95t122.5 34q59 0 106.5 -15.5t111.5 -44.5q47 -23 80.5 -35t68.5 -12q41 0 67.5 16.5t59.5 59.5q16 23 41 22q29 0 70 -32q45 -37 45 -64q0 -18 -21 -49q-51 -78 -106.5 -111.5t-143.5 -33.5q-47 0 -91 15t-107 44q-59 27 -92 38t-66 11 q-41 0 -63.5 -14t-57.5 -51q-14 -20 -37 -21q-25 0 -73 39q-35 31 -35 57z" />
<glyph unicode="&#x2dd;" horiz-adv-x="974" d="M80 1194q0 12 6 25l135 268q14 29 26.5 39t49.5 10h133q25 0 40 -9t15 -26q0 -12 -12 -31l-172 -264q-18 -29 -32.5 -37t-51.5 -8h-90q-23 0 -35 9.5t-12 23.5zM489 1194q0 12 7 25l133 268q14 29 27.5 39t48.5 10h135q25 0 39 -9t14 -26q0 -14 -10 -31l-172 -264 q-18 -29 -32.5 -37t-53.5 -8h-90q-46 0 -46 33z" />
<glyph unicode="&#x300;" d="M-618 1493q0 35 51 35h149q39 0 52.5 -10.5t23.5 -38.5l98 -269q4 -8 4 -24q0 -33 -45 -33h-106q-37 0 -53.5 9t-30.5 36l-135 264q-8 16 -8 31z" />
<glyph unicode="&#x301;" d="M-516 1186q0 16 4 24l96 269q12 29 25.5 39t50.5 10h152q51 0 51 -35q0 -14 -8 -31l-136 -264q-14 -27 -30.5 -36t-55.5 -9h-106q-43 0 -43 33z" />
<glyph unicode="&#x302;" d="M-365 1178q0 18 15 34l213 289q23 29 34 37t44 8h116q33 0 45.5 -9t32.5 -36l213 -289q14 -16 14 -34q0 -14 -12 -22.5t-33 -8.5h-96q-35 0 -50 9t-34 34l-137 205l-139 -205q-14 -25 -30.5 -34t-51.5 -9h-96q-21 0 -34.5 8t-13.5 23z" />
<glyph unicode="&#x303;" d="M-797 1298q0 23 23 52q49 63 100 96t121 33q59 0 106.5 -15.5t110.5 -44.5q47 -23 81 -35t69 -12q41 0 67.5 16.5t59.5 59.5q16 23 41 22q29 0 69 -32q45 -37 45 -64q0 -23 -20 -49q-51 -78 -106.5 -111.5t-141.5 -33.5q-47 0 -93 15t-108 44q-59 27 -92 38t-65 11 q-41 0 -63.5 -14t-57.5 -51q-14 -20 -37 -21q-27 0 -72 39q-37 35 -37 57z" />
<glyph unicode="&#x304;" d="M-352 1274v53q0 39 16.5 56.5t56.5 17.5h560q41 0 57 -17.5t16 -56.5v-53q0 -39 -16 -55.5t-57 -16.5h-560q-40 0 -56.5 16.5t-16.5 55.5z" />
<glyph unicode="&#x306;" d="M-338 1493q0 16 9.5 26.5t23.5 10.5h135q20 0 27.5 -9.5t7.5 -29.5q0 -74 29.5 -114t105.5 -40q74 0 104.5 40t30.5 114q0 20 7.5 29.5t27.5 9.5h135q14 0 23.5 -10.5t9.5 -26.5q0 -150 -87 -242t-251 -92q-168 0 -253 91t-85 243z" />
<glyph unicode="&#x307;" d="M-119 1292v39q0 41 28 71t68 30h43q41 0 69 -30t28 -71v-39q0 -43 -27 -72.5t-70 -29.5h-43q-40 0 -68 29.5t-28 72.5z" />
<glyph unicode="&#x308;" d="M-315 1231v39q0 43 26.5 71.5t69.5 28.5h41q43 0 69.5 -28.5t26.5 -71.5v-39q0 -43 -26.5 -73t-69.5 -30h-41q-43 0 -69.5 30t-26.5 73zM88 1231v39q0 41 27.5 70.5t68.5 29.5h41q43 0 70 -28.5t27 -71.5v-39q0 -43 -27 -73t-70 -30h-41q-41 0 -68.5 30t-27.5 73z" />
<glyph unicode="&#x309;" d="M-590 1550q0 6 10 15q41 27 104.5 42t127.5 15q135 0 202.5 -52t67.5 -149q0 -90 -59.5 -143t-141.5 -53v-45q0 -47 -47 -47h-86q-47 0 -47 47v92q0 33 16.5 48t55.5 15q72 0 97.5 17.5t25.5 60.5q0 35 -24.5 51.5t-82.5 16.5q-76 0 -153 -39q-16 -6 -21 4l-43 94 q-2 4 -2 10z" />
<glyph unicode="&#x30a;" d="M-240 1356q0 100 70 169.5t170 69.5t170 -69.5t70 -169.5t-70 -170t-170 -70t-170 69.5t-70 170.5zM-111 1356q0 -45 32 -78t79 -33q45 0 77 33t32 78t-32 76.5t-77 31.5t-78 -31.5t-33 -76.5z" />
<glyph unicode="&#x30b;" d="M-424 1194q0 10 6 25l133 268q14 29 27.5 39t48.5 10h135q23 0 38.5 -9t15.5 -24q0 -14 -13 -33l-170 -264q-20 -29 -34.5 -37t-51.5 -8h-90q-45 0 -45 33zM-16 1194q0 12 6 25l133 268q14 29 27.5 39t50.5 10h133q25 0 39 -9t14 -26q0 -14 -10 -31l-172 -264 q-18 -27 -33.5 -36t-52.5 -9h-88q-47 0 -47 33z" />
<glyph unicode="&#x30c;" d="M-367 1526q0 27 37 26h109q35 0 49 -7t31 -32l141 -206l139 206q14 25 28.5 32t51.5 7h107q39 0 39 -26q0 -20 -17 -39l-213 -289q-18 -27 -31.5 -35t-46.5 -8h-116q-33 0 -44.5 8t-33.5 35l-213 289q-16 23 -17 39z" />
<glyph unicode="&#x31b;" d="M-225 1075v187q121 0 168 47t47 170q0 31 9 43t34 12h135q25 0 35 -12.5t10 -42.5q0 -205 -103.5 -304.5t-334.5 -99.5z" />
<glyph unicode="&#x323;" d="M-485 -236q0 41 27.5 71t68.5 30h41q43 0 69.5 -29t26.5 -72v-38q0 -43 -26.5 -73t-69.5 -30h-41q-41 0 -68.5 30t-27.5 73v38z" />
<glyph unicode="&#x324;" d="M-324 -236q0 41 28 71t69 30h43q41 0 68.5 -30t27.5 -71v-38q0 -43 -26.5 -73t-69.5 -30h-43q-41 0 -69 30t-28 73v38zM90 -236q0 43 26.5 72t69.5 29h41q41 0 69 -30t28 -71v-38q0 -43 -27 -73t-70 -30h-41q-43 0 -69.5 30t-26.5 73v38z" />
<glyph unicode="&#x326;" d="M-51 -518q0 6 4 22l108 346q8 33 23.5 43.5t50.5 10.5h107q49 0 49 -31q0 -18 -8 -37l-148 -348q-8 -18 -21.5 -26.5t-37.5 -8.5h-90q-37 0 -37 29z" />
<glyph unicode="&#x327;" d="M-182 -436.5q-4 6.5 2 20.5l28 72q6 14 17 14q8 0 20 -6q41 -23 95 -22q43 0 61 14t18 45q0 41 -28.5 54.5t-93.5 13.5h-31q-16 0 -21.5 9t0.5 23l56 140q6 16 15 22t30 6h131q25 0 24 -16q0 -10 -4 -16l-47 -103q147 -12 148 -151q0 -78 -59.5 -124t-170.5 -46 q-47 0 -94 10t-74 24q-18 10 -22 16.5z" />
<glyph unicode="&#x328;" d="M-254 -309q0 57 29.5 116.5t95.5 135.5q14 16 23.5 21t27.5 5h121q18 0 24.5 -10t-4.5 -22q-72 -86 -96 -131.5t-24 -90.5q0 -55 49 -55q29 0 45 8q12 4 14 4q8 0 15 -14l30 -68q4 -8 4 -12q0 -12 -24 -22q-49 -25 -152 -25q-88 0 -133 45t-45 115z" />
<glyph unicode="&#x32e;" d="M-338 -113q0 16 9.5 26.5t23.5 10.5h135q20 0 27.5 -9t7.5 -30q0 -74 29.5 -113.5t105.5 -39.5q74 0 104.5 40t30.5 113q0 20 7.5 29.5t27.5 9.5h135q14 0 23.5 -10t9.5 -27q0 -150 -87 -241.5t-251 -91.5q-168 0 -253 91t-85 242z" />
<glyph unicode="&#x331;" d="M-340 -219q0 39 16.5 56.5t57.5 17.5h532q41 0 57.5 -17.5t16.5 -56.5v-39q0 -39 -16.5 -55.5t-57.5 -16.5h-532q-41 0 -57.5 16.5t-16.5 55.5v39z" />
<glyph unicode="&#x394;" horiz-adv-x="1546" d="M80 49q0 10 8 35l576 1348q10 25 20 34t33 9h114q23 0 33 -9.5t21 -33.5l571 -1348q8 -18 8 -37q0 -47 -57 -47h-1268q-28 0 -43.5 13.5t-15.5 35.5zM401 199h742l-371 884z" />
<glyph unicode="&#x3a9;" horiz-adv-x="1564" d="M80 70v61q0 39 15.5 55.5t54.5 16.5h253q-137 80 -222 220t-85 320q0 193 77 346.5t230.5 243.5t378.5 90q223 0 378 -90t231.5 -244.5t76.5 -345.5q0 -180 -85 -320t-224 -220h256q39 0 54.5 -16.5t15.5 -55.5v-61q0 -37 -15.5 -53.5t-54.5 -16.5h-426q-55 0 -75.5 18.5 t-20.5 63.5v61q0 33 12.5 58.5t46.5 52.5q131 100 193.5 207.5t62.5 281.5q0 227 -115.5 356.5t-312.5 129.5t-311.5 -129t-114.5 -357q0 -174 62.5 -280.5t193.5 -208.5q35 -29 47.5 -53.5t12.5 -57.5v-61q0 -45 -20.5 -63.5t-76.5 -18.5h-426q-38 0 -52.5 16.5t-14.5 53.5 z" />
<glyph unicode="&#x3bc;" horiz-adv-x="1136" d="M80 -287v1194q0 41 19.5 58.5t64.5 17.5h100q41 0 59.5 -18.5t18.5 -57.5v-561q0 -190 203 -190q111 0 180.5 58t69.5 155v538q0 43 21.5 59.5t76.5 16.5h86q43 0 60.5 -18.5t17.5 -57.5v-852q0 -33 -10.5 -44t-42.5 -11h-117q-23 0 -33 9t-12 30l-6 86 q-49 -76 -122 -116t-186 -40q-53 0 -103 14.5t-83 39.5v-310q0 -43 -21.5 -59t-76.5 -16h-88q-41 0 -58.5 18t-17.5 57z" />
<glyph unicode="&#x3c0;" horiz-adv-x="1425" d="M59 854v51q0 41 15.5 59.5t56.5 18.5h981q41 0 56.5 -18.5t15.5 -59.5v-51q0 -39 -15.5 -55.5t-56.5 -16.5h-80v-493q0 -127 115 -127q43 0 72.5 9t62.5 36q10 8 21 8q12 0 24 -20l62 -101q8 -16 8 -20q0 -14 -25 -31q-49 -33 -120.5 -53.5t-149.5 -20.5q-166 0 -247 86 t-81 246v481h-307v-708q0 -43 -21.5 -58.5t-76.5 -15.5h-78q-43 0 -61.5 18.5t-18.5 55.5v708h-80q-41 0 -56.5 16.5t-15.5 55.5z" />
<glyph unicode="&#xe01;" horiz-adv-x="1280" d="M80 862q0 27 22 47q98 86 233.5 141.5t303.5 55.5q274 0 396 -121t122 -326v-585q0 -37 -17.5 -55.5t-60.5 -18.5h-106q-41 0 -59.5 18.5t-18.5 55.5v592q0 123 -61.5 183t-196.5 60q-172 0 -285 -92l29 -63q16 -35 22.5 -61.5t6.5 -67.5v-551q0 -37 -17.5 -55.5 t-60.5 -18.5h-107q-41 0 -59.5 18.5t-18.5 55.5v606l-51 121q-16 37 -16 61z" />
<glyph unicode="&#xe02;" horiz-adv-x="1175" d="M80 928v90q0 31 12 44t43 13h227q76 0 103 -30.5t27 -102.5v-137q0 -29 -7.5 -47.5t-25.5 -32.5q-59 -43 -87 -98.5t-28 -143.5v-133q0 -86 59.5 -133t167.5 -47q113 0 166.5 45t53.5 135v649q0 39 18 57.5t59 18.5h109q41 0 58.5 -18.5t17.5 -57.5v-612 q0 -197 -121 -307.5t-361 -110.5q-227 0 -357 102.5t-130 278.5v113q0 117 44 195.5t128 132.5v40q0 23 -10 31t-35 8h-76q-31 0 -43 13.5t-12 44.5z" />
<glyph unicode="&#xe03;" horiz-adv-x="1185" d="M84 842v186q0 47 47 47h86q47 0 47 -47v-10q57 57 146 57q133 0 133 -143v-148q0 -33 -7.5 -51t-29.5 -33q-78 -49 -115 -103t-37 -146v-101q0 -86 59.5 -133t168.5 -47q113 0 166 45t53 135v649q0 39 18.5 57.5t59.5 18.5h108q41 0 58.5 -18.5t17.5 -57.5v-612 q0 -197 -121 -307.5t-360 -110.5q-228 0 -358 102.5t-130 278.5v96q0 121 69.5 214.5t178.5 142.5v51q0 23 -8 32t-29 9q-31 0 -55 -37v-16q0 -47 -45 -47h-74q-47 0 -47 47z" />
<glyph unicode="&#xe04;" horiz-adv-x="1267" d="M121 74v616q0 193 131 304.5t381 111.5t381 -111.5t131 -304.5v-616q0 -37 -18.5 -55.5t-61.5 -18.5h-104q-41 0 -59.5 18.5t-18.5 55.5v620q0 106 -63.5 160.5t-186.5 54.5q-250 0 -250 -215v-229q66 106 203 106h65q23 0 32 -9t9 -32v-112q0 -27 -10 -37t-33 -10h-69 q-96 0 -146.5 -63.5t-50.5 -166.5v-67q0 -37 -17.5 -55.5t-60.5 -18.5h-108q-41 0 -58.5 18.5t-17.5 55.5z" />
<glyph unicode="&#xe05;" horiz-adv-x="1267" d="M121 74v743q0 135 73.5 212t217.5 77q74 0 130 -25.5t93 -72.5q35 45 91 71.5t130 26.5q289 0 289 -289v-743q0 -37 -18.5 -55.5t-61.5 -18.5h-104q-41 0 -59.5 18.5t-18.5 55.5v708q0 70 -24.5 99.5t-84.5 29.5q-39 0 -62.5 -15t-41.5 -42q-14 -23 -39 -23t-39 23 q-18 29 -41 43t-62 14q-57 0 -81.5 -29.5t-24.5 -99.5v-317q66 106 203 106h65q23 0 32 -9t9 -32v-112q0 -27 -10 -37t-33 -10h-69q-96 0 -146.5 -63.5t-50.5 -166.5v-67q0 -37 -17.5 -55.5t-60.5 -18.5h-108q-41 0 -58.5 18.5t-17.5 55.5z" />
<glyph unicode="&#xe06;" horiz-adv-x="1230" d="M80 842v186q0 25 9 36t34 11h96q25 0 33 -9t8 -34v-14q25 25 66 41t90 16q63 0 99 -35.5t36 -97.5v-143q0 -37 -7 -58.5t-30 -38.5q-55 -41 -85 -69.5t-50.5 -74.5t-20.5 -112v-73q0 -53 38 -102.5t102.5 -80t138.5 -30.5q106 0 157.5 48t51.5 152v639q0 39 18.5 57.5 t59.5 18.5h106q41 0 59.5 -18.5t18.5 -57.5v-643q0 -188 -108.5 -287.5t-288.5 -99.5q-255 0 -394 162v-82q0 -27 -13 -38t-42 -11h-104q-35 0 -49.5 16.5t-14.5 51.5v329q0 131 64.5 242t179.5 172v43q0 23 -8 32t-29 9q-18 0 -34.5 -11.5t-24.5 -25.5v-22q0 -23 -10.5 -32 t-34.5 -9h-70q-27 0 -37 10t-10 37z" />
<glyph unicode="&#xe07;" horiz-adv-x="1245" d="M86 694q0 29 31 37l139 47q16 6 25 6q14 0 22 -11t16 -40l138 -424q27 -80 69.5 -114.5t137.5 -34.5q129 0 185 95t56 294q0 190 -50 275t-167 85q-57 0 -125 -26q-12 -4 -18 -4q-20 0 -29 26l-35 113l-4 16q0 14 23 25q90 47 227 47q217 0 327.5 -150.5t110.5 -408.5 q0 -283 -132 -430.5t-384 -147.5q-178 0 -280.5 71t-149.5 222l-127 397q-6 23 -6 35z" />
<glyph unicode="&#xe08;" horiz-adv-x="1189" d="M82 987q0 16 22 31q166 88 445 88q307 0 434 -150.5t127 -429.5q0 -285 -130 -421t-355 -136q-203 0 -305.5 92.5t-102.5 239.5v86h-72q-33 0 -45 12.5t-12 44.5v86q0 29 12.5 42.5t42.5 13.5h222q43 0 59 -17.5t16 -56.5v-182q0 -92 42 -130t143 -38q123 0 174 88 t51 276q0 141 -33 224.5t-107.5 122t-201.5 38.5q-174 0 -307 -63q-20 -10 -29 -10q-16 0 -31 26l-51 94q-8 14 -8 29z" />
<glyph unicode="&#xe09;" horiz-adv-x="1220" d="M82 987q0 16 22 31q166 88 445 88q301 0 425 -131t124 -379v-528q0 -35 -14.5 -51.5t-49.5 -16.5h-94q-29 0 -40 11.5t-15 37.5l-8 80q-61 -84 -147.5 -122t-229.5 -38q-181 0 -286 99.5t-105 287.5v189q0 76 77 76h109q41 0 59.5 -18.5t18.5 -57.5v-185q0 -104 51 -154 t164 -50t180.5 66.5t67.5 158.5v207q0 176 -79 249.5t-253 73.5q-170 0 -303 -63q-20 -10 -29 -10q-16 0 -31 26l-51 94q-8 14 -8 29z" />
<glyph unicode="&#xe0a;" horiz-adv-x="1200" d="M104 928v90q0 31 12.5 44t43.5 13h227q76 0 102.5 -30.5t26.5 -102.5v-137q0 -29 -7 -47.5t-26 -32.5q-59 -43 -86.5 -98.5t-27.5 -143.5v-133q0 -86 59 -133t168 -47q113 0 166 45t53 135v152q0 76 -26.5 115.5t-88.5 78.5q-16 10 -23 20.5t-7 31.5v45q0 18 8 27t29 28 q66 51 90 94t24 127q0 23 8.5 30t30.5 7h191q18 0 24 -7t6 -26q0 -96 -46 -176t-130 -127q96 -43 134 -114.5t38 -176.5v-92q0 -197 -120.5 -307.5t-360.5 -110.5q-227 0 -357 102.5t-130 278.5v113q0 117 44 195.5t128 132.5v40q0 23 -10.5 31t-34.5 8h-76 q-31 0 -43.5 13.5t-12.5 44.5z" />
<glyph unicode="&#xe0b;" horiz-adv-x="1185" d="M84 842v186q0 47 47 47h86q47 0 47 -47v-10q57 57 146 57q133 0 133 -143v-148q0 -33 -7.5 -51t-29.5 -33q-78 -49 -115 -103t-37 -146v-101q0 -86 59.5 -133t168.5 -47q113 0 166 45t53 135v152q0 76 -26.5 115.5t-88.5 78.5q-16 10 -23.5 20.5t-7.5 31.5v45 q0 18 8.5 27t28.5 28q66 51 90.5 94t24.5 127q0 23 8 30t31 7h190q18 0 24.5 -7t6.5 -26q0 -96 -46 -176t-130 -127q96 -43 134 -114.5t38 -176.5v-92q0 -197 -121 -307.5t-360 -110.5q-228 0 -358 102.5t-130 278.5v96q0 121 69.5 214.5t178.5 142.5v51q0 23 -8 32t-29 9 q-31 0 -55 -37v-16q0 -47 -45 -47h-74q-47 0 -47 47z" />
<glyph unicode="&#xe0c;" horiz-adv-x="1959" d="M80 862q0 27 22 47q102 88 233.5 142.5t285.5 54.5q266 0 383.5 -112.5t117.5 -342.5v-278q0 -90 69 -152.5t181 -62.5q106 0 154.5 50t48.5 152v639q0 39 18.5 57.5t59.5 18.5h108q41 0 58.5 -18.5t17.5 -57.5v-643q0 -188 -101.5 -287.5t-279.5 -99.5q-135 0 -222 40 t-153 122v-82q0 -27 -13 -38t-42 -11h-102q-35 0 -49.5 16.5t-14.5 51.5v598q0 127 -52 185t-185 58q-86 0 -151.5 -23.5t-121.5 -68.5l31 -63q16 -33 22.5 -59.5t6.5 -69.5v-369q0 -31 10 -42t37 -11h57q31 0 43 -12.5t12 -43.5v-90q0 -35 -15 -46t-62 -11h-216 q-76 0 -102.5 29.5t-26.5 101.5v549l-51 121q-16 37 -16 61z" />
<glyph unicode="&#xe0d;" horiz-adv-x="1970" d="M80 862q0 27 22 47q233 197 519 197q266 0 383.5 -112.5t117.5 -342.5v-123q0 -111 54.5 -164t177.5 -53q121 0 175 52.5t54 160.5v475q0 39 18.5 57.5t59.5 18.5h106q80 0 80 -76v-684q0 -295 -121.5 -443t-404.5 -148q-229 0 -379 88q-18 10 -18 28q0 12 6 25l53 98 q10 25 29 25q14 0 28 -8q117 -61 277 -62q143 0 206.5 66.5t69.5 205.5q-43 -35 -107.5 -53t-142.5 -18q-244 0 -364.5 106.5t-120.5 309.5v131q0 127 -52 185t-183 58q-86 0 -151.5 -23.5t-121.5 -68.5l31 -63q16 -33 22.5 -59.5t6.5 -69.5v-369q0 -31 10 -42t37 -11h57 q31 0 43 -12.5t12 -43.5v-90q0 -35 -15 -46t-62 -11h-216q-76 0 -102.5 29.5t-26.5 101.5v549l-51 121q-16 37 -16 61z" />
<glyph unicode="&#xe0e;" horiz-adv-x="1316" d="M59 57v90q0 31 12.5 43.5t43.5 12.5h59q31 0 36 15t5 69v389l-82 125q-18 33 -18 59q0 25 26 51q94 84 227.5 139.5t303.5 55.5q270 0 396 -119t126 -317v-955q0 -98 -78 -98h-94q-29 0 -47.5 7t-33.5 16.5t-21 11.5q-59 35 -113.5 46t-132.5 11q-143 0 -260 -88 q-23 -16 -35 -2l-88 127q-10 14 -10 21q0 10 18 24q74 55 168 87t197 32q86 0 150.5 -13.5t117.5 -48.5v818q0 123 -62.5 183t-195.5 60q-162 0 -279 -92l47 -69q23 -35 30 -63t7 -81v-493q0 -51 -23.5 -75t-60.5 -30t-104 -6h-176q-31 0 -43.5 12.5t-12.5 44.5z" />
<glyph unicode="&#xe0f;" horiz-adv-x="1316" d="M59 57v90q0 31 12.5 43.5t43.5 12.5h59q27 0 34 8t7 35v430l-82 125q-18 33 -18 59q0 25 26 51q94 84 227.5 139.5t303.5 55.5q270 0 396 -119t126 -317v-783q0 -125 -67.5 -206.5t-200.5 -81.5q-201 0 -281 133q-29 -61 -81 -86t-126 -25h-135q-20 0 -30.5 9.5 t-10.5 31.5v131q0 39 39 39h150q51 0 73.5 12.5t36.5 42.5q12 25 18.5 31t26.5 6h60q18 0 25 -6t20 -29q20 -43 47.5 -63.5t70.5 -20.5q53 0 78 26t25 79v756q0 123 -62.5 183t-195.5 60q-162 0 -279 -92l47 -69q23 -35 30 -63t7 -81v-493q0 -61 -20.5 -86t-81.5 -25h-262 q-31 0 -43.5 12.5t-12.5 44.5z" />
<glyph unicode="&#xe10;" horiz-adv-x="1212" d="M84 983q0 23 27 37q78 41 195.5 63.5t242.5 22.5q127 0 246 -35q53 37 112.5 65.5t93.5 39.5q27 8 48 8q31 0 41 -29l36 -104q4 -9 4 -23q0 -20 -26 -31l-125 -55q131 -125 131 -416q0 -307 -158 -448q158 -88 158 -242q0 -102 -69.5 -167.5t-180.5 -65.5 q-96 0 -170 30.5t-106 90.5q-53 -102 -217 -103h-134q-20 0 -30 9.5t-10 31.5v105q0 39 38 38h162q51 0 73.5 11.5t39.5 44.5q10 20 18 27.5t29 7.5h59q18 0 27.5 -7.5t19.5 -27.5q43 -84 138 -84q100 0 100 98q0 43 -19.5 70.5t-64.5 54.5q-86 -31 -188 -31 q-203 0 -305.5 87t-102.5 233v98h-72q-33 0 -45 12.5t-12 44.5v86q0 29 12.5 42.5t42.5 13.5h222q43 0 59 -17.5t16 -56.5v-182q0 -86 43 -127t142 -41q117 0 171 90t54 274q0 141 -34 224.5t-109.5 122t-206.5 38.5q-164 0 -301 -61q-25 -8 -29 -8q-16 0 -31 24l-49 92 q-6 12 -6 25z" />
<glyph unicode="&#xe11;" horiz-adv-x="1224" d="M80 842v186q0 47 47 47h86q47 0 47 -47v-10q57 57 141 57t111 -63q109 94 270 94q154 0 237 -85t83 -247v-700q0 -37 -18.5 -55.5t-59.5 -18.5h-104q-43 0 -61.5 18.5t-18.5 55.5v688q0 141 -140 141q-104 0 -168 -65v-82q0 -43 -4 -60.5t-26 -31.5q-59 -43 -81 -89.5 t-22 -138.5v-362q0 -37 -18.5 -55.5t-58.5 -18.5h-109q-41 0 -59.5 18.5t-18.5 55.5v366q0 117 50.5 208t152.5 147v59q0 23 -8 32t-29 9q-41 0 -59 -37v-16q0 -47 -45 -47h-70q-47 0 -47 47z" />
<glyph unicode="&#xe12;" horiz-adv-x="2013" d="M80 506q0 289 106.5 444.5t282.5 155.5q129 0 190 -98q78 98 222 98q147 0 218.5 -83t71.5 -222v-428q0 -55 34 -104.5t92.5 -79t127.5 -29.5q109 0 155 49t46 151v639q0 76 80 76h106q41 0 59.5 -18.5t18.5 -57.5v-643q0 -188 -104.5 -287.5t-282.5 -99.5 q-131 0 -219 41t-149 121v-74q-2 -29 -16.5 -43t-47.5 -14h-92q-37 0 -50.5 15.5t-13.5 50.5v716q0 63 -25.5 95t-88.5 32q-33 0 -55.5 -16t-47.5 -45q-10 -12 -18 -17.5t-21 -5.5q-16 0 -24 5.5t-19 17.5q-4 6 -18 25.5t-31.5 28.5t-40.5 9q-88 0 -138 -101t-50 -304 q0 -166 60.5 -253t170.5 -87q72 0 115 20q12 6 18 7q16 0 23 -29l35 -119q2 -6 2 -14q0 -14 -25 -25q-84 -37 -215 -37q-213 0 -327.5 148.5t-114.5 388.5z" />
<glyph unicode="&#xe13;" horiz-adv-x="1959" d="M80 862q0 27 22 47q102 88 233.5 142.5t285.5 54.5q266 0 383.5 -112.5t117.5 -342.5v-293q0 -104 47.5 -153t153.5 -49q117 0 184.5 63.5t67.5 153.5v626q0 39 17.5 57.5t58.5 18.5h108q41 0 59.5 -18.5t18.5 -57.5v-931q0 -35 -12.5 -51.5t-46.5 -16.5h-107 q-29 0 -42 11.5t-13 37.5v76q-63 -80 -150.5 -118t-210.5 -38q-178 0 -287.5 99.5t-107.5 285.5v312q0 127 -52 185t-185 58q-86 0 -151.5 -23.5t-121.5 -68.5l31 -63q16 -33 22.5 -59.5t6.5 -69.5v-369q0 -31 10 -42t37 -11h57q31 0 43 -12.5t12 -43.5v-90q0 -35 -15 -46 t-62 -11h-216q-76 0 -102.5 29.5t-26.5 101.5v549l-51 121q-16 37 -16 61z" />
<glyph unicode="&#xe14;" horiz-adv-x="1327" d="M80 506q0 295 151.5 447.5t438.5 152.5q274 0 404 -127t130 -330v-575q0 -37 -17.5 -55.5t-60.5 -18.5h-108q-41 0 -59.5 18.5t-18.5 55.5v577q0 125 -63.5 191.5t-206.5 66.5q-168 0 -250 -97t-82 -308q0 -166 60.5 -252t170.5 -86q72 0 115 20q12 6 18 7q16 0 23 -29 l35 -119q2 -6 2 -14q0 -14 -25 -25q-84 -37 -215 -37q-213 0 -327.5 148.5t-114.5 388.5z" />
<glyph unicode="&#xe15;" horiz-adv-x="1327" d="M80 506q0 193 52 328t143.5 203.5t205.5 68.5q129 0 191 -98q37 45 97 71.5t134 26.5q150 0 225.5 -80t75.5 -215v-737q0 -37 -17.5 -55.5t-60.5 -18.5h-108q-41 0 -59.5 18.5t-18.5 55.5v708q0 61 -25.5 94t-87.5 33q-70 0 -116 -61q-18 -23 -39 -23q-23 0 -43 23 q-4 4 -20.5 22.5t-35 28.5t-41.5 10q-88 0 -141 -101t-53 -304q0 -166 60.5 -252t170.5 -86q72 0 115 20q12 6 18 7q16 0 23 -29l35 -119q2 -6 2 -14q0 -14 -25 -25q-84 -37 -215 -37q-213 0 -327.5 148.5t-114.5 388.5z" />
<glyph unicode="&#xe16;" horiz-adv-x="1280" d="M80 862q0 27 22 47q98 86 233.5 141.5t303.5 55.5q274 0 396 -121t122 -326v-585q0 -37 -17.5 -55.5t-60.5 -18.5h-106q-41 0 -59.5 18.5t-18.5 55.5v592q0 123 -61.5 183t-196.5 60q-172 0 -285 -92l29 -63q16 -35 22.5 -61.5t6.5 -67.5v-369q0 -31 9 -42t38 -11h55 q33 0 45 -12.5t12 -43.5v-90q0 -35 -16 -46t-61 -11h-205q-76 0 -108 35t-32 106v539l-51 121q-16 37 -16 61z" />
<glyph unicode="&#xe17;" horiz-adv-x="1261" d="M121 74v932q0 35 14.5 52t48.5 17h103q29 0 42 -12t13 -39v-82q137 164 397 164q180 0 290 -100.5t110 -288.5v-643q0 -37 -17.5 -55.5t-58.5 -18.5h-109q-41 0 -59 18.5t-18 55.5v639q0 104 -52.5 153t-160.5 49q-78 0 -142.5 -30.5t-101.5 -80.5t-37 -104v-626 q0 -37 -17.5 -55.5t-60.5 -18.5h-106q-41 0 -59.5 18.5t-18.5 55.5z" />
<glyph unicode="&#xe18;" horiz-adv-x="1130" d="M82 344v62q0 31 11 43t40 12h127q31 0 42 -12.5t11 -42.5v-66q0 -96 60.5 -144.5t191.5 -48.5q123 0 175.5 38t52.5 120q0 66 -29 105t-89.5 62.5t-172.5 49.5q-139 33 -227.5 67t-140.5 91t-52 145q0 143 122 212t345 69q264 0 438 -82q35 -16 35 -39q0 -10 -6 -22 l-51 -95q-10 -23 -25 -22q-6 0 -27 8q-61 29 -155 47.5t-174 18.5q-135 0 -190.5 -21.5t-55.5 -81.5q0 -39 27.5 -61.5t74.5 -38t148 -39.5l84 -21q139 -35 221 -77.5t120 -108t38 -164.5q0 -152 -128 -245t-358 -93q-227 0 -355 95.5t-128 279.5z" />
<glyph unicode="&#xe19;" horiz-adv-x="1261" d="M121 356v643q0 39 17.5 57.5t58.5 18.5h106q80 0 80 -76v-639q0 -104 52 -152t159 -48q74 0 139.5 30.5t104.5 79.5t39 103v626q0 39 17 57.5t58 18.5h109q41 0 59.5 -18.5t18.5 -57.5v-931q0 -35 -14.5 -51.5t-51.5 -16.5h-100q-31 0 -43 11.5t-15 37.5v82 q-135 -162 -397 -162q-180 0 -288.5 99.5t-108.5 287.5z" />
<glyph unicode="&#xe1a;" horiz-adv-x="1282" d="M121 379v620q0 39 17.5 57.5t58.5 18.5h108q41 0 59.5 -18.5t18.5 -57.5v-630q0 -207 256 -207t256 207v630q0 39 18.5 57.5t59.5 18.5h106q80 0 80 -76v-620q0 -193 -131 -301.5t-389 -108.5q-256 0 -387 107.5t-131 302.5z" />
<glyph unicode="&#xe1b;" horiz-adv-x="1282" d="M121 379v620q0 39 17.5 57.5t58.5 18.5h108q41 0 59.5 -18.5t18.5 -57.5v-630q0 -207 256 -207t256 207v989q0 39 18.5 57.5t59.5 18.5h106q80 0 80 -76v-979q0 -193 -131 -301.5t-389 -108.5q-256 0 -387 107.5t-131 302.5z" />
<glyph unicode="&#xe1c;" horiz-adv-x="1286" d="M121 59v940q0 39 17.5 57.5t58.5 18.5h245q33 0 47.5 -13t14.5 -44v-64q0 -33 -14.5 -47t-47.5 -14h-100v-563l236 409q12 20 25 27.5t36 7.5q29 0 40 -7t23 -26l238 -411v669q0 41 16.5 58.5t59.5 17.5h71q41 0 58.5 -17.5t17.5 -58.5v-940q0 -59 -61 -59h-84 q-41 0 -59.5 12.5t-36.5 44.5l-283 486l-289 -504q-16 -27 -33.5 -33t-68.5 -6h-68q-59 0 -59 59z" />
<glyph unicode="&#xe1d;" horiz-adv-x="1286" d="M121 59v940q0 39 17.5 57.5t58.5 18.5h245q33 0 47.5 -13t14.5 -44v-64q0 -33 -14.5 -47t-47.5 -14h-100v-563l236 409q12 20 25 27.5t36 7.5q29 0 40 -7t23 -26l238 -411v1018q0 41 16.5 58t59.5 17h71q41 0 58.5 -17t17.5 -58v-1289q0 -59 -61 -59h-84 q-41 0 -59.5 12.5t-36.5 44.5l-283 486l-289 -504q-16 -27 -33.5 -33t-68.5 -6h-68q-59 0 -59 59z" />
<glyph unicode="&#xe1e;" horiz-adv-x="1425" d="M61 1040q0 35 39 35h133q31 0 42.5 -11t17.5 -40l147 -655l176 555q6 23 17.5 34t36.5 11h86q25 0 36 -11.5t17 -33.5l182 -555l142 655q6 29 17 40t42 11h135q39 0 39 -35q0 -12 -2 -18l-236 -973q-8 -29 -20 -39t-39 -10h-111q-23 0 -35 9t-20 34l-190 608l-191 -608 q-8 -25 -20.5 -34t-34.5 -9h-111q-26 0 -38.5 10t-20.5 39l-234 973q-2 6 -2 18z" />
<glyph unicode="&#xe1f;" horiz-adv-x="1417" d="M61 1040q0 35 39 35h133q31 0 42.5 -11t17.5 -40l147 -655l176 555q6 23 17.5 34t36.5 11h86q25 0 36 -11.5t17 -33.5l182 -555l207 981q6 27 16.5 35t40.5 8h136q39 0 39 -35q0 -12 -3 -19l-299 -1290q-6 -29 -18 -39t-41 -10h-111q-23 0 -35 9t-20 34l-190 608 l-191 -608q-8 -25 -20.5 -34t-34.5 -9h-111q-26 0 -38.5 10t-20.5 39l-234 973q-2 6 -2 18z" />
<glyph unicode="&#xe20;" horiz-adv-x="1318" d="M59 57v90q0 31 12.5 43.5t43.5 12.5h61q25 0 33 8t8 35v430l-82 125q-18 29 -18 59q0 27 26 51q94 84 227.5 139.5t303.5 55.5q270 0 396 -119t126 -317v-596q0 -39 -16.5 -56.5t-57.5 -17.5h-114q-41 0 -57.5 17.5t-16.5 56.5v592q0 123 -62.5 183t-195.5 60 q-166 0 -279 -92l45 -69q23 -35 30 -63t7 -81v-493q0 -61 -19.5 -86t-80.5 -25h-262q-33 0 -45.5 12.5t-12.5 44.5z" />
<glyph unicode="&#xe21;" horiz-adv-x="1261" d="M121 68v931q0 39 18.5 57.5t59.5 18.5h106q41 0 59.5 -18.5t18.5 -57.5v-626q0 -53 38 -102.5t102.5 -80t140.5 -30.5q115 0 164 47t49 153v639q0 39 18 57.5t59 18.5h109q41 0 58.5 -18.5t17.5 -57.5v-643q0 -188 -109.5 -287.5t-290.5 -99.5q-258 0 -397 162v-82 q0 -27 -13.5 -38t-41.5 -11h-103q-35 0 -49 16.5t-14 51.5z" />
<glyph unicode="&#xe22;" horiz-adv-x="1245" d="M80 315q0 201 168 258q-82 37 -121 96.5t-39 149.5q0 78 39 143.5t111.5 104.5t169.5 39q123 0 213 -45q27 -14 26 -33l-4 -18l-29 -82q-8 -23 -26 -23q-10 0 -17 4q-43 25 -104 25t-95 -37t-34 -98q0 -74 46 -110t140 -36h43q25 0 35 -9t10 -34v-71q0 -47 -47 -47h-33 q-102 0 -148 -38t-46 -126q0 -166 258 -166q141 0 203.5 67.5t62.5 212.5v557q0 39 17.5 57.5t58.5 18.5h106q41 0 59.5 -18.5t18.5 -57.5v-557q0 -473 -524 -473q-233 0 -375.5 85t-142.5 261z" />
<glyph unicode="&#xe23;" horiz-adv-x="1085" d="M80 90q0 8 6 21l53 104q12 20 25 21q4 0 29 -9q63 -31 154 -52t173 -21q109 0 167 27.5t58 92.5q0 41 -20 66t-60 42t-133 50q-33 14 -83 31q-166 61 -251 136t-85 198q0 152 123.5 230.5t341.5 78.5q115 0 202.5 -19.5t169.5 -60.5q35 -18 35 -39q0 -10 -8 -24l-47 -89 q-10 -25 -27 -24q-12 0 -26 8q-55 29 -132 45.5t-159 16.5q-111 0 -165 -28t-54 -95q0 -45 30.5 -75t80.5 -51.5t155 -56.5q23 -6 51 -16q127 -43 195.5 -85t97.5 -97.5t29 -141.5q0 -139 -121 -222t-338 -83q-121 0 -233.5 21.5t-196.5 62.5q-37 18 -37 37z" />
<glyph unicode="&#xe24;" horiz-adv-x="1280" d="M80 862q0 27 22 47q98 86 233.5 141.5t303.5 55.5q274 0 396 -121t122 -326v-905q0 -39 -17.5 -56t-60.5 -17h-106q-41 0 -59.5 17t-18.5 56v912q0 123 -61.5 183t-196.5 60q-172 0 -285 -92l29 -63q16 -35 22.5 -61.5t6.5 -67.5v-369q0 -31 9 -42t38 -11h55 q33 0 45 -12.5t12 -43.5v-90q0 -35 -16 -46t-61 -11h-205q-76 0 -108 35t-32 106v539l-51 121q-16 37 -16 61z" />
<glyph unicode="&#xe25;" horiz-adv-x="1255" d="M80 285q0 184 122 262t341 78h327v63q0 117 -63.5 171t-222.5 54q-82 0 -162 -18t-146 -49q-25 -8 -28 -8q-14 0 -31 24l-51 96q-8 14 -8 29q0 18 22 29q80 41 196 65.5t238 24.5q268 0 393.5 -109.5t125.5 -334.5v-588q0 -37 -17.5 -55.5t-60.5 -18.5h-107 q-41 0 -59.5 18.5t-18.5 55.5v366h-338q-111 0 -158.5 -33.5t-47.5 -117.5q0 -76 40 -106.5t121 -30.5q70 0 125 22l17 4q16 0 22 -26l29 -103q2 -6 2 -14q0 -18 -25 -29q-76 -37 -225 -37q-156 0 -254 83t-98 233z" />
<glyph unicode="&#xe26;" horiz-adv-x="1318" d="M59 57v90q0 31 12.5 43.5t43.5 12.5h61q25 0 33 8t8 35v430l-82 125q-18 29 -18 59q0 27 26 51q94 84 227.5 139.5t303.5 55.5q270 0 396 -119t126 -317v-916q0 -39 -16.5 -56t-57.5 -17h-114q-41 0 -57.5 17t-16.5 56v912q0 123 -62.5 183t-195.5 60q-166 0 -279 -92 l45 -69q23 -35 30 -63t7 -81v-493q0 -61 -19.5 -86t-80.5 -25h-262q-33 0 -45.5 12.5t-12.5 44.5z" />
<glyph unicode="&#xe27;" horiz-adv-x="1099" d="M16 92q0 10 9 25l53 94q14 25 26 25q8 0 29 -11q133 -61 287 -61q356 0 356 371q0 201 -89 287.5t-263 86.5q-160 0 -279 -61q-20 -10 -30 -10q-14 0 -27 24l-51 94q-8 14 -8 27q0 20 28 35q82 45 174.5 66.5t210.5 21.5q291 0 443.5 -142.5t152.5 -428.5 q0 -281 -155.5 -423.5t-442.5 -142.5q-123 0 -217 21.5t-176 64.5q-31 16 -31 37z" />
<glyph unicode="&#xe28;" horiz-adv-x="1271" d="M121 74v616q0 193 131 304.5t381 111.5q133 0 223 -35q53 35 112.5 65.5t92.5 39.5q27 8 47 8q29 0 39 -29l39 -104q4 -8 4 -21q0 -20 -27 -33l-114 -49q96 -96 96 -258v-616q0 -37 -18.5 -55.5t-61.5 -18.5h-104q-41 0 -59.5 18.5t-18.5 55.5v620q0 106 -63.5 160.5 t-186.5 54.5q-250 0 -250 -215v-229q66 106 203 106h65q23 0 32 -9t9 -32v-112q0 -27 -10 -37t-33 -10h-69q-96 0 -146.5 -63.5t-50.5 -166.5v-67q0 -37 -17.5 -55.5t-60.5 -18.5h-108q-41 0 -58.5 18.5t-17.5 55.5z" />
<glyph unicode="&#xe29;" horiz-adv-x="1304" d="M121 375v624q0 39 17.5 57.5t58.5 18.5h108q41 0 59.5 -18.5t18.5 -57.5v-630q0 -207 256 -207t256 207v143h-143q-33 0 -47.5 16.5t-14.5 55.5v53q0 37 14.5 53.5t47.5 16.5h143v292q0 39 18.5 57.5t59.5 18.5h106q80 0 80 -76v-292h60q33 0 46 -16.5t13 -53.5v-53 q0 -39 -14.5 -55.5t-46.5 -16.5h-58v-137q0 -193 -131 -299.5t-389 -106.5t-388 106.5t-130 299.5z" />
<glyph unicode="&#xe2a;" horiz-adv-x="1259" d="M76 285q0 184 121.5 262t341.5 78h327v63q0 117 -63.5 171t-222.5 54q-82 0 -162 -18t-146 -49q-25 -8 -28 -8q-16 0 -31 24l-51 96q-8 14 -8 29q0 18 22 29q80 41 195.5 65.5t238.5 24.5q139 0 242 -31q66 43 129 72t98 33l19 2q18 0 27.5 -6.5t13.5 -20.5l39 -104 q4 -16 4 -21q0 -20 -27 -33l-108 -49q82 -106 81 -286v-588q0 -37 -17 -55.5t-60 -18.5h-107q-41 0 -59.5 18.5t-18.5 55.5v366h-338q-111 0 -158.5 -33.5t-47.5 -117.5q0 -76 39.5 -106.5t121.5 -30.5q70 0 125 22l17 4q16 0 22 -26l29 -103q2 -6 2 -14q0 -18 -25 -29 q-76 -37 -225 -37q-156 0 -254 83t-98 233z" />
<glyph unicode="&#xe2b;" horiz-adv-x="1212" d="M121 74v925q0 39 17.5 57.5t58.5 18.5h106q80 0 80 -76v-266h287q90 0 122.5 45t32.5 131v90q0 76 78 76h109q41 0 59.5 -18.5t18.5 -57.5v-94q0 -225 -160 -268q160 -49 160 -268v-295q0 -37 -17.5 -55.5t-60.5 -18.5h-109q-41 0 -59.5 18.5t-18.5 55.5v286 q0 86 -32.5 129t-112.5 43h-297v-458q0 -37 -18.5 -55.5t-61.5 -18.5h-106q-41 0 -58.5 18.5t-17.5 55.5z" />
<glyph unicode="&#xe2c;" horiz-adv-x="1366" d="M61 1040q0 35 39 35h133q31 0 42.5 -11t17.5 -40l147 -655l176 555q6 23 17.5 34t36.5 11h86q25 0 36 -11.5t17 -33.5l182 -555l82 383q18 88 19 116q0 31 -13.5 52.5t-46.5 37.5q-20 10 -28.5 20.5t-8.5 33.5v39q0 25 11.5 38t40.5 21q49 14 70.5 35.5t29.5 50.5t20 102 l9 52q4 25 13 34t34 9h137q47 0 39 -43l-10 -74q-14 -102 -48 -159.5t-122 -90.5q86 -49 86 -164q0 -47 -19 -129l-158 -684q-6 -29 -18 -39t-41 -10h-111q-23 0 -35 9t-20 34l-190 608l-191 -608q-8 -25 -20.5 -34t-34.5 -9h-111q-26 0 -38.5 10t-20.5 39l-234 973 q-2 6 -2 18z" />
<glyph unicode="&#xe2d;" horiz-adv-x="1187" d="M80 367v184q0 33 15.5 49t51.5 16h283q31 0 43 -13t12 -44v-63q0 -31 -12 -44.5t-45 -13.5h-113v-92q0 -184 248 -184q106 0 169 38t89.5 119.5t26.5 223.5q0 195 -77 281.5t-261 86.5q-174 0 -307 -63q-20 -10 -29 -10q-16 0 -31 26l-51 94q-8 14 -8 29q0 16 22 31 q166 88 445 88q281 0 419 -136t138 -427q0 -293 -138.5 -433.5t-398.5 -140.5q-243 0 -367 100.5t-124 297.5z" />
<glyph unicode="&#xe2e;" horiz-adv-x="1208" d="M84 367v184q0 33 15.5 49t52.5 16h282q31 0 43 -13t12 -44v-63q0 -31 -12 -44.5t-45 -13.5h-113v-92q0 -184 248 -184q106 0 169 38t89.5 119.5t26.5 223.5q0 195 -77 281.5t-261 86.5q-174 0 -307 -63q-20 -10 -29 -10q-16 0 -31 26l-51 94q-8 14 -8 29q0 16 23 31 q166 88 444 88q141 0 240 -33q51 35 110.5 63.5t91.5 39.5q27 8 47 8q31 0 41 -29l39 -104q4 -16 4 -21q0 -20 -28 -33l-111 -51q123 -135 123 -403q0 -293 -138 -433.5t-399 -140.5q-243 0 -367 100.5t-124 297.5z" />
<glyph unicode="&#xe2f;" horiz-adv-x="1073" d="M39 797q0 131 82 220t217 89q61 0 102 -6t82 -23q25 -8 32 -19t3 -30l-20 -94q-6 -27 -27 -27l-16 4q-47 18 -95 19q-53 0 -85.5 -35t-32.5 -98q0 -78 49 -121t145 -43q129 0 213 59v307q0 39 18.5 57.5t59.5 18.5h106q41 0 59.5 -18.5t18.5 -57.5v-925 q0 -37 -17.5 -55.5t-60.5 -18.5h-106q-41 0 -59.5 18.5t-18.5 55.5v434q-45 -25 -108.5 -41t-130.5 -16q-190 0 -300 88t-110 258z" />
<glyph unicode="&#xe30;" horiz-adv-x="692" d="M80 223v129q0 39 13 53.5t52 14.5h80q39 0 52.5 -14.5t13.5 -55.5v-100q150 29 258 29q39 0 51 -12.5t12 -51.5v-74q0 -31 -14 -44t-51 -13h-324q-80 0 -111.5 31.5t-31.5 107.5zM80 756v131q0 39 13 53t52 14h80q39 0 52.5 -14t13.5 -55v-101q160 27 258 27 q39 0 51 -12.5t12 -48.5v-74q0 -33 -14 -46.5t-51 -13.5h-324q-80 0 -111.5 33t-31.5 107z" />
<glyph unicode="&#xe31;" d="M-623 1434v116q0 43 15.5 58.5t58.5 15.5h74q39 0 54 -15.5t15 -58.5v-102q104 10 251 18.5t216 8.5q41 0 54.5 -13.5t13.5 -50.5v-61q0 -37 -13.5 -51.5t-54.5 -14.5h-540q-80 0 -112 35t-32 115z" />
<glyph unicode="&#xe32;" horiz-adv-x="888" d="M18 1012q0 14 29 30q121 63 307 64q209 0 310.5 -94t101.5 -291v-653q0 -68 -72 -68h-121q-69 0 -69 68v645q0 106 -40 152t-142 46q-51 0 -106.5 -12t-92.5 -31q-14 -8 -27 -8q-14 0 -24 23l-49 110q-4 16 -5 19z" />
<glyph unicode="&#xe33;" horiz-adv-x="888" d="M-494 1470q0 102 73 175t175 73t175 -72.5t73 -175.5q0 -102 -72.5 -174.5t-175.5 -72.5q-102 0 -175 72.5t-73 174.5zM-356 1470q0 -45 31.5 -77.5t78.5 -32.5q45 0 78 32.5t33 77.5q0 47 -33 79t-78 32q-47 0 -78.5 -31.5t-31.5 -79.5zM18 1012q0 14 29 30 q121 63 307 64q209 0 310.5 -94t101.5 -291v-653q0 -68 -72 -68h-121q-69 0 -69 68v645q0 106 -40 152t-142 46q-51 0 -106.5 -12t-92.5 -31q-14 -8 -27 -8q-14 0 -24 23l-49 110q-4 16 -5 19z" />
<glyph unicode="&#xe34;" d="M-1016 1356v47q0 39 15.5 56.5t56.5 17.5h747q41 0 57.5 -17.5t16.5 -56.5v-47q0 -39 -16.5 -55.5t-57.5 -16.5h-747q-41 0 -56.5 16.5t-15.5 55.5z" />
<glyph unicode="&#xe35;" d="M-1016 1356v47q0 39 16.5 56.5t57.5 17.5h604v155q0 33 14.5 46.5t47.5 13.5h94q33 0 47 -13.5t14 -46.5v-243q0 -59 -21.5 -82t-82.5 -23h-717q-41 0 -57.5 16.5t-16.5 55.5z" />
<glyph unicode="&#xe36;" d="M-1016 1360v43q0 39 16.5 56.5t59.5 17.5h422q-4 16 -4 30q0 80 59.5 136.5t149.5 56.5q98 0 155.5 -59.5t57.5 -151.5q0 -96 -66.5 -150.5t-177.5 -54.5h-596q-43 0 -59.5 16.5t-16.5 59.5zM-397 1489q0 -39 22.5 -62.5t61.5 -23.5q41 0 64.5 23.5t23.5 62.5t-24.5 63.5 t-63.5 24.5q-35 0 -59.5 -24.5t-24.5 -63.5z" />
<glyph unicode="&#xe37;" d="M-1016 1356v47q0 39 16.5 56.5t57.5 17.5h328v155q0 33 14 46.5t47 13.5h64q33 0 47 -13.5t14 -46.5v-155h121v155q0 33 14 46.5t47 13.5h64q33 0 47 -13.5t14 -46.5v-243q0 -59 -21.5 -82t-82.5 -23h-717q-41 0 -57.5 16.5t-16.5 55.5z" />
<glyph unicode="&#xe38;" d="M-469 -176q0 31 11.5 44t41.5 13h217q41 0 58.5 -17.5t17.5 -56.5v-268q0 -39 -17.5 -56.5t-58.5 -17.5h-71q-41 0 -57.5 17.5t-16.5 56.5v152h-70q-33 0 -44 12t-11 45v76z" />
<glyph unicode="&#xe39;" d="M-780 -176q0 31 12 44t43 13h182q41 0 57.5 -17.5t16.5 -56.5v-147q0 -55 74 -55t73 55v174q0 47 48 47h104q47 0 47 -47v-201q0 -96 -69.5 -145t-202.5 -49q-127 0 -191.5 47t-64.5 139v72h-74q-31 0 -43 13.5t-12 43.5v70z" />
<glyph unicode="&#xe3a;" d="M-362 -233q0 47 29.5 79.5t76.5 32.5h47q47 0 77 -32.5t30 -79.5v-31q0 -47 -30 -81t-77 -34h-47q-47 0 -76.5 34t-29.5 81v31z" />
<glyph unicode="&#xe3f;" horiz-adv-x="1341" d="M121 76v1241q0 39 17.5 57.5t58.5 18.5h286v118q0 39 18.5 57.5t59.5 18.5h90q41 0 59.5 -18.5t18.5 -57.5v-118h76q186 0 301 -101.5t115 -277.5q0 -98 -49.5 -176t-137.5 -115q227 -72 228 -320q0 -180 -117 -291.5t-318 -111.5h-98v-117q0 -41 -20.5 -57t-73.5 -16 h-74q-41 0 -59.5 17t-18.5 56v117h-286q-41 0 -58.5 18.5t-17.5 57.5zM383 199h399q113 0 166 58t53 151q0 106 -64.5 160.5t-178.5 54.5h-375v-424zM383 811h369q100 0 154.5 51t54.5 144q0 100 -50.5 144t-160.5 44h-367v-383z" />
<glyph unicode="&#xe40;" horiz-adv-x="622" d="M121 141v858q0 41 19.5 58.5t64.5 17.5h92q45 0 65.5 -17.5t20.5 -58.5v-743q0 -31 9 -42t38 -11h55q33 0 45.5 -12.5t12.5 -43.5v-90q0 -35 -16.5 -46t-61.5 -11h-205q-76 0 -107.5 35t-31.5 106z" />
<glyph unicode="&#xe41;" horiz-adv-x="1169" d="M121 141v858q0 41 19.5 58.5t64.5 17.5h92q45 0 65.5 -17.5t20.5 -58.5v-743q0 -31 9 -42t38 -11h55q33 0 45.5 -12.5t12.5 -43.5v-90q0 -35 -16.5 -46t-61.5 -11h-205q-76 0 -107.5 35t-31.5 106zM666 141v858q0 41 19.5 58.5t64.5 17.5h92q45 0 65.5 -17.5t20.5 -58.5 v-743q0 -31 9 -42t38 -11h55q33 0 45 -12.5t12 -43.5v-90q0 -35 -16 -46t-61 -11h-205q-76 0 -107.5 35t-31.5 106z" />
<glyph unicode="&#xe42;" horiz-adv-x="714" d="M-12 1378v60q0 35 17.5 50t53.5 15h576q33 0 47 -14t14 -47v-82q0 -33 -13 -45t-48 -12h-316q72 -53 106 -94.5t46 -91.5t12 -136v-725q0 -31 9.5 -42t37.5 -11h56q33 0 45 -12.5t12 -43.5v-90q0 -35 -16.5 -46t-61.5 -11h-205q-75 0 -107 35t-32 106v850q0 84 -12 116 t-55 73l-127 118q-23 23 -31 37.5t-8 42.5z" />
<glyph unicode="&#xe43;" horiz-adv-x="782" d="M-23 1188q0 102 49.5 181t139.5 123t207 44q188 0 289.5 -79t101.5 -230q0 -78 -34 -137.5t-101 -139.5q-61 -72 -91 -123t-30 -114v-457q0 -31 9 -42t38 -11h55q33 0 45.5 -12.5t12.5 -43.5v-90q0 -35 -16.5 -46t-61.5 -11h-205q-76 0 -107.5 35t-31.5 106v580 q0 74 36.5 135.5t104.5 136.5q63 74 94 123t31 107q0 119 -143 118q-170 0 -170 -153q0 -18 -6.5 -24.5t-24.5 -6.5h-166q-14 0 -19.5 7t-5.5 24z" />
<glyph unicode="&#xe44;" horiz-adv-x="702" d="M-12 1360v82q0 33 13 47t46 14h565q37 0 54.5 -14t17.5 -51v-60q0 -29 -8 -42t-33 -38l-115 -112q-45 -45 -62 -112.5t-17 -174.5v-643q0 -31 9 -42t38 -11h55q33 0 45 -12.5t12 -43.5v-90q0 -35 -16.5 -46t-61.5 -11h-204q-76 0 -108 35t-32 106v760q0 117 18.5 187.5 t69.5 123.5l86 91h-313q-33 0 -46 12t-13 45z" />
</font>
</defs>
</svg>
