<?xml version="1.0" standalone="no"?>
<!DOCTYPE svg PUBLIC "-//W3C//DTD SVG 1.1//EN" "http://www.w3.org/Graphics/SVG/1.1/DTD/svg11.dtd" >
<svg xmlns="http://www.w3.org/2000/svg" xmlns:xlink="http://www.w3.org/1999/xlink" version="1.1">
<metadata></metadata>
<defs>
<font id="mitrsemibold" horiz-adv-x="0" >
<font-face units-per-em="2048" ascent="1536" descent="-512" />
<missing-glyph horiz-adv-x="675" />
<glyph unicode="fi" horiz-adv-x="1245" d="M6 803v78q0 55 20.5 78.5t77.5 23.5h70v27q0 197 126 305t355 108t357 -90q25 -18 24 -37q0 -14 -12 -32l-76 -129q-14 -23 -33 -23q-4 0 -28 8q-61 33 -131 33q-88 0 -132 -37t-44 -104v-29h469q59 0 83.5 -25.5t24.5 -78.5v-777q0 -53 -24.5 -77.5t-83.5 -24.5h-191 q-59 0 -83.5 24.5t-24.5 77.5v598h-170v-598q0 -53 -25 -77.5t-84 -24.5h-190q-60 0 -83.5 24.5t-23.5 77.5v598h-70q-57 0 -77.5 24t-20.5 79z" />
<glyph unicode="fl" horiz-adv-x="1253" d="M6 803v78q0 55 20.5 78.5t77.5 23.5h70v27q0 197 127 305t356 108q276 0 445 -110q37 -23 50 -45.5t13 -69.5v-1096q0 -53 -24.5 -77.5t-83.5 -24.5h-191q-59 0 -83.5 24.5t-24.5 77.5v598h-178v-598q0 -53 -25 -77.5t-84 -24.5h-190q-60 0 -83.5 24.5t-23.5 77.5v598 h-70q-57 0 -77.5 24t-20.5 79zM569 983h201v135q-27 18 -88 19q-53 0 -83 -34t-30 -91v-29z" />
<glyph unicode="&#xe24;&#xe45;" horiz-adv-x="1867" d="M47 846q0 37 37 67q94 80 245.5 136.5t321.5 56.5q184 0 332 -70q139 70 326 70q240 0 355.5 -102.5t115.5 -315.5v-917q0 -90 -94 -90h-228q-94 0 -94 90v886q0 84 -33 119t-106 35q-37 0 -51 -6q39 -63 38 -166v-856q0 -53 -24.5 -77.5t-83.5 -24.5h-199 q-59 0 -83.5 24.5t-24.5 77.5v864q0 84 -34 123t-114 39q-113 0 -174 -45l23 -39q14 -27 20 -52.5t6 -62.5v-272q0 -25 6.5 -32t22.5 -7h41q35 0 45 -12.5t10 -50.5v-162q0 -37 -11 -52.5t-37 -18.5t-87 -3h-281q-125 0 -124 129v533l-43 108q-18 45 -19 76z" />
<glyph unicode="&#xe26;&#xe45;" horiz-adv-x="1878" d="M33 74v166q0 37 13 48t46 11h37q14 0 17.5 14.5t3.5 38.5v301l-74 117q-18 29 -19 76q0 37 37 67q94 80 246 136.5t322 56.5q184 0 331 -74q141 74 326 74q240 0 355.5 -102.5t115.5 -315.5v-917q0 -90 -94 -90h-228q-94 0 -94 90v886q0 84 -32.5 119t-106.5 35 q-33 0 -43 -2q33 -74 33 -166v-860q0 -55 -22.5 -78.5t-82.5 -23.5h-207q-59 0 -81.5 23.5t-22.5 78.5v864q0 84 -35 123t-112 39q-102 0 -168 -43l34 -49q23 -33 30 -60.5t7 -85.5v-471q0 -53 -20.5 -76.5t-75.5 -23.5h-367q-41 0 -55 16.5t-14 57.5z" />
<glyph unicode=" "  horiz-adv-x="675" />
<glyph unicode="&#x09;" horiz-adv-x="675" />
<glyph unicode="&#xa0;" horiz-adv-x="675" />
<glyph unicode="!" horiz-adv-x="530" d="M47 102v50q0 53 38 77.5t118 24.5h123q158 0 157 -102v-50q0 -102 -157 -102h-123q-80 0 -118 24.5t-38 77.5zM59 1288q0 53 25 79t82 26h201q59 0 83.5 -26t24.5 -79l-14 -821q0 -51 -26.5 -76.5t-86.5 -25.5h-166q-59 0 -84.5 24.5t-25.5 77.5z" />
<glyph unicode="&#x22;" horiz-adv-x="772" d="M47 1368q-2 41 14.5 56.5t61.5 15.5h145q45 0 62.5 -15.5t15.5 -56.5l-22 -305q-4 -41 -21.5 -57.5t-56.5 -16.5h-105q-37 0 -55 16.5t-20 57.5zM426 1368q-2 41 14.5 56.5t59.5 15.5h145q45 0 62.5 -15.5t15.5 -56.5l-23 -305q-4 -41 -21 -57.5t-56 -16.5h-105 q-37 0 -55.5 16.5t-20.5 57.5z" />
<glyph unicode="#" horiz-adv-x="1675" d="M47 379v86q0 59 19.5 80.5t76.5 21.5h152l82 209h-78q-76 0 -98.5 19.5t-22.5 83.5v86q0 63 22.5 82.5t98.5 19.5h188l107 276q12 29 27.5 39.5t50.5 10.5h260q53 0 53 -41q0 -18 -8 -35l-96 -250h219l106 276q12 29 27.5 39.5t50.5 10.5h260q53 0 53 -41q0 -18 -8 -35 l-96 -250h39q57 0 76.5 -22.5t19.5 -79.5v-86q0 -57 -19.5 -80t-76.5 -23h-148l-81 -209h131q76 0 98 -19.5t22 -82.5v-86q0 -55 -19 -77.5t-77 -22.5h-266l-92 -238q-10 -25 -22.5 -33t-41.5 -8h-286q-41 0 -41 35q0 14 10 39l80 205h-219l-93 -238q-10 -25 -22 -33t-41 -8 h-287q-41 0 -41 35q0 14 10 39l80 205h-45q-57 0 -75.5 21.5t-18.5 78.5zM688 567h219l82 209h-219z" />
<glyph unicode="$" horiz-adv-x="1241" d="M47 154q0 10 14 34l101 160q16 25 33 25q10 0 34 -15q76 -45 173.5 -70.5t191.5 -25.5q100 0 144 28.5t44 92.5q0 45 -22.5 73.5t-65.5 49t-151 61.5q-135 51 -227.5 105.5t-152 136.5t-59.5 199q0 158 87.5 256t240.5 133v86q0 53 24.5 78.5t84.5 25.5h164 q59 0 84.5 -25.5t25.5 -78.5v-72q197 -25 313 -108q35 -27 35 -50q0 -14 -12 -32l-100 -160q-18 -25 -33 -25q-8 0 -33 15q-113 78 -285 77q-92 0 -138 -28.5t-46 -93.5q0 -59 43 -90t156 -78q18 -6 33.5 -12.5t29.5 -12.5q162 -68 246 -120t127 -128t43 -196 q0 -152 -95 -254.5t-284 -132.5v-70q0 -53 -25.5 -77.5t-84.5 -24.5h-164q-60 0 -84.5 24.5t-24.5 77.5v76q-102 14 -194.5 44.5t-153.5 73.5q-37 25 -37 48z" />
<glyph unicode="%" horiz-adv-x="1595" d="M47 1096q0 94 43 168.5t118 116.5t165 42t164.5 -42t117.5 -116.5t43 -168.5t-43 -168t-117.5 -116t-164.5 -42t-165 42t-118 115.5t-43 168.5zM143 39q0 18 13 37l874 1267q16 27 33.5 38.5t44.5 11.5h293q20 0 31.5 -11.5t11.5 -27.5q0 -18 -12 -37l-883 -1280 q-14 -23 -27.5 -30t-42.5 -7h-293q-20 0 -31.5 10t-11.5 29zM252 1096q0 -53 35 -87t86 -34t86 33.5t35 87.5q0 53 -35 88t-86 35t-86 -35t-35 -88zM895 295q0 94 43 168t117.5 116t165.5 42q90 0 164.5 -42t118.5 -116t44 -168t-44 -168t-118.5 -116t-164.5 -42 q-91 0 -165.5 42t-117.5 116t-43 168zM1100 295q0 -53 34.5 -87t86.5 -34q51 0 86.5 34t35.5 87t-35.5 87t-86.5 34t-86 -34t-35 -87z" />
<glyph unicode="&#x26;" horiz-adv-x="1476" d="M47 418q0 104 47 191t133 136q-61 41 -95 114t-34 149q0 193 155 304t423 111q283 0 438 -127q18 -14 19 -34q0 -14 -11 -31l-102 -156q-14 -25 -31 -24q-8 0 -33 14q-98 61 -245 61q-102 0 -151.5 -30.5t-49.5 -100.5q0 -63 41 -89.5t123 -26.5h676q57 0 78.5 -24 t21.5 -79v-94q0 -55 -21.5 -78.5t-78.5 -23.5h-43q0 -35 -4 -101q-12 -147 -88 -263t-214.5 -181.5t-326.5 -65.5q-285 0 -456 115t-171 334zM459 432q0 -170 225 -170q141 0 190.5 78t49.5 240h-301q-164 0 -164 -148z" />
<glyph unicode="'" horiz-adv-x="434" d="M47 1368q-2 41 14.5 56.5t61.5 15.5h186q45 0 62.5 -15.5t15.5 -56.5l-22 -305q-4 -41 -21.5 -57.5t-56.5 -16.5h-146q-37 0 -55 16.5t-20 57.5z" />
<glyph unicode="(" horiz-adv-x="761" d="M47 647q0 207 58.5 392.5t165 316.5t245.5 182q76 29 127 29q96 0 96 -123q0 -78 -11 -105.5t-60 -70.5q-113 -94 -161 -245t-48 -376q0 -227 48 -377.5t161 -244.5q49 -41 60 -70t11 -107q0 -123 -98 -122q-49 0 -125 28q-139 53 -245.5 184.5t-165 315.5t-58.5 393z " />
<glyph unicode=")" horiz-adv-x="761" d="M23 -152q0 78 11 107t60 70q113 94 161 244.5t48 377.5q0 225 -48 376t-161 245q-49 43 -60 70.5t-11 105.5q0 123 96 123q51 0 127 -29q139 -51 245.5 -182t165 -316.5t58.5 -392.5q0 -209 -58.5 -393t-165 -315.5t-245.5 -184.5q-76 -28 -125 -28q-98 0 -98 122z" />
<glyph unicode="*" horiz-adv-x="899" d="M45 1165q0 8 6 21l64 131q10 23 28 22q10 0 23 -6l153 -69v155q0 23 13.5 37t38.5 14h157q25 0 37.5 -13t12.5 -38v-157l153 67q16 6 25 6q18 0 26 -20l64 -131q6 -12 6 -21q0 -20 -29 -33l-170 -71l125 -131q14 -14 15 -29q0 -16 -19 -31l-115 -98q-14 -10 -22 -10 q-16 0 -35 18l-153 166l-156 -166q-16 -16 -31 -16q-10 0 -24 10l-113 98q-18 16 -19 33q0 14 13 27l125 131l-170 72q-29 12 -29 32z" />
<glyph unicode="+" horiz-adv-x="958" d="M47 569v103q0 55 21.5 76.5t78.5 21.5h168v135q0 55 21.5 74.5t77.5 19.5h127q55 0 76.5 -19t21.5 -75v-135h172q57 0 78.5 -21.5t21.5 -76.5v-103q0 -55 -21.5 -76.5t-78.5 -21.5h-172v-133q0 -55 -21.5 -74.5t-76.5 -19.5h-127q-56 0 -77.5 19.5t-21.5 74.5v133h-168 q-57 0 -78.5 21.5t-21.5 76.5z" />
<glyph unicode="," horiz-adv-x="544" d="M47 -203q0 8 4 25l105 356q14 45 33.5 59.5t68.5 14.5h164q41 0 58.5 -10.5t17.5 -34.5q0 -18 -15 -57l-147 -347q-10 -25 -27.5 -36t-52.5 -11h-156q-53 0 -53 41z" />
<glyph unicode="-" horiz-adv-x="958" d="M47 569v103q0 51 19.5 74.5t74.5 23.5h676q55 0 74.5 -23.5t19.5 -74.5v-103q0 -51 -19.5 -74.5t-74.5 -23.5h-676q-55 0 -74.5 23.5t-19.5 74.5z" />
<glyph unicode="." horiz-adv-x="360" d="M47 115v45q0 49 29.5 82.5t79.5 33.5h49q47 0 77.5 -33.5t30.5 -82.5v-45q0 -47 -30.5 -81t-77.5 -34h-49q-47 0 -78 34t-31 81z" />
<glyph unicode="/" horiz-adv-x="1046" d="M47 37q0 20 8 39l520 1267q20 49 70 50h316q39 0 38 -37q0 -20 -8 -39l-520 -1270q-20 -47 -70 -47h-315q-39 0 -39 37z" />
<glyph unicode="0" horiz-adv-x="1519" d="M47 696q0 354 178 540.5t535 186.5q356 0 534.5 -186t178.5 -541q0 -354 -178.5 -540.5t-534.5 -186.5q-357 0 -535 186.5t-178 540.5zM459 696q0 -104 30 -172l408 574q-55 31 -137 30q-160 0 -230.5 -104t-70.5 -328zM616 291q61 -29 144 -29q160 0 230.5 105.5 t70.5 328.5q0 100 -31 178z" />
<glyph unicode="1" horiz-adv-x="1030" d="M49 1112q0 20 23 33l370 223q23 14 41.5 19.5t55.5 5.5h123q59 0 83.5 -26t24.5 -79v-991h154q57 0 78.5 -23.5t21.5 -76.5v-97q0 -55 -21.5 -77.5t-78.5 -22.5h-723q-58 0 -79.5 22.5t-21.5 77.5v97q0 53 21.5 76.5t79.5 23.5h153v659l-114 -71q-10 -8 -27 -8 q-18 0 -31 18l-125 192q-8 10 -8 25z" />
<glyph unicode="2" horiz-adv-x="1183" d="M53 1264q0 16 25 34q82 57 216 91t294 34q248 0 394 -106.5t146 -300.5q0 -154 -88 -259.5t-284 -226.5q-102 -59 -180 -121.5t-97 -109.5h555q57 0 78 -23.5t21 -78.5v-97q0 -53 -20.5 -76.5t-78.5 -23.5h-889q-90 0 -90 94v107q0 125 88 238.5t293 246.5l56 35 q100 63 142 96t61.5 70t19.5 94q0 70 -49.5 108.5t-145.5 38.5q-147 0 -287 -71q-6 -4 -20 -10.5t-23 -6.5q-18 0 -32 27l-92 164q-12 18 -13 33z" />
<glyph unicode="3" horiz-adv-x="1232" d="M47 125q0 14 14 43l89 151q16 25 34 25q8 0 41 -14q55 -29 137 -48.5t168 -19.5q244 0 244 164q0 137 -176 137h-162q-59 0 -83.5 24.5t-24.5 78.5v92q0 51 24.5 75.5t83.5 24.5h139q82 0 121 36t39 99q0 135 -211 135q-152 0 -278 -65q-6 -4 -20.5 -10t-22.5 -6 q-18 0 -33 26l-86 150q-14 29 -14 45q0 20 20 35q84 57 211 88.5t287 31.5q172 0 298 -51t193.5 -145t67.5 -221q0 -88 -36 -164t-105 -123q180 -92 180 -309q0 -203 -152.5 -322t-437.5 -119q-168 0 -305 31t-221 88q-23 14 -23 37z" />
<glyph unicode="4" horiz-adv-x="1239" d="M6 342v154q0 43 7 62.5t34 49.5l600 727q29 35 49.5 46.5t67.5 11.5h162q57 0 81.5 -26t24.5 -79v-713h101q57 0 78.5 -23.5t21.5 -78.5v-94q0 -53 -21.5 -76.5t-78.5 -23.5h-101v-185q0 -53 -23.5 -73.5t-84.5 -20.5h-199q-59 0 -83 20.5t-24 73.5v185h-546 q-66 0 -66 63zM416 575h289v373z" />
<glyph unicode="5" horiz-adv-x="1302" d="M47 143q0 14 14 43l89 152q14 27 32 27q16 0 43 -17q150 -86 357 -86q123 0 191.5 53.5t68.5 157.5q0 115 -57.5 161t-166.5 46q-66 0 -129 -11.5t-106 -29.5q-51 -18 -109 -18q-80 0 -131 40.5t-47 118.5l33 520q4 47 25.5 70t78.5 23h852q57 0 79 -23.5t22 -79.5v-96 q0 -55 -21.5 -78.5t-79.5 -23.5h-620l-10 -166q41 10 108.5 17t120.5 7q272 0 421.5 -110.5t149.5 -366.5q0 -156 -82.5 -269.5t-230 -174t-336.5 -60.5q-157 0 -300.5 37t-235.5 100q-23 14 -23 37z" />
<glyph unicode="6" horiz-adv-x="1320" d="M47 618q0 270 94.5 451.5t246 267.5t325.5 86q272 0 440 -118q23 -16 23 -37q0 -14 -15 -43l-84 -146q-16 -27 -35 -26q-12 0 -41 14q-117 61 -249 61q-123 0 -200 -59t-122 -182q123 86 334 86q164 0 278.5 -59.5t173 -161t58.5 -228.5q0 -274 -163 -414.5t-458 -140.5 q-270 0 -438 158t-168 491zM461 504q0 -125 49 -183.5t143 -58.5q107 0 157 58.5t50 185.5q0 233 -203 233q-92 0 -144 -58t-52 -177z" />
<glyph unicode="7" horiz-adv-x="1226" d="M27 1194v98q0 53 20.5 77t75.5 24h948q74 0 101.5 -22.5t27.5 -84.5q0 -59 -39 -137l-555 -1104q-12 -23 -27.5 -34t-43.5 -11h-322q-41 0 -41 37q0 14 10 39l514 1018h-573q-55 0 -75.5 23.5t-20.5 76.5z" />
<glyph unicode="8" horiz-adv-x="1323" d="M47 416q0 100 51.5 183t141.5 126q-78 43 -118 111.5t-40 152.5q0 209 149.5 321.5t430.5 112.5t429 -112.5t148 -321.5q0 -84 -39 -152.5t-117 -111.5q90 -45 141.5 -128t51.5 -181q0 -213 -164 -330t-450 -117q-289 0 -452 117t-163 330zM459 418q0 -156 203 -156 q202 0 202 156q0 78 -51 119t-151 41q-203 0 -203 -160zM496 987q0 -125 166 -125q163 0 163 125q0 76 -40 108.5t-123 32.5q-84 0 -125 -32.5t-41 -108.5z" />
<glyph unicode="9" horiz-adv-x="1316" d="M47 874q0 276 161 412.5t460 136.5q270 0 436 -159.5t166 -491.5q0 -283 -88 -462t-233.5 -260t-323.5 -81q-279 0 -447 115q-20 14 -20 35q0 16 14 45l84 145q16 27 35 27q12 0 41 -14q115 -59 262 -60q137 0 210 58.5t101 179.5q-121 -84 -338 -84q-168 0 -284.5 60.5 t-176 164.5t-59.5 233zM459 883q0 -119 49 -175.5t156 -56.5q88 0 139 58.5t51 171.5q0 127 -46 187t-142 60q-109 0 -158 -58t-49 -187z" />
<glyph unicode=":" horiz-adv-x="425" d="M47 143v52q0 61 37 102t98 41h62q61 0 98 -41t37 -102v-52q0 -59 -38 -101t-97 -42h-62q-59 0 -97 42t-38 101zM47 815v51q0 61 38 102.5t97 41.5h62q59 0 97 -41t38 -103v-51q0 -59 -38 -102t-97 -43h-62q-59 0 -97 43t-38 102z" />
<glyph unicode=";" horiz-adv-x="546" d="M47 -203q0 8 4 25l105 356q14 45 33.5 59.5t68.5 14.5h164q41 0 58.5 -10.5t17.5 -34.5q0 -18 -15 -57l-147 -347q-10 -25 -27.5 -36t-52.5 -11h-156q-53 0 -53 41zM164 815v51q0 61 38 102.5t97 41.5h61q59 0 97.5 -41t38.5 -103v-51q0 -59 -38 -102t-98 -43h-61 q-59 0 -97 43t-38 102z" />
<glyph unicode="&#x3c;" horiz-adv-x="1077" d="M47 481v154q0 23 7 37t28 22l901 398q12 6 21 6q12 0 19 -8.5t7 -22.5v-287q0 -25 -7 -34t-28 -17l-448 -168l448 -168q20 -8 27.5 -17t7.5 -34v-293q0 -14 -7 -22.5t-19 -8.5q-8 0 -21 7l-901 397q-20 8 -27.5 22.5t-7.5 36.5z" />
<glyph unicode="=" horiz-adv-x="952" d="M47 336v86q0 53 20.5 77.5t77.5 24.5h660q57 0 78.5 -24.5t21.5 -77.5v-86q0 -55 -21.5 -79t-78.5 -24h-660q-57 0 -77.5 24t-20.5 79zM47 766v88q0 53 20.5 77.5t77.5 24.5h660q57 0 78.5 -24.5t21.5 -77.5v-88q0 -53 -21.5 -76.5t-78.5 -23.5h-660q-57 0 -77.5 23.5 t-20.5 76.5z" />
<glyph unicode="&#x3e;" horiz-adv-x="1077" d="M47 49v268q0 23 7 33t28 19l465 192l-465 193q-18 6 -26.5 16t-8.5 35v262q0 14 7 22.5t18 8.5q8 0 20 -6l903 -398q18 -10 26.5 -22.5t8.5 -34.5v-158q0 -23 -8 -35t-27 -22l-903 -397q-12 -7 -20 -7q-10 0 -17.5 8.5t-7.5 22.5z" />
<glyph unicode="?" horiz-adv-x="1144" d="M45 1245q0 20 25 39q96 68 216 103.5t275 35.5q242 0 389.5 -108.5t147.5 -302.5q0 -123 -57.5 -203t-178.5 -150q-90 -53 -125 -96t-35 -104v-17q0 -53 -24.5 -77.5t-83.5 -24.5h-199q-57 0 -81.5 24.5t-24.5 77.5v21q0 125 59.5 208t192.5 171q90 57 116.5 85.5 t26.5 82.5q0 57 -45 87.5t-135 30.5q-78 0 -149.5 -23.5t-129.5 -62.5q-27 -16 -41 -16q-20 0 -34 27l-91 155q-14 25 -14 37zM276 102v48q0 49 36 76.5t108 27.5h149q72 0 109 -27.5t37 -76.5v-48q0 -49 -37 -75.5t-109 -26.5h-149q-72 0 -108 26.5t-36 75.5z" />
<glyph unicode="@" horiz-adv-x="1945" d="M47 612q0 279 121 469.5t341 285.5t515 95q268 0 466 -91t303 -259t105 -397q0 -260 -113.5 -392.5t-303.5 -132.5q-84 0 -143.5 44.5t-77.5 111.5q-53 -74 -139.5 -115t-192.5 -41q-213 0 -337 110t-124 308q0 244 149.5 371t403.5 127q115 0 225.5 -45t179.5 -121v-448 q0 -41 14.5 -58.5t47.5 -17.5q51 0 75.5 69.5t24.5 231.5q0 248 -159.5 371.5t-407.5 123.5q-303 0 -482.5 -149.5t-179.5 -450.5q0 -172 72 -292.5t201 -182t299 -61.5q195 0 319 90q10 6 19 6q18 0 24 -20l66 -177q2 -6 2 -16q0 -23 -19 -35q-74 -51 -179 -78.5 t-230 -27.5q-268 0 -468 97t-308.5 276.5t-108.5 420.5zM764 616q0 -170 182 -170q82 0 139.5 40t57.5 112v201q-61 33 -148 32q-104 0 -167.5 -56t-63.5 -159z" />
<glyph unicode="A" horiz-adv-x="1529" d="M47 37q0 16 10 41l521 1245q16 39 35.5 54.5t58.5 15.5h186q39 0 58.5 -15.5t35.5 -54.5l521 -1245q10 -25 10 -39q0 -18 -11.5 -28.5t-31.5 -10.5h-318q-29 0 -45 11.5t-26 37.5l-72 197h-430l-70 -197q-10 -27 -26.5 -38t-46.5 -11h-316q-43 0 -43 37zM639 524h250 l-125 348z" />
<glyph unicode="B" horiz-adv-x="1357" d="M88 102v1186q0 53 24.5 79t82.5 26h610q240 0 354.5 -105.5t114.5 -294.5q0 -92 -46 -166.5t-120 -105.5q203 -66 203 -297q0 -186 -130 -305t-382 -119h-604q-60 0 -83.5 24.5t-23.5 77.5zM502 297h260q66 0 101.5 38t35.5 99q0 70 -39 104.5t-106 34.5h-252v-276z M502 848h225q63 0 98 31.5t35 93.5q0 66 -32.5 94.5t-100.5 28.5h-225v-248z" />
<glyph unicode="C" horiz-adv-x="1390" d="M47 696q0 358 195.5 542.5t558.5 184.5q158 0 284.5 -31.5t212.5 -88.5q23 -14 23 -37q0 -14 -14 -43l-88 -150q-12 -27 -33 -26q-12 0 -41 14q-121 67 -284 67h-5q-190 0 -293.5 -109.5t-103.5 -322.5t110.5 -323.5t300.5 -110.5q168 0 297 68q29 14 41 14q18 0 33 -25 l92 -157q12 -20 13 -37q0 -18 -25 -37q-172 -119 -508 -119q-364 0 -565 185.5t-201 541.5z" />
<glyph unicode="D" horiz-adv-x="1411" d="M88 102v1186q0 53 24.5 79t82.5 26h450q352 0 535.5 -169t183.5 -528q0 -350 -184.5 -523t-534.5 -173h-450q-60 0 -83.5 24.5t-23.5 77.5zM502 297h162q147 0 217.5 89t70.5 310t-70.5 309.5t-217.5 88.5h-162v-797z" />
<glyph unicode="E" horiz-adv-x="1169" d="M88 102v1186q0 53 24.5 79t82.5 26h849q57 0 78 -23.5t21 -79.5v-94q0 -55 -20.5 -78.5t-78.5 -23.5h-542v-250h358q57 0 79 -23.5t22 -79.5v-90q0 -55 -21.5 -78.5t-79.5 -23.5h-358v-252h540q57 0 78 -23.5t21 -78.5v-95q0 -53 -20.5 -76.5t-78.5 -23.5h-847 q-60 0 -83.5 24.5t-23.5 77.5z" />
<glyph unicode="F" horiz-adv-x="1148" d="M88 102v1186q0 53 24.5 79t82.5 26h849q57 0 78 -23.5t21 -79.5v-94q0 -55 -20.5 -78.5t-78.5 -23.5h-542v-248h358q57 0 79 -23.5t22 -79.5v-94q0 -55 -21.5 -78.5t-79.5 -23.5h-358v-445q0 -53 -24.5 -77.5t-84.5 -24.5h-198q-60 0 -83.5 24.5t-23.5 77.5z" />
<glyph unicode="G" horiz-adv-x="1443" d="M47 696q0 356 202 541.5t564 185.5q158 0 287 -31.5t215 -88.5q23 -14 22 -35q0 -12 -14 -41l-90 -154q-12 -27 -33 -26q-12 0 -41 14q-129 67 -286 67h-5q-190 0 -299.5 -108.5t-109.5 -323.5q0 -219 98 -325.5t281 -106.5q45 0 95 8.5t81 20.5v250h-176q-57 0 -79 22.5 t-22 77.5v92q0 53 21.5 76t79.5 23h436q70 0 96.5 -32t26.5 -97v-500q0 -39 -9.5 -60.5t-37.5 -42.5q-188 -133 -537 -133q-364 0 -565 185.5t-201 541.5z" />
<glyph unicode="H" horiz-adv-x="1472" d="M88 102v1186q0 53 24.5 79t82.5 26h198q59 0 84 -26t25 -79v-442h467v442q0 53 24.5 79t83.5 26h199q59 0 83.5 -26t24.5 -79v-1186q0 -53 -24.5 -77.5t-83.5 -24.5h-199q-59 0 -83.5 24.5t-24.5 77.5v447h-467v-447q0 -53 -24.5 -77.5t-84.5 -24.5h-198 q-60 0 -83.5 24.5t-23.5 77.5z" />
<glyph unicode="I" horiz-adv-x="589" d="M88 102v1186q0 53 24.5 79t82.5 26h198q59 0 84 -26t25 -79v-1186q0 -53 -24.5 -77.5t-84.5 -24.5h-198q-60 0 -83.5 24.5t-23.5 77.5z" />
<glyph unicode="J" horiz-adv-x="1048" d="M6 129q0 14 14 43l89 152q14 29 36 28q16 0 37 -16q100 -74 211 -74q162 0 162 164v862q0 53 24.5 79t84.5 26h198q59 0 84 -26t25 -79v-864q0 -209 -127 -332t-371 -123q-266 0 -444 123q-23 14 -23 37z" />
<glyph unicode="K" horiz-adv-x="1349" d="M88 102v1186q0 53 24.5 79t82.5 26h198q59 0 84 -26t25 -79v-491l385 567q10 16 25.5 22.5t45.5 6.5h316q20 0 31.5 -10.5t11.5 -28.5q0 -23 -14 -39l-439 -613l455 -624q14 -16 14 -39q0 -18 -11 -28.5t-32 -10.5h-317q-29 0 -43.5 5t-26.5 22l-401 577v-502 q0 -53 -24.5 -77.5t-84.5 -24.5h-198q-59 0 -83 24.5t-24 77.5z" />
<glyph unicode="L" horiz-adv-x="1134" d="M88 102v1186q0 53 24.5 79t82.5 26h198q59 0 84 -26t25 -79v-991h528q57 0 77.5 -23.5t20.5 -78.5v-95q0 -53 -20.5 -76.5t-77.5 -23.5h-835q-60 0 -83.5 24.5t-23.5 77.5z" />
<glyph unicode="M" horiz-adv-x="1579" d="M88 102v1188q0 53 24.5 78t84.5 25h194q41 0 64.5 -10.5t36.5 -41.5l296 -716l299 716q12 31 36 41.5t65 10.5h194q59 0 84 -25t25 -78v-1188q0 -53 -23.5 -77.5t-83.5 -24.5h-161q-59 0 -84 24.5t-25 77.5v666l-199 -444q-20 -51 -44.5 -73t-82.5 -22q-55 0 -79.5 21.5 t-46.5 73.5l-197 444v-666q0 -53 -24.5 -77.5t-84.5 -24.5h-161q-60 0 -83.5 24.5t-23.5 77.5z" />
<glyph unicode="N" horiz-adv-x="1433" d="M88 102v1188q0 53 24.5 78t84.5 25h161q37 0 58.5 -10.5t42.5 -41.5l473 -679v626q0 53 24.5 79t81.5 26h199q59 0 84 -26t25 -79v-1188q0 -53 -25 -76.5t-84 -23.5h-162q-39 0 -59.5 9t-40.5 40l-473 680v-629q0 -53 -24.5 -76.5t-84.5 -23.5h-198q-60 0 -83.5 24.5 t-23.5 77.5z" />
<glyph unicode="O" horiz-adv-x="1548" d="M47 696q0 348 185.5 537.5t541.5 189.5t541.5 -189.5t185.5 -537.5t-185.5 -537.5t-541.5 -189.5t-541.5 189.5t-185.5 537.5zM459 696q0 -217 76.5 -325.5t238.5 -108.5t239 108.5t77 325.5q0 215 -77 323.5t-239 108.5t-238.5 -108.5t-76.5 -323.5z" />
<glyph unicode="P" horiz-adv-x="1265" d="M88 102v1186q0 53 24.5 79t82.5 26h501q287 0 422 -121t135 -361q0 -238 -134 -357.5t-423 -119.5h-194v-332q0 -53 -24.5 -77.5t-84.5 -24.5h-198q-60 0 -83.5 24.5t-23.5 77.5zM502 731h162q84 0 130 45t46 135q0 92 -46 137.5t-130 45.5h-162v-363z" />
<glyph unicode="Q" horiz-adv-x="1548" d="M47 696q0 348 185.5 537.5t541.5 189.5t541.5 -189.5t185.5 -537.5q0 -311 -151.5 -492t-448.5 -218q12 -51 61.5 -76t114.5 -25q100 0 172 47q16 10 27 11q12 0 22 -17l95 -147q8 -14 8 -25q0 -14 -23 -30q-61 -47 -134 -71t-171 -24q-194 0 -318 97.5t-149 255.5 q-276 41 -417.5 225t-141.5 489zM459 696q0 -217 76.5 -325.5t238.5 -108.5t239 108.5t77 325.5q0 215 -77 323.5t-239 108.5t-238.5 -108.5t-76.5 -323.5z" />
<glyph unicode="R" horiz-adv-x="1300" d="M88 102v1186q0 53 24.5 79t82.5 26h503q285 0 420 -119t135 -354q0 -293 -225 -404l203 -440q8 -16 8 -33q0 -18 -13.5 -30.5t-35.5 -12.5h-287q-31 0 -48 8t-26 31l-170 416h-157v-353q0 -53 -24.5 -77.5t-84.5 -24.5h-198q-60 0 -83.5 24.5t-23.5 77.5zM502 748h151 q186 0 187 172q0 174 -176 174h-162v-346z" />
<glyph unicode="S" horiz-adv-x="1239" d="M47 154q0 16 12 34l101 160q16 25 33 25q10 0 34 -15q76 -43 172.5 -69.5t190.5 -26.5q96 0 142 28.5t46 92.5q0 61 -50 96t-187 88q-207 78 -323 175.5t-116 265.5q0 203 145.5 309t387.5 106q168 0 287.5 -29.5t203.5 -90.5q35 -27 35 -50q0 -14 -12 -32l-100 -160 q-18 -25 -33 -25q-10 0 -35 15q-117 77 -279 77h-4q-88 0 -135 -28.5t-47 -93.5q0 -45 24.5 -74t66.5 -50.5t130 -54.5l39 -14q152 -59 239 -113.5t132 -133.5t45 -197q0 -182 -136 -291t-401 -109q-172 0 -325.5 36t-247.5 101q-35 23 -35 48z" />
<glyph unicode="T" horiz-adv-x="1257" d="M6 1194v96q0 53 20.5 78t77.5 25h1047q57 0 78.5 -25t21.5 -78v-96q0 -53 -21.5 -76.5t-78.5 -23.5h-315v-992q0 -53 -25 -77.5t-84 -24.5h-199q-59 0 -83.5 24.5t-24.5 77.5v992h-316q-57 0 -77.5 23.5t-20.5 76.5z" />
<glyph unicode="U" horiz-adv-x="1466" d="M78 504v784q0 53 24.5 79t81.5 26h199q59 0 84 -26t25 -79v-790q0 -115 64.5 -175.5t176.5 -60.5q113 0 176.5 60.5t63.5 175.5v790q0 53 24.5 79t81.5 26h199q59 0 85 -26t26 -79v-784q0 -166 -83 -287t-230.5 -184.5t-342.5 -63.5q-194 0 -342.5 63.5t-230.5 184.5 t-82 287z" />
<glyph unicode="V" horiz-adv-x="1492" d="M47 1354q0 39 41 39h315q57 0 74 -52l268 -774l269 774q16 51 76 52h315q41 0 41 -39q0 -20 -8 -39l-502 -1247q-16 -39 -36.5 -53.5t-59.5 -14.5h-187q-39 0 -58.5 14.5t-35.5 53.5l-504 1247q-8 18 -8 39z" />
<glyph unicode="W" horiz-adv-x="1796" d="M49 1354q0 39 51 39h289q37 0 52.5 -12.5t19.5 -39.5l123 -626l164 514q10 33 26.5 45t52.5 12h138q37 0 54 -12t28 -45l163 -514l121 626q4 27 20.5 39.5t53.5 12.5h289q53 0 53 -39q0 -14 -2 -23l-315 -1263q-8 -37 -31 -52.5t-64 -15.5h-186q-41 0 -62.5 15.5 t-31.5 52.5l-158 538l-158 -538q-10 -37 -32.5 -52.5t-61.5 -15.5h-186q-41 0 -64.5 15.5t-32.5 52.5l-311 1263q-2 8 -2 23z" />
<glyph unicode="X" horiz-adv-x="1533" d="M47 41q0 20 14 37l478 639l-445 598q-14 16 -14 37q0 18 12 29.5t33 11.5h317q29 0 44.5 -6.5t25.5 -22.5l254 -342l254 342q12 16 26.5 22.5t43.5 6.5h319q20 0 31.5 -11.5t11.5 -27.5q0 -23 -14 -39l-445 -598l477 -639q14 -16 15 -39q0 -16 -12.5 -27.5t-32.5 -11.5 h-318q-29 0 -43 6t-24 21l-289 385l-287 -385q-12 -16 -26.5 -21.5t-40.5 -5.5h-320q-20 0 -32.5 11.5t-12.5 29.5z" />
<glyph unicode="Y" horiz-adv-x="1507" d="M47 1352q0 18 11.5 29.5t33.5 11.5h316q29 0 43 -11.5t28 -38.5l275 -483l272 483q14 27 28.5 38.5t43.5 11.5h317q43 0 43 -41q0 -16 -10 -37l-487 -836v-377q0 -53 -25 -77.5t-84 -24.5h-199q-59 0 -83.5 24.5t-24.5 77.5v379l-486 834q-12 18 -12 37z" />
<glyph unicode="Z" horiz-adv-x="1306" d="M47 96q0 55 10.5 88t48.5 86l607 824h-543q-59 0 -84 24.5t-25 77.5v94q0 53 25 78t84 25h995q53 0 71.5 -21.5t18.5 -77.5q0 -55 -10 -86.5t-51 -87.5l-602 -823h561q59 0 83 -24.5t24 -77.5v-95q0 -51 -24 -75.5t-83 -24.5h-1016q-53 0 -71.5 20.5t-18.5 75.5z" />
<glyph unicode="[" horiz-adv-x="727" d="M47 -41v1473q0 53 24.5 78.5t82.5 25.5h448q57 0 77.5 -23.5t20.5 -78.5v-95q0 -55 -20.5 -78.5t-77.5 -23.5h-141v-1083h141q57 0 77.5 -24t20.5 -79v-94q0 -53 -20.5 -76.5t-77.5 -23.5h-448q-60 0 -83.5 24.5t-23.5 77.5z" />
<glyph unicode="\" horiz-adv-x="1058" d="M47 1386q0 37 39 37h315q29 0 44.5 -12t25.5 -37l533 -1298q8 -18 8 -39q0 -37 -39 -37h-316q-49 0 -69 47l-533 1301q-8 18 -8 38z" />
<glyph unicode="]" horiz-adv-x="727" d="M27 -43v94q0 55 20.5 79t77.5 24h139v1083h-139q-57 0 -77.5 23.5t-20.5 78.5v95q0 55 20.5 78.5t77.5 23.5h448q57 0 82 -25.5t25 -78.5v-1473q0 -53 -23.5 -77.5t-83.5 -24.5h-448q-57 0 -77.5 23.5t-20.5 76.5z" />
<glyph unicode="^" horiz-adv-x="1294" d="M49 733q0 18 12 39l400 619q31 47 53.5 64.5t73.5 17.5h117q51 0 74.5 -17.5t51.5 -64.5l402 -619q12 -18 12 -39q0 -18 -11 -28.5t-34 -10.5h-272q-33 0 -50.5 10.5t-33.5 36.5l-197 332l-196 -332q-16 -27 -35 -37t-51 -10h-273q-20 0 -31.5 10.5t-11.5 28.5z" />
<glyph unicode="_" horiz-adv-x="1060" d="M47 -129q0 51 19.5 74.5t74.5 23.5h777q55 0 75.5 -23.5t20.5 -74.5v-102q0 -51 -20.5 -75t-75.5 -24h-777q-55 0 -74.5 23.5t-19.5 75.5v102z" />
<glyph unicode="`" horiz-adv-x="624" d="M47 1477q0 51 78 51h250q51 0 70.5 -13.5t33.5 -54.5l90 -250q6 -14 6 -30q0 -51 -69 -52h-191q-53 0 -74.5 11.5t-41.5 48.5l-138 244q-14 27 -14 45z" />
<glyph unicode="a" horiz-adv-x="1265" d="M47 442q0 172 79 301t223.5 200t332.5 71q156 0 275.5 -34t220.5 -97v-820q0 -39 -14.5 -51t-57.5 -12h-209q-23 0 -35 7t-20 24l-27 61q-59 -63 -142 -93t-202 -30q-192 0 -308 124t-116 349zM459 446q0 -198 164 -198h2q80 0 125 39t45 110v320q-39 18 -99 18 q-109 0 -173 -75.5t-64 -213.5z" />
<glyph unicode="b" horiz-adv-x="1275" d="M88 115v1173q0 53 24.5 79t82.5 26h190q59 0 84 -26t25 -79v-332q37 25 104.5 41.5t130.5 16.5q244 0 372 -127t128 -357q0 -266 -155.5 -413.5t-452.5 -147.5q-156 0 -299.5 41t-233.5 105zM492 270q39 -22 102 -22h6h2q213 0 213 280q0 106 -38 156.5t-126 50.5 q-68 0 -113.5 -36.5t-45.5 -104.5v-324z" />
<glyph unicode="c" horiz-adv-x="1148" d="M47 489q0 156 71.5 275t208 184.5t322.5 65.5q141 0 238.5 -26.5t173.5 -82.5q23 -14 22 -37q0 -16 -16 -43l-84 -145q-14 -29 -35 -29q-12 0 -39 17q-55 35 -103 51t-120 16q-102 0 -164.5 -65.5t-62.5 -180.5q0 -117 63.5 -179t173.5 -62q66 0 119 18.5t109 50.5 q29 16 41 17q18 0 32 -29l93 -158q10 -20 10 -32q0 -18 -25 -35q-86 -55 -187.5 -83t-242.5 -28q-287 0 -442.5 133.5t-155.5 386.5z" />
<glyph unicode="d" horiz-adv-x="1275" d="M47 498q0 236 131 376t371 140q68 0 131 -15.5t100 -40.5v330q0 53 24.5 79t84.5 26h190q59 0 84 -26t25 -79v-1173q-88 -63 -229.5 -104.5t-299.5 -41.5q-305 0 -458.5 133.5t-153.5 395.5zM459 496q0 -133 53 -190.5t160 -57.5h6q65 0 104 22v330q0 135 -145 135 q-90 0 -134 -64.5t-44 -174.5z" />
<glyph unicode="e" horiz-adv-x="1216" d="M47 479q0 260 147.5 397.5t423.5 137.5q270 0 410.5 -134.5t140.5 -371.5q0 -102 -90 -102h-643q0 -88 66.5 -135.5t202.5 -47.5q84 0 140 15.5t113 46.5q25 10 33 10q18 0 31 -25l70 -131q10 -20 10 -30q0 -18 -25 -35q-84 -55 -190.5 -80t-243.5 -25q-172 0 -306 57.5 t-212 172t-78 280.5zM436 608h365q0 78 -45 121t-135 43t-137.5 -44t-47.5 -120z" />
<glyph unicode="f" horiz-adv-x="935" d="M6 803v78q0 55 20.5 78.5t77.5 23.5h70v31q0 197 107.5 303t322.5 106q219 0 342 -90q25 -18 25 -37q0 -14 -13 -32l-73 -125q-14 -23 -33 -23q-14 0 -29 8q-53 29 -116 29t-91 -30.5t-28 -92.5v-47h174q57 0 77.5 -23.5t20.5 -78.5v-78q0 -55 -20.5 -79t-77.5 -24h-174 v-598q0 -53 -24.5 -77.5t-84.5 -24.5h-198q-60 0 -83.5 24.5t-23.5 77.5v598h-70q-57 0 -77.5 24t-20.5 79z" />
<glyph unicode="g" horiz-adv-x="1275" d="M47 508q0 250 155.5 378t461.5 128q154 0 293 -43t231 -109v-653q0 -250 -143.5 -403.5t-417.5 -153.5q-123 0 -251 27.5t-190 70.5q-14 12 -14 27q0 10 6 20l88 162q6 10 13.5 17.5t15.5 7.5q4 0 24 -9q96 -49 267 -49q96 0 145 41t49 133q-41 -29 -102.5 -46 t-130.5 -17q-244 0 -372 121t-128 350zM459 526q0 -104 43 -152t135 -48q147 0 147 141v248q-43 18 -143 18q-90 0 -136 -45t-46 -162z" />
<glyph unicode="h" horiz-adv-x="1239" d="M88 102v1227q0 37 13.5 50.5t56.5 13.5h219q43 0 56 -13.5t13 -50.5v-430q61 53 148.5 84t196.5 31q166 0 268 -93.5t102 -275.5v-543q0 -53 -23.5 -77.5t-82.5 -24.5h-199q-59 0 -85 24.5t-26 77.5v516q0 61 -25.5 88t-80.5 27q-61 0 -99 -32.5t-38 -90.5v-508 q0 -53 -23.5 -77.5t-83.5 -24.5h-198q-60 0 -84.5 24.5t-24.5 77.5z" />
<glyph unicode="i" horiz-adv-x="612" d="M88 1214v50q0 53 37 91t106 38h148q72 0 108.5 -38t36.5 -91v-50q0 -51 -36.5 -89t-108.5 -38h-148q-69 0 -106 38t-37 89zM98 102v777q0 53 24.5 78.5t84.5 25.5h196q59 0 85 -25.5t26 -78.5v-777q0 -53 -25.5 -77.5t-85.5 -24.5h-196q-60 0 -84.5 24.5t-24.5 77.5z" />
<glyph unicode="j" horiz-adv-x="741" d="M-289 -190q0 14 15 43l88 151q14 29 34 29q16 0 39 -17q49 -35 93.5 -53t97.5 -18q80 0 114.5 37.5t34.5 113.5v783q0 53 24.5 78.5t84.5 25.5h199q59 0 83.5 -25.5t24.5 -78.5v-789q0 -203 -122 -320.5t-357 -117.5q-266 0 -430 121q-23 16 -23 37zM215 1214v50 q0 53 38 91t105 38h150q70 0 107.5 -38t37.5 -91v-50q0 -51 -37.5 -89t-107.5 -38h-150q-67 0 -105 38t-38 89z" />
<glyph unicode="k" horiz-adv-x="1220" d="M88 102v1186q0 53 24.5 79t82.5 26h198q59 0 84 -26t25 -79v-686l270 352q12 16 26.5 22.5t43.5 6.5h317q20 0 31.5 -11t11.5 -30q0 -20 -14 -37l-350 -401l360 -426q14 -17 14 -37q0 -18 -12 -29.5t-33 -11.5h-317q-29 0 -42 5t-28 22l-278 379v-304q0 -53 -24.5 -77.5 t-84.5 -24.5h-198q-59 0 -83 24.5t-24 77.5z" />
<glyph unicode="l" horiz-adv-x="589" d="M88 102v1186q0 53 24.5 79t82.5 26h198q59 0 84 -26t25 -79v-1186q0 -53 -24.5 -77.5t-84.5 -24.5h-198q-60 0 -83.5 24.5t-23.5 77.5z" />
<glyph unicode="m" horiz-adv-x="1679" d="M88 102v818q0 37 13.5 50t56.5 13h194q25 0 38 -7t16 -26l10 -63q57 59 128.5 93t168.5 34q86 0 147.5 -31t104.5 -94q55 59 127.5 92t175.5 33q158 0 246 -91.5t88 -275.5v-545q0 -53 -25 -77.5t-84 -24.5h-166q-59 0 -83.5 24.5t-24.5 77.5v519q0 59 -21.5 85.5 t-64.5 26.5q-49 0 -77 -31.5t-28 -89.5v-510q0 -53 -24.5 -77.5t-83.5 -24.5h-150q-59 0 -83.5 24.5t-24.5 77.5v523q0 108 -82 108h-2q-51 0 -80 -32.5t-29 -90.5v-508q0 -53 -23.5 -77.5t-83.5 -24.5h-165q-60 0 -84.5 24.5t-24.5 77.5z" />
<glyph unicode="n" horiz-adv-x="1239" d="M88 102v818q0 37 13.5 50t56.5 13h211q25 0 38 -7t15 -26l10 -61q57 57 150.5 91t208.5 34q166 0 268 -93.5t102 -275.5v-543q0 -53 -23.5 -77.5t-82.5 -24.5h-199q-59 0 -85 24.5t-26 77.5v516q0 61 -26.5 88t-83.5 27q-61 0 -97 -32.5t-36 -90.5v-508 q0 -53 -23.5 -77.5t-83.5 -24.5h-198q-60 0 -84.5 24.5t-24.5 77.5z" />
<glyph unicode="o" horiz-adv-x="1280" d="M47 492q0 242 155.5 382t436.5 140t437.5 -140.5t156.5 -381.5q0 -242 -156.5 -382.5t-437.5 -140.5t-436.5 140.5t-155.5 382.5zM459 492q0 -115 47 -172.5t133 -57.5q180 1 180 230q0 225 -180 225t-180 -225z" />
<glyph unicode="p" horiz-adv-x="1275" d="M88 -311v1173q92 66 231.5 109t290.5 43q618 0 619 -525q0 -238 -131 -379t-371 -141q-68 0 -130 16.5t-103 45.5v-342q0 -53 -25 -78t-84 -25h-190q-60 0 -83.5 24.5t-23.5 78.5zM492 389q0 -70 38.5 -106.5t108.5 -36.5q88 0 132 66.5t44 179.5q0 133 -52 187t-161 54 q-70 0 -110 -18v-326z" />
<glyph unicode="q" horiz-adv-x="1275" d="M47 461q0 264 156.5 408.5t460.5 144.5q154 0 293 -43t231 -109v-1173q0 -53 -24.5 -78t-84.5 -25h-190q-60 0 -84.5 24.5t-24.5 78.5v342q-39 -29 -102.5 -45.5t-130.5 -16.5q-242 0 -371 130t-129 362zM459 463q0 -217 176 -217q70 0 108.5 36.5t38.5 106.5v326 q-39 18 -108 18q-104 0 -159.5 -67.5t-55.5 -202.5z" />
<glyph unicode="r" horiz-adv-x="944" d="M88 102v818q0 37 13.5 50t56.5 13h211q25 0 38 -7t15 -26l10 -59q123 123 297 123q68 0 111 -11.5t78 -35.5q20 -14 20 -33q0 -6 -4 -23l-66 -186q-8 -29 -30 -29q-10 0 -25 9q-53 30 -128 30h-5q-78 0 -128 -43t-50 -114v-476q0 -53 -23.5 -77.5t-83.5 -24.5h-198 q-60 0 -84.5 24.5t-24.5 77.5z" />
<glyph unicode="s" horiz-adv-x="1099" d="M47 119q0 10 10 31l86 153q12 25 31 25q12 0 35 -13q57 -31 146 -56.5t159 -25.5q66 0 94.5 13.5t28.5 44.5q0 29 -40 48t-144 50l-45 12q-170 51 -246 117t-76 187q0 150 129 229.5t346 79.5q135 0 235.5 -24.5t192.5 -74.5q37 -20 37 -45q0 -14 -12 -36l-84 -134 q-14 -23 -29 -22q-12 0 -33 12q-49 27 -114.5 43.5t-126.5 16.5q-141 0 -142 -62q0 -29 46.5 -48t142.5 -42q23 -6 62.5 -16.5t66.5 -20.5q98 -35 151.5 -70.5t76 -84t22.5 -121.5q0 -88 -53.5 -159t-164 -114t-272.5 -43q-289 1 -477 107q-39 25 -39 43z" />
<glyph unicode="t" horiz-adv-x="989" d="M10 801v80q0 55 19.5 78.5t76.5 23.5h84v51q0 49 23 99.5t66 121.5q20 35 37.5 45.5t62.5 10.5h121q57 0 80.5 -24.5t23.5 -78.5v-225h164q57 0 76.5 -23.5t19.5 -78.5v-80q0 -55 -19.5 -78t-76.5 -23h-164v-315q0 -63 24.5 -93t80.5 -30q35 0 56 8.5t52 28.5 q16 10 31 10q20 0 35 -24l86 -148q14 -25 14 -39q0 -18 -25 -35q-70 -47 -156.5 -70.5t-205.5 -23.5q-197 0 -301.5 107.5t-104.5 300.5v323h-84q-57 0 -76.5 22.5t-19.5 78.5z" />
<glyph unicode="u" horiz-adv-x="1234" d="M78 348v531q0 53 24.5 78.5t81.5 25.5h199q59 0 84 -25.5t25 -78.5v-514q0 -117 112 -117q61 0 94 32.5t33 92.5v506q0 53 24.5 78.5t84.5 25.5h198q59 0 84 -25.5t25 -78.5v-816q0 -39 -13.5 -51t-56.5 -12h-211q-25 0 -38 6t-15 25l-10 63q-59 -57 -147.5 -91 t-200.5 -34q-179 0 -278 93.5t-99 285.5z" />
<glyph unicode="v" horiz-adv-x="1280" d="M47 942q0 18 11.5 29.5t31.5 11.5h299q31 0 47.5 -12.5t26.5 -38.5l176 -467l176 467q10 27 26.5 39t47.5 12h301q20 0 31.5 -11t11.5 -30q0 -16 -10 -37l-396 -837q-18 -39 -37.5 -53.5t-58.5 -14.5h-182q-39 0 -58.5 14.5t-37.5 53.5l-396 837q-10 20 -10 37z" />
<glyph unicode="w" horiz-adv-x="1579" d="M47 954q0 29 41 29h270q27 0 39.5 -9t16.5 -30l110 -465l140 375q10 25 21 34t40 9h129q29 0 40 -9t21 -34l138 -375l112 465q6 20 16.5 29.5t37.5 9.5h272q41 0 41 -29q0 -6 -4 -18l-266 -885q-8 -31 -23.5 -41t-46.5 -10h-201q-29 0 -43 11.5t-24 39.5l-136 371 l-135 -371q-8 -29 -23.5 -40t-43.5 -11h-199q-31 0 -47 10t-25 41l-264 885q-4 12 -4 18z" />
<glyph unicode="x" horiz-adv-x="1286" d="M47 41q0 16 16 37l349 422l-334 405q-14 16 -15 37q0 18 12.5 29.5t33.5 11.5h317q29 0 43 -6t27 -23l145 -176l150 176q12 16 26 22.5t41 6.5h320q20 0 31.5 -11t11.5 -30q0 -20 -15 -37l-336 -405l353 -422q14 -16 14 -37q0 -18 -12.5 -29.5t-32.5 -11.5h-320 q-27 0 -40 5t-27 22l-164 194l-162 -194q-12 -16 -26.5 -21.5t-40.5 -5.5h-318q-20 0 -33.5 12.5t-13.5 28.5z" />
<glyph unicode="y" horiz-adv-x="1243" d="M51 944q0 18 11.5 28.5t31.5 10.5h301q55 0 74 -51l176 -467l176 467q10 27 26.5 39t47.5 12h301q41 0 41 -39q0 -14 -10 -39l-381 -809q-72 -152 -133.5 -239.5t-142.5 -131.5t-195 -44q-172 0 -297 100q-23 18 -23 35q0 12 15 37l82 145q14 27 34 27q10 0 39 -15 q35 -20 60.5 -30.5t62.5 -10.5q45 0 69.5 23.5t41.5 73.5l-398 839q-10 20 -10 39z" />
<glyph unicode="z" horiz-adv-x="1103" d="M51 74q0 86 13.5 125t66.5 92l399 393h-368q-59 0 -84 24.5t-25 77.5v95q0 53 24.5 77.5t84.5 24.5h792q45 0 61.5 -15.5t16.5 -54.5q0 -84 -13 -124.5t-65 -96.5l-370 -395h364q59 0 84 -24.5t25 -77.5v-95q0 -51 -24.5 -75.5t-84.5 -24.5h-809q-51 0 -69.5 15.5 t-18.5 58.5z" />
<glyph unicode="{" horiz-adv-x="808" d="M6 657v78q0 55 20.5 79t77.5 24h99v594q0 53 24.5 78.5t83.5 25.5h371q57 0 78.5 -23.5t21.5 -78.5v-78q0 -55 -21.5 -79t-78.5 -24h-72v-1116h72q57 0 78.5 -23.5t21.5 -78.5v-78q0 -53 -21.5 -76.5t-78.5 -23.5h-371q-59 0 -83.5 24.5t-24.5 77.5v598h-99 q-57 0 -77.5 23.5t-20.5 76.5z" />
<glyph unicode="|" horiz-adv-x="507" d="M47 -82v1555q0 53 24.5 78.5t82.5 25.5h198q59 0 84 -25.5t25 -78.5v-1555q0 -53 -24.5 -77.5t-84.5 -24.5h-198q-60 0 -83.5 24.5t-23.5 77.5z" />
<glyph unicode="}" horiz-adv-x="808" d="M27 35q0 55 20.5 78.5t77.5 23.5h74v1116h-74q-57 0 -77.5 23.5t-20.5 79.5v78q0 55 20.5 78.5t77.5 23.5h373q57 0 81.5 -25.5t24.5 -78.5v-594h98q57 0 79 -23.5t22 -79.5v-78q0 -53 -21.5 -76.5t-79.5 -23.5h-98v-598q0 -53 -23.5 -77.5t-82.5 -24.5h-373 q-57 0 -77.5 23.5t-20.5 76.5v78z" />
<glyph unicode="~" horiz-adv-x="1288" d="M47 590q0 35 37 84q135 186 336 186q72 0 126 -19.5t122 -56.5q57 -31 93 -45t79 -14q53 0 81.5 20.5t69.5 69.5q25 29 53 29q41 0 125 -64q70 -51 70 -96q0 -35 -37 -84q-135 -186 -319 -186q-66 0 -118 18.5t-120 52.5q-59 31 -103 47.5t-96 16.5q-53 0 -80.5 -20.5 t-70.5 -69.5q-25 -27 -53 -27q-45 0 -125 64q-37 27 -53.5 48t-16.5 46z" />
<glyph unicode="&#xa1;" horiz-adv-x="530" d="M47 987v49q0 102 158 103h123q80 0 117.5 -24.5t37.5 -78.5v-49q0 -53 -37.5 -77.5t-117.5 -24.5h-123q-158 0 -158 102zM55 -150l15 822q2 53 27.5 77.5t84.5 24.5h166q59 0 85 -24.5t26 -77.5l12 -822q0 -53 -24.5 -78.5t-81.5 -25.5h-201q-60 0 -85.5 25.5t-23.5 78.5 z" />
<glyph unicode="&#xa2;" horiz-adv-x="1148" d="M47 489q0 190 104.5 321.5t290.5 174.5v105q0 53 25 78.5t84 25.5h166q59 0 83.5 -25.5t24.5 -78.5v-93q145 -29 236 -92q23 -14 22 -37q0 -16 -16 -43l-84 -145q-14 -29 -35 -29q-12 0 -39 17q-57 35 -104 51t-119 16q-102 0 -164.5 -66.5t-62.5 -179.5 q0 -117 63.5 -179t173.5 -62q111 0 228 69q29 16 41 17q18 0 32 -29l93 -158q12 -18 12 -30q0 -18 -27 -37q-111 -70 -250 -94v-95q0 -53 -24.5 -77.5t-83.5 -24.5h-166q-59 0 -84 24.5t-25 77.5v101q-193 41 -294 167t-101 330z" />
<glyph unicode="&#xa3;" horiz-adv-x="1157" d="M47 102v78q0 53 20.5 77t77.5 24q39 0 56.5 22.5t17.5 69.5v237h-69q-57 0 -78 23.5t-21 79.5v78q0 55 20.5 78.5t78.5 23.5h69v117q0 195 113.5 304t335.5 109q223 0 346 -90q25 -18 24 -37q0 -14 -12 -32l-74 -125q-14 -23 -32 -23q-14 0 -29 8q-53 29 -125 29 q-133 0 -133 -129v-131h186q57 0 78 -23.5t21 -78.5v-78q0 -55 -20.5 -79t-78.5 -24h-186v-180q0 -102 -47 -149h424q57 0 78.5 -24t21.5 -77v-78q0 -55 -21.5 -78.5t-78.5 -23.5h-865q-57 0 -77.5 23.5t-20.5 78.5z" />
<glyph unicode="&#xa4;" horiz-adv-x="1167" d="M47 317q0 16 23 43l71 74q-51 92 -51 191q0 96 51 192l-71 72q-23 27 -23 43q0 20 25 45l143 135q27 27 53 27q23 0 49 -23l97 -82q88 33 170 33t170 -33l94 82q27 23 51 23q27 0 53 -27l142 -135q27 -25 26 -45q0 -18 -24 -43l-70 -72q51 -96 51 -192q0 -98 -51 -191 l70 -74q25 -20 24 -43q0 -20 -26 -45l-142 -135q-31 -27 -55 -26q-23 0 -49 22l-94 84q-72 -33 -170 -33t-170 33l-97 -84q-27 -22 -47 -22q-25 0 -55 26l-143 135q-25 25 -25 45zM438 625q0 -59 43 -103.5t103 -44.5q59 0 102 44t43 104q0 59 -43 102t-102 43t-102.5 -43 t-43.5 -102z" />
<glyph unicode="&#xa5;" horiz-adv-x="1507" d="M47 1352q0 18 11.5 29.5t33.5 11.5h316q29 0 44 -12.5t27 -37.5l275 -491l272 491q12 25 27.5 37.5t44.5 12.5h317q43 0 43 -41q0 -16 -10 -37l-365 -625h68q53 0 70.5 -16.5t17.5 -69.5v-61q0 -51 -17.5 -67.5t-70.5 -16.5h-190v-82h190q53 0 70.5 -16.5t17.5 -69.5v-62 q0 -53 -17.5 -69.5t-70.5 -16.5h-190v-41q0 -53 -25 -77.5t-84 -24.5h-199q-59 0 -83.5 24.5t-24.5 77.5v41h-201q-53 0 -70.5 16.5t-17.5 69.5v62q0 53 17.5 69.5t70.5 16.5h201v82h-201q-53 0 -70.5 16.5t-17.5 67.5v61q0 53 17.5 69.5t70.5 16.5h78l-363 625 q-12 18 -12 37z" />
<glyph unicode="&#xa6;" horiz-adv-x="507" d="M47 225q0 53 24.5 79t82.5 26h198q59 0 84 -25.5t25 -79.5v-571q0 -53 -24.5 -78t-84.5 -25h-198q-60 0 -83.5 25t-23.5 78v571zM47 819v572q0 53 24.5 78.5t82.5 25.5h198q59 0 84 -25.5t25 -78.5v-572q0 -53 -24.5 -77.5t-84.5 -24.5h-198q-60 0 -83.5 24.5t-23.5 77.5 z" />
<glyph unicode="&#xa7;" horiz-adv-x="1241" d="M37 -135q0 16 12 35l101 159q16 25 32 25q10 0 35 -14q76 -43 172 -70t191 -27q98 0 149 20.5t51 69.5q0 41 -39 67t-133 63q-96 37 -121 49q-123 53 -199.5 99t-127.5 117.5t-51 174.5q0 72 14 121t47 98q-61 82 -61 197q0 111 64.5 195.5t183 131.5t280.5 47 q168 0 287.5 -29.5t203.5 -90.5q35 -27 35 -50q0 -14 -12 -32l-100 -160q-18 -25 -33 -25q-10 0 -35 15q-119 78 -283 77q-90 0 -136 -23.5t-46 -78.5q0 -47 40 -73.5t140 -65.5q82 -33 101 -41q141 -63 219 -110.5t126 -119t48 -178.5q0 -109 -64 -178q35 -39 50.5 -86 t15.5 -119q0 -170 -140.5 -272t-408.5 -102q-172 0 -325.5 35.5t-247.5 101.5q-35 23 -35 47zM430 683.5q-2 -15.5 2 -26.5q10 -41 53 -72.5t136 -76.5l137 -64l116 -55q0 21 -2 33q-8 47 -62 88t-148 86q-164 78 -224 111q-6 -8 -8 -23.5z" />
<glyph unicode="&#xa8;" horiz-adv-x="841" d="M47 1235v51q0 55 35 93t90 38h53q55 0 90 -38t35 -93v-51q0 -55 -34.5 -93t-90.5 -38h-53q-55 0 -90 38t-35 93zM489 1235v51q0 55 35 93t90 38h56q55 0 90 -38t35 -93v-51q0 -55 -35 -93t-90 -38h-56q-55 0 -90 38t-35 93z" />
<glyph unicode="&#xa9;" horiz-adv-x="1581" d="M47 696q0 197 101.5 364t272.5 265t370 98t369.5 -98t272 -265t101.5 -364t-101.5 -363.5t-272.5 -265t-369 -98.5q-199 0 -370 98.5t-272.5 265.5t-101.5 363zM281 696q0 -152 63.5 -268.5t179 -182t267.5 -65.5q151 0 265.5 65.5t178 182.5t63.5 268q0 150 -63.5 266.5 t-178 182t-265.5 65.5q-152 0 -267.5 -65.5t-179 -182t-63.5 -266.5zM346 692q0 215 121 336t332 121q184 0 299 -94q12 -12 12 -25q0 -6 -8 -26l-45 -95q-8 -18 -23 -18q-8 0 -24 12q-37 27 -77 39t-99 12q-106 0 -166 -68.5t-60 -193.5q0 -127 60.5 -192.5t169.5 -65.5 q59 0 98 12.5t76 38.5q16 10 24 11q14 0 23 -17l51 -104q6 -12 6 -19q0 -10 -14 -22q-125 -94 -297 -94q-217 0 -338 117.5t-121 334.5z" />
<glyph unicode="&#xaa;" horiz-adv-x="737" d="M47 956q0 102 70.5 158.5t187.5 56.5h176v11q0 41 -29.5 59.5t-97.5 18.5q-76 0 -143 -31l-12 -4q-10 0 -17 12l-63 109q-4 8 -4 12q0 8 16 18q102 47 240 47q168 0 243.5 -66.5t75.5 -201.5v-356q0 -27 -31 -27h-133q-16 0 -22 6t-10 21l-9 32q-39 -39 -89 -58t-128 -19 q-98 0 -159.5 55t-61.5 147zM268 965q0 -35 19.5 -48.5t60.5 -13.5q62 0 97.5 32t35.5 85v12h-137q-76 0 -76 -67z" />
<glyph unicode="&#xab;" horiz-adv-x="1521" d="M47 561v47q0 20 13.5 39t50.5 58l393 403q37 39 67 39q27 0 52 -25l139 -139q31 -31 31 -53q0 -27 -31 -56l-299 -288l299 -291q31 -29 31 -55q0 -23 -31 -54l-139 -139q-25 -24 -52 -24q-31 0 -67 38l-393 404q-39 41 -51.5 57.5t-12.5 38.5zM727 561v47q0 20 13.5 39 t50.5 58l393 403q37 39 67 39q27 0 52 -25l139 -139q31 -31 31 -53q0 -27 -31 -56l-299 -288l299 -291q31 -29 31 -55q0 -23 -31 -54l-139 -139q-25 -24 -52 -24q-31 0 -67 38l-393 404q-39 41 -51.5 57.5t-12.5 38.5z" />
<glyph unicode="&#xac;" horiz-adv-x="958" d="M47 573v95q0 55 20.5 78.5t77.5 23.5h666q57 0 78.5 -23.5t21.5 -78.5v-342q0 -57 -24.5 -78t-77.5 -21h-119q-53 0 -77.5 20.5t-24.5 78.5v145h-443q-57 0 -77.5 23.5t-20.5 78.5z" />
<glyph unicode="&#xad;" horiz-adv-x="958" d="M47 573v95q0 55 20.5 78.5t77.5 23.5h666q57 0 78.5 -23.5t21.5 -78.5v-95q0 -55 -21.5 -78.5t-78.5 -23.5h-666q-57 0 -77.5 23.5t-20.5 78.5z" />
<glyph unicode="&#xae;" horiz-adv-x="1581" d="M47 696q0 197 101.5 364t272.5 265t370 98t369.5 -98t272 -265t101.5 -364t-101.5 -363.5t-272.5 -265t-369 -98.5q-199 0 -370 98.5t-272.5 265.5t-101.5 363zM281 696q0 -152 63.5 -268.5t179 -182t267.5 -65.5q151 0 265.5 65.5t178 182.5t63.5 268q0 150 -63.5 266.5 t-178 182t-265.5 65.5q-152 0 -267.5 -65.5t-179 -182t-63.5 -266.5zM481 371v676q0 31 15.5 45t48.5 14h291q162 0 240.5 -66.5t78.5 -201.5q0 -88 -36 -146.5t-113 -87.5l114 -250q6 -12 6 -20q0 -23 -28 -23h-160q-35 0 -43 21l-96 239h-72v-200q0 -31 -14.5 -45.5 t-46.5 -14.5h-121q-33 0 -48.5 14.5t-15.5 45.5zM727 743h94q53 0 78 22.5t25 72.5q0 53 -23.5 74.5t-77.5 21.5h-96v-191z" />
<glyph unicode="&#xaf;" horiz-adv-x="843" d="M47 1272v94q0 55 20.5 78.5t77.5 23.5h551q57 0 79 -23.5t22 -78.5v-94q0 -55 -21.5 -79t-79.5 -24h-551q-57 0 -77.5 24t-20.5 79z" />
<glyph unicode="&#xb0;" horiz-adv-x="694" d="M47 1200q0 143 81 220t218 77q139 0 220 -77t81 -220t-81 -221t-220 -78q-137 0 -218 78t-81 221zM254 1200q0 -47 25.5 -71.5t66.5 -24.5q43 0 68.5 24.5t25.5 71.5q0 45 -25.5 69.5t-68.5 24.5q-41 0 -66.5 -24.5t-25.5 -69.5z" />
<glyph unicode="&#xb1;" horiz-adv-x="950" d="M43 98v101q0 51 19.5 74.5t74.5 23.5h676q55 0 74.5 -23.5t19.5 -74.5v-101q0 -51 -19.5 -74.5t-74.5 -23.5h-676q-55 0 -74.5 23.5t-19.5 74.5zM47 733v103q0 55 21.5 76.5t78.5 21.5h168v135q0 55 21.5 74.5t77.5 19.5h127q55 0 76.5 -19.5t21.5 -74.5v-135h172 q57 0 78.5 -21.5t21.5 -76.5v-103q0 -55 -21.5 -76.5t-78.5 -21.5h-172v-133q0 -55 -21.5 -74.5t-76.5 -19.5h-127q-56 0 -77.5 19t-21.5 75v133h-168q-57 0 -78.5 21.5t-21.5 76.5z" />
<glyph unicode="&#xb2;" horiz-adv-x="772" d="M51 641v68q0 74 52.5 138t175.5 144l38 25q76 49 96.5 71.5t20.5 63.5q0 74 -104 74q-86 0 -172 -41q-20 -8 -25 -8q-10 0 -18 14l-56 110q-8 20 -8 25q0 14 15 23q49 35 138 55t204 20q139 0 225 -63.5t86 -175.5q0 -88 -40 -146.5t-144 -122.5q-18 -10 -57.5 -33.5 t-59 -41t-31.5 -39.5h281q33 0 45 -13.5t12 -46.5v-98q0 -31 -12.5 -44t-44.5 -13h-564q-28 0 -40.5 13t-12.5 42z" />
<glyph unicode="&#xb3;" horiz-adv-x="780" d="M47 664q0 8 8 24l56 103q8 14 18 14q6 0 23 -8q82 -41 159 -41q125 0 125 84q0 37 -19.5 54t-62.5 17h-78q-37 0 -51 14.5t-14 47.5v67q0 31 14.5 44.5t50.5 13.5h68q68 0 68 69q0 35 -21.5 52.5t-75.5 17.5q-47 0 -76.5 -9t-74.5 -32q-20 -8 -25 -8q-10 0 -18 14 l-53 103q-8 14 -9 26q0 10 11 19q49 35 127.5 54t173.5 19q156 0 249 -66.5t93 -178.5q0 -111 -84 -168q104 -51 104 -179q0 -119 -94 -189.5t-268 -70.5q-92 0 -178.5 19.5t-133.5 52.5q-12 10 -12 21z" />
<glyph unicode="&#xb4;" horiz-adv-x="624" d="M47 1180q0 16 6 30l90 248q14 41 34 55.5t73 14.5h246q37 0 58 -13.5t21 -37.5q0 -23 -14 -45l-133 -236q-25 -43 -47.5 -55.5t-81.5 -12.5h-182q-70 1 -70 52z" />
<glyph unicode="&#xb5;" horiz-adv-x="1163" d="M47 -260v1139q0 55 25.5 79.5t89.5 24.5h190q59 0 84 -25.5t25 -78.5v-514q0 -57 28.5 -87t83.5 -30q127 0 127 125v506q0 45 15.5 67.5t50.5 29.5t104 7h138q59 0 83.5 -25.5t24.5 -78.5v-816q0 -39 -13 -51t-56 -12h-211q-25 0 -38.5 6t-15.5 25l-10 63 q-23 -55 -70 -90t-112 -35q-82 0 -129 31v-260q0 -45 -15.5 -66.5t-50.5 -28.5t-104 -7h-137q-58 0 -82.5 24.5t-24.5 77.5z" />
<glyph unicode="&#xb6;" horiz-adv-x="1611" d="M47 930q0 236 139.5 349.5t442.5 113.5h835q57 0 79 -25t22 -78v-96q0 -53 -21.5 -76.5t-79.5 -23.5h-34v-1196q0 -53 -26 -78t-85 -25h-195q-59 0 -82.5 24.5t-23.5 78.5v1194h-137v-1194q0 -53 -26 -78t-85 -25h-195q-59 0 -83.5 24.5t-24.5 78.5v612 q-190 0 -305 113.5t-115 306.5z" />
<glyph unicode="&#xb7;" horiz-adv-x="360" d="M47 633v45q0 49 29.5 82t79.5 33h49q47 0 77.5 -33t30.5 -82v-45q0 -47 -30.5 -82t-77.5 -35h-49q-47 0 -78 35t-31 82z" />
<glyph unicode="&#xb8;" horiz-adv-x="589" d="M49.5 -444.5q-4.5 6.5 1.5 20.5l41 109q6 14 17 14q8 0 20 -6q45 -20 88 -21q68 0 68 43q0 31 -23.5 42.5t-81.5 11.5h-35q-16 0 -21 9t1 23l55 140q6 16 15.5 22t29.5 6h209q25 0 25 -16q0 -10 -4 -16l-47 -103q70 -12 102.5 -48t32.5 -103q0 -78 -67.5 -129.5 t-201.5 -51.5q-55 0 -114.5 10.5t-87.5 26.5q-18 10 -22.5 16.5z" />
<glyph unicode="&#xb9;" horiz-adv-x="702" d="M47 1217q0 10 16 20l230 139q14 8 25.5 12.5t31.5 4.5h123q68 0 68 -64v-547h96q35 0 47 -14t12 -49v-72q0 -35 -12 -48t-47 -13h-477q-37 0 -50.5 14t-13.5 47v72q0 33 14.5 48t49.5 15h96v346l-86 -53q-10 -6 -18 -6q-12 0 -21 14l-78 119q-6 10 -6 15z" />
<glyph unicode="&#xba;" horiz-adv-x="845" d="M47 1087q0 156 99.5 246t275.5 90q178 0 277.5 -90t99.5 -246t-100.5 -244.5t-276.5 -88.5t-275.5 89t-99.5 244zM309 1087q0 -74 30 -109.5t83 -35.5t84 37t31 108q0 74 -31 110t-84 36t-83 -36t-30 -110z" />
<glyph unicode="&#xbb;" horiz-adv-x="1521" d="M47 240q0 25 33 55l297 291l-297 288q-33 31 -33 56q0 23 31 53l139 139q25 25 51 25q31 0 68 -39l393 -403q39 -41 52.5 -58.5t13.5 -38.5v-47q0 -20 -10.5 -35.5t-29 -34l-26.5 -26.5l-393 -404q-37 -39 -68 -38q-27 0 -51 24l-139 139q-31 31 -31 54zM727 240 q0 25 33 55l297 291l-297 288q-33 31 -33 56q0 23 31 53l139 139q25 25 51 25q31 0 68 -39l393 -403q39 -41 52.5 -58.5t13.5 -38.5v-47q0 -20 -10.5 -35.5t-29 -34l-26.5 -26.5l-393 -404q-37 -39 -68 -38q-27 0 -51 24l-139 139q-31 31 -31 54z" />
<glyph unicode="&#xbc;" horiz-adv-x="1748" d="M-25 1217q0 10 17 20l229 139q14 8 25.5 12.5t32.5 4.5h122q68 0 68 -64v-547h96q35 0 47.5 -14t12.5 -49v-72q0 -35 -12.5 -48t-47.5 -13h-477q-37 0 -50 14t-13 47v72q0 33 14 48t49 15h96v346l-86 -53q-8 -6 -18 -6q-12 0 -21 14l-77 119q-6 10 -7 15zM309 39 q0 18 13 37l776 1267q16 27 32.5 38.5t45.5 11.5h243q41 0 41 -39q0 -16 -10 -37l-784 -1280q-12 -20 -27.5 -28.5t-46.5 -8.5h-240q-20 0 -31.5 10t-11.5 29zM907 199v84q0 31 6.5 47t26.5 41l330 401q20 25 43.5 30t83.5 5h129q35 0 48 -14.5t13 -47.5v-395h55 q35 0 47.5 -13t12.5 -46v-72q0 -33 -11.5 -45t-48.5 -12h-55v-105q0 -35 -19.5 -46t-70.5 -11h-143q-37 0 -52.5 12.5t-15.5 44.5v105h-340q-39 0 -39 37zM1206 350h144v187z" />
<glyph unicode="&#xbd;" horiz-adv-x="1843" d="M-25 1217q0 10 17 20l229 139q14 8 25.5 12.5t32.5 4.5h122q68 0 68 -64v-547h96q35 0 47.5 -14t12.5 -49v-72q0 -35 -12.5 -48t-47.5 -13h-477q-37 0 -50 14t-13 47v72q0 33 14 48t49 15h96v346l-86 -53q-8 -6 -18 -6q-12 0 -21 14l-77 119q-6 10 -7 15zM309 39 q0 18 13 37l776 1267q16 27 32.5 38.5t45.5 11.5h243q41 0 41 -39q0 -16 -10 -37l-784 -1280q-12 -20 -27.5 -28.5t-46.5 -8.5h-240q-20 0 -31.5 10t-11.5 29zM1133 55v68q0 74 52 138.5t175 144.5l39 24q76 49 96.5 71.5t20.5 63.5q0 74 -105 74q-78 0 -168 -43 q-20 -8 -24 -8q-10 0 -19 14l-55 111q-8 20 -8 24q0 14 14 23q49 35 137 56.5t201 21.5q139 0 225 -63.5t86 -176.5q0 -88 -40 -146.5t-144 -121.5q-18 -10 -57 -34t-58.5 -41t-32.5 -40h281q33 0 45 -13.5t12 -45.5v-99q0 -31 -12 -44t-45 -13h-563q-29 0 -41 13.5 t-12 41.5z" />
<glyph unicode="&#xbe;" horiz-adv-x="1806" d="M43 664q0 8 8 24l55 103q8 14 19 14q6 0 22 -8q82 -41 160 -41q125 0 125 84q0 37 -19.5 54t-62.5 17h-78q-37 0 -51 14.5t-14 47.5v67q0 31 14.5 44.5t50.5 13.5h68q68 0 68 69q0 35 -21.5 52.5t-75.5 17.5q-47 0 -76.5 -10t-74.5 -31q-20 -8 -25 -8q-10 0 -18 14 l-54 103q-8 14 -8 26q0 10 11 19q49 35 127.5 54t173.5 19q156 0 249 -66.5t93 -178.5q0 -111 -84 -168q104 -51 104 -179q0 -119 -94 -189.5t-268 -70.5q-93 0 -179 19.5t-133 52.5q-12 10 -12 21zM350 39q0 18 12 37l777 1267q16 27 32.5 38.5t45.5 11.5h243q41 0 41 -39 q0 -16 -10 -37l-784 -1280q-12 -20 -27.5 -28.5t-46.5 -8.5h-240q-20 0 -31.5 10t-11.5 29zM948 199v84q0 31 6.5 47t26.5 41l330 401q20 25 43.5 30t83.5 5h129q35 0 48 -14.5t13 -47.5v-395h55q35 0 47.5 -13t12.5 -46v-72q0 -33 -11.5 -45t-48.5 -12h-55v-105 q0 -35 -19.5 -46t-70.5 -11h-143q-37 0 -52.5 12.5t-15.5 44.5v105h-340q-39 0 -39 37zM1247 350h144v187z" />
<glyph unicode="&#xbf;" horiz-adv-x="1144" d="M45 127q0 123 57.5 203t178.5 149q90 53 124.5 96t34.5 105v16q0 53 24.5 78t84.5 25h199q57 0 81.5 -24.5t24.5 -78.5v-20q0 -125 -59.5 -208t-192.5 -171q-90 -57 -116.5 -86t-26.5 -82q0 -57 45 -88t135 -31q78 0 149.5 23.5t129.5 62.5q27 16 40 17q20 0 35 -27 l90 -156q14 -25 15 -36q0 -20 -25 -39q-96 -68 -216 -104t-275 -36q-242 0 -389.5 108.5t-147.5 303.5zM428 989v47q0 49 37 76t108 27h150q72 0 107.5 -27t35.5 -76v-47q0 -49 -35.5 -76.5t-107.5 -27.5h-150q-71 0 -108 27.5t-37 76.5z" />
<glyph unicode="&#xc0;" horiz-adv-x="1529" d="M47 37q0 16 10 41l521 1245q16 39 35.5 54.5t58.5 15.5h186q39 0 58.5 -15.5t35.5 -54.5l521 -1245q10 -25 10 -39q0 -18 -11.5 -28.5t-31.5 -10.5h-318q-29 0 -45 11.5t-26 37.5l-72 197h-430l-70 -197q-10 -27 -26.5 -38t-46.5 -11h-316q-43 0 -43 37zM412 1817 q0 25 21.5 38t58.5 13h245q53 0 72.5 -14.5t34.5 -55.5l90 -248q6 -18 6 -32q0 -23 -17.5 -36.5t-52.5 -13.5h-182q-59 0 -81.5 13.5t-47.5 54.5l-133 236q-14 23 -14 45zM639 524h250l-125 348z" />
<glyph unicode="&#xc1;" horiz-adv-x="1529" d="M47 37q0 16 10 41l521 1245q16 39 35.5 54.5t58.5 15.5h186q39 0 58.5 -15.5t35.5 -54.5l521 -1245q10 -25 10 -39q0 -18 -11.5 -28.5t-31.5 -10.5h-318q-29 0 -45 11.5t-26 37.5l-72 197h-430l-70 -197q-10 -27 -26.5 -38t-46.5 -11h-316q-43 0 -43 37zM584 1520 q0 16 6 30l90 248q14 41 33.5 55.5t72.5 14.5h246q37 0 58.5 -13.5t21.5 -37.5q0 -23 -14 -45l-133 -236q-25 -41 -47.5 -54.5t-81.5 -13.5h-183q-69 1 -69 52zM639 524h250l-125 348z" />
<glyph unicode="&#xc2;" horiz-adv-x="1529" d="M47 37q0 16 10 41l521 1245q16 39 35.5 54.5t58.5 15.5h186q39 0 58.5 -15.5t35.5 -54.5l521 -1245q10 -25 10 -39q0 -18 -11.5 -28.5t-31.5 -10.5h-318q-29 0 -45 11.5t-26 37.5l-72 197h-430l-70 -197q-10 -27 -26.5 -38t-46.5 -11h-316q-43 0 -43 37zM328 1511 q0 25 24 56l197 256q29 35 45 45t65 10h207q49 0 66.5 -10t44.5 -45l197 -256q25 -31 24 -56q0 -18 -16.5 -29.5t-46.5 -11.5h-154q-49 0 -71.5 11.5t-43.5 42.5l-102 157l-105 -157q-18 -31 -40.5 -42.5t-71.5 -11.5h-154q-31 0 -48 11.5t-17 29.5zM639 524h250l-125 348z " />
<glyph unicode="&#xc3;" horiz-adv-x="1529" d="M47 37q0 16 10 41l521 1245q16 39 35.5 54.5t58.5 15.5h186q39 0 58.5 -15.5t35.5 -54.5l521 -1245q10 -25 10 -39q0 -18 -11.5 -28.5t-31.5 -10.5h-318q-29 0 -45 11.5t-26 37.5l-72 197h-430l-70 -197q-10 -27 -26.5 -38t-46.5 -11h-316q-43 0 -43 37zM295 1622 q0 29 27 64q63 88 120.5 127.5t139.5 39.5q59 0 107 -16t104 -45q47 -23 71.5 -32t53.5 -9q35 0 57 14.5t57 55.5q23 27 47 26q35 0 107 -53q35 -27 50 -47.5t15 -40.5q0 -31 -26 -66q-63 -92 -122 -132t-147 -40q-45 0 -83.5 13.5t-96.5 42.5q-47 23 -79.5 35t-65.5 12 q-37 0 -60.5 -14.5t-56.5 -51.5q-20 -25 -47 -24q-35 0 -107 55q-35 25 -50 45.5t-15 40.5zM639 524h250l-125 348z" />
<glyph unicode="&#xc4;" horiz-adv-x="1529" d="M47 37q0 16 10 41l521 1245q16 39 35.5 54.5t58.5 15.5h186q39 0 58.5 -15.5t35.5 -54.5l521 -1245q10 -25 10 -39q0 -18 -11.5 -28.5t-31.5 -10.5h-318q-29 0 -45 11.5t-26 37.5l-72 197h-430l-70 -197q-10 -27 -26.5 -38t-46.5 -11h-316q-43 0 -43 37zM393 1559v51 q0 55 35 93t90 38h55q55 0 90 -38t35 -93v-51q0 -55 -34.5 -93.5t-90.5 -38.5h-55q-55 0 -90 38t-35 94zM639 524h250l-125 348zM831 1559v51q0 55 36 93t89 38h56q55 0 90 -38t35 -93v-51q0 -55 -35 -93.5t-90 -38.5h-56q-53 0 -89 38t-36 94z" />
<glyph unicode="&#xc5;" horiz-adv-x="1529" d="M47 37q0 16 10 41l521 1245l18 37q-41 35 -63.5 85t-22.5 105q0 106 73.5 180t180.5 74q106 0 180 -73.5t74 -180.5q0 -55 -22.5 -104t-61.5 -86l18 -37l521 -1245q10 -25 10 -39q0 -18 -11.5 -28.5t-31.5 -10.5h-318q-29 0 -45 11.5t-26 37.5l-72 197h-430l-70 -197 q-10 -27 -26.5 -38t-46.5 -11h-316q-43 0 -43 37zM639 524h250l-125 348zM684 1550q0 -33 23.5 -56.5t56.5 -23.5t55.5 24t22.5 56q0 33 -22.5 55.5t-55.5 22.5t-56.5 -22.5t-23.5 -55.5z" />
<glyph unicode="&#xc6;" horiz-adv-x="1814" d="M47 39q0 14 10 39l521 1245q16 39 35.5 54.5t58.5 15.5h995q57 0 78.5 -23.5t21.5 -79.5v-94q0 -55 -21.5 -78.5t-78.5 -23.5h-489v-250h307q57 0 77.5 -23.5t20.5 -79.5v-90q0 -55 -20.5 -78.5t-77.5 -23.5h-307v-252h487q57 0 78.5 -23.5t21.5 -78.5v-95 q0 -53 -21.5 -76.5t-78.5 -23.5h-762q-59 0 -83.5 24.5t-24.5 77.5v148h-246l-72 -205q-10 -31 -34.5 -38t-82.5 -7h-270q-20 0 -31.5 10t-11.5 29zM627 524h168v510z" />
<glyph unicode="&#xc7;" horiz-adv-x="1390" d="M47 696q0 358 195.5 542.5t558.5 184.5q158 0 284.5 -31.5t212.5 -88.5q23 -14 23 -37q0 -14 -14 -43l-88 -150q-12 -27 -33 -26q-12 0 -41 14q-123 68 -289 67q-190 0 -293.5 -109.5t-103.5 -322.5t110.5 -323.5t300.5 -110.5q168 0 297 68q29 14 41 14q18 0 33 -25 l92 -157q13 -21 13 -37q0 -18 -25 -37q-137 -94 -379 -115q0 -10 -4 -16l-47 -102q70 -12 102.5 -49t32.5 -103q0 -78 -67.5 -129t-200.5 -51q-55 0 -114.5 10t-90.5 27q-18 10 -22.5 16t1.5 21l43 108q6 14 17 14q8 0 20 -6q41 -20 88 -20q68 0 68 43q0 31 -24.5 42 t-81.5 11h-35q-16 0 -21.5 9t0.5 24l56 139q4 12 8 16q-299 35 -461 217.5t-162 501.5z" />
<glyph unicode="&#xc8;" horiz-adv-x="1169" d="M88 102v1186q0 53 24.5 79t82.5 26h849q57 0 78 -23.5t21 -79.5v-94q0 -55 -20.5 -78.5t-78.5 -23.5h-542v-250h358q57 0 79 -23.5t22 -79.5v-90q0 -55 -21.5 -78.5t-79.5 -23.5h-358v-252h540q57 0 78 -23.5t21 -78.5v-95q0 -53 -20.5 -76.5t-78.5 -23.5h-847 q-60 0 -83.5 24.5t-23.5 77.5zM309 1866q0 25 21.5 38t58.5 13h246q53 0 72.5 -14.5t33.5 -55.5l90 -248q6 -18 7 -32q0 -23 -17.5 -36t-52.5 -13h-182q-60 0 -82.5 13t-46.5 54l-133 236q-14 23 -15 45z" />
<glyph unicode="&#xc9;" horiz-adv-x="1169" d="M88 102v1186q0 53 24.5 79t82.5 26h849q57 0 78 -23.5t21 -79.5v-94q0 -55 -20.5 -78.5t-78.5 -23.5h-542v-250h358q57 0 79 -23.5t22 -79.5v-90q0 -55 -21.5 -78.5t-79.5 -23.5h-358v-252h540q57 0 78 -23.5t21 -78.5v-95q0 -53 -20.5 -76.5t-78.5 -23.5h-847 q-60 0 -83.5 24.5t-23.5 77.5zM391 1569q0 16 6 30l90 248q14 41 34 55.5t73 14.5h246q37 0 58.5 -13.5t21.5 -37.5q0 -23 -15 -45l-133 -236q-25 -41 -47.5 -54t-81.5 -13h-182q-70 0 -70 51z" />
<glyph unicode="&#xca;" horiz-adv-x="1169" d="M88 102v1186q0 53 24.5 79t82.5 26h849q57 0 78 -23.5t21 -79.5v-94q0 -55 -20.5 -78.5t-78.5 -23.5h-542v-250h358q57 0 79 -23.5t22 -79.5v-90q0 -55 -21.5 -78.5t-79.5 -23.5h-358v-252h540q57 0 78 -23.5t21 -78.5v-95q0 -53 -20.5 -76.5t-78.5 -23.5h-847 q-60 0 -83.5 24.5t-23.5 77.5zM178 1561q0 25 25 55l196 256q29 35 45.5 45t65.5 10h207q49 0 66.5 -10t43.5 -45l197 -256q25 -31 25 -55q0 -18 -16.5 -29.5t-47.5 -11.5h-154q-49 0 -71.5 11t-42.5 42l-103 158l-104 -158q-18 -31 -41 -42t-72 -11h-153q-31 0 -48.5 11 t-17.5 30z" />
<glyph unicode="&#xcb;" horiz-adv-x="1169" d="M88 102v1186q0 53 24.5 79t82.5 26h849q57 0 78 -23.5t21 -79.5v-94q0 -55 -20.5 -78.5t-78.5 -23.5h-542v-250h358q57 0 79 -23.5t22 -79.5v-90q0 -55 -21.5 -78.5t-79.5 -23.5h-358v-252h540q57 0 78 -23.5t21 -78.5v-95q0 -53 -20.5 -76.5t-78.5 -23.5h-847 q-60 0 -83.5 24.5t-23.5 77.5zM238 1608v51q0 55 34.5 93t89.5 38h56q55 0 90 -38t35 -93v-51q0 -55 -35 -93t-90 -38h-56q-55 0 -89.5 37.5t-34.5 93.5zM676 1608v51q0 55 36 93t89 38h55q55 0 90 -38t35 -93v-51q0 -55 -35 -93t-90 -38h-55q-53 0 -89 37.5t-36 93.5z" />
<glyph unicode="&#xcc;" horiz-adv-x="589" d="M-57 1866q0 25 21.5 38t58.5 13h245q53 0 72.5 -14.5t34.5 -55.5l90 -248q6 -18 6 -32q0 -23 -17.5 -36t-52.5 -13h-182q-59 0 -81.5 13t-47.5 54l-133 236q-14 23 -14 45zM88 102v1186q0 53 24.5 79t82.5 26h198q59 0 84 -26t25 -79v-1186q0 -53 -24.5 -77.5 t-84.5 -24.5h-198q-60 0 -83.5 24.5t-23.5 77.5z" />
<glyph unicode="&#xcd;" horiz-adv-x="638" d="M113 102v1186q0 53 24.5 79t81.5 26h199q59 0 83.5 -26t24.5 -79v-1186q0 -53 -24.5 -77.5t-83.5 -24.5h-199q-59 0 -82.5 24.5t-23.5 77.5zM135 1569q0 16 6 30l90 248q14 41 34 55.5t73 14.5h246q37 0 58.5 -13.5t21.5 -37.5q0 -23 -15 -45l-133 -236 q-25 -41 -47.5 -54t-81.5 -13h-182q-70 0 -70 51z" />
<glyph unicode="&#xce;" horiz-adv-x="638" d="M-117 1575q0 25 25 55l196 256q29 35 45.5 45.5t65.5 10.5h207q49 0 66.5 -10.5t43.5 -45.5l197 -256q25 -31 25 -55q0 -18 -16.5 -29.5t-47.5 -11.5h-153q-49 0 -72 11t-43 42l-103 158l-104 -158q-18 -31 -40.5 -42t-72.5 -11h-153q-31 0 -48.5 11t-17.5 30zM113 102 v1186q0 53 24.5 79t81.5 26h199q59 0 83.5 -26t24.5 -79v-1186q0 -53 -24.5 -77.5t-83.5 -24.5h-199q-59 0 -82.5 24.5t-23.5 77.5z" />
<glyph unicode="&#xcf;" horiz-adv-x="638" d="M-35 1634v52q0 55 35 93t90 38h55q55 0 90 -38t35 -93v-52q0 -55 -34.5 -93t-90.5 -38h-55q-55 0 -90 38t-35 93zM113 102v1186q0 53 24.5 79t81.5 26h199q59 0 83.5 -26t24.5 -79v-1186q0 -53 -24.5 -77.5t-83.5 -24.5h-199q-59 0 -82.5 24.5t-23.5 77.5zM403 1634v52 q0 55 36 93t89 38h56q55 0 90 -38t35 -93v-52q0 -55 -35 -93t-90 -38h-56q-53 0 -89 38t-36 93z" />
<glyph unicode="&#xd0;" horiz-adv-x="1495" d="M6 649v96q0 55 20.5 78t75.5 23h68v442q0 53 24.5 79t84.5 26h450q719 0 719 -697q0 -350 -185.5 -523t-533.5 -173h-450q-60 0 -84.5 24.5t-24.5 77.5v447h-68q-55 0 -75.5 22.5t-20.5 77.5zM586 297h159q150 0 219.5 89t69.5 310t-69.5 309.5t-219.5 88.5h-159v-248 h188q55 0 75.5 -22.5t20.5 -78.5v-96q0 -55 -20.5 -77.5t-75.5 -22.5h-188v-252z" />
<glyph unicode="&#xd1;" horiz-adv-x="1433" d="M88 102v1188q0 53 24.5 78t84.5 25h161q37 0 58.5 -10.5t42.5 -41.5l473 -679v626q0 53 24.5 79t81.5 26h199q59 0 84 -26t25 -79v-1188q0 -53 -25 -76.5t-84 -23.5h-162q-39 0 -59.5 9t-40.5 40l-473 680v-629q0 -53 -24.5 -76.5t-84.5 -23.5h-198q-60 0 -83.5 24.5 t-23.5 77.5zM242 1671q0 29 26 64q63 88 120.5 128t139.5 40q59 0 107.5 -16.5t103.5 -45.5q47 -23 72 -32t53 -9q35 0 57.5 14.5t57.5 55.5q23 27 47 26q35 0 107 -53q35 -27 50 -47t15 -41q0 -31 -27 -65q-63 -92 -121.5 -132t-146.5 -40q-45 0 -84 13t-96 42 q-47 23 -80 35t-65 12q-37 0 -60.5 -14.5t-56.5 -51.5q-23 -25 -47 -24q-35 0 -107 55q-35 25 -50 45.5t-15 40.5z" />
<glyph unicode="&#xd2;" horiz-adv-x="1548" d="M47 696q0 348 185.5 537.5t541.5 189.5t541.5 -189.5t185.5 -537.5t-185.5 -537.5t-541.5 -189.5t-541.5 189.5t-185.5 537.5zM453 1866q0 25 21.5 38t57.5 13h246q53 0 72.5 -14.5t34.5 -55.5l90 -248q6 -18 6 -32q0 -23 -17.5 -36t-52.5 -13h-182q-59 0 -81.5 13 t-47.5 54l-133 236q-14 23 -14 45zM459 696q0 -217 76.5 -325.5t238.5 -108.5t239 108.5t77 325.5q0 215 -77 323.5t-239 108.5t-238.5 -108.5t-76.5 -323.5z" />
<glyph unicode="&#xd3;" horiz-adv-x="1548" d="M47 696q0 348 185.5 537.5t541.5 189.5t541.5 -189.5t185.5 -537.5t-185.5 -537.5t-541.5 -189.5t-541.5 189.5t-185.5 537.5zM459 696q0 -217 76.5 -325.5t238.5 -108.5t239 108.5t77 325.5q0 215 -77 323.5t-239 108.5t-238.5 -108.5t-76.5 -323.5zM590 1569q0 16 6 30 l90 248q14 41 33.5 55.5t73.5 14.5h245q37 0 58.5 -13.5t21.5 -37.5q0 -23 -14 -45l-133 -236q-25 -41 -47.5 -54t-81.5 -13h-183q-69 0 -69 51z" />
<glyph unicode="&#xd4;" horiz-adv-x="1548" d="M47 696q0 348 185.5 537.5t541.5 189.5t541.5 -189.5t185.5 -537.5t-185.5 -537.5t-541.5 -189.5t-541.5 189.5t-185.5 537.5zM342 1561q0 25 25 55l196 256q29 35 45.5 45t65.5 10h207q49 0 66.5 -10t43.5 -45l197 -256q25 -31 24 -55q0 -18 -16 -29.5t-47 -11.5h-154 q-49 0 -71.5 11t-42.5 42l-103 158l-104 -158q-18 -31 -41 -42t-72 -11h-153q-31 0 -48.5 11t-17.5 30zM459 696q0 -217 76.5 -325.5t238.5 -108.5t239 108.5t77 325.5q0 215 -77 323.5t-239 108.5t-238.5 -108.5t-76.5 -323.5z" />
<glyph unicode="&#xd5;" horiz-adv-x="1548" d="M47 696q0 348 185.5 537.5t541.5 189.5t541.5 -189.5t185.5 -537.5t-185.5 -537.5t-541.5 -189.5t-541.5 189.5t-185.5 537.5zM305 1671q0 29 27 64q63 88 120.5 128t139.5 40q59 0 107.5 -16.5t103.5 -45.5q47 -23 71.5 -32t53.5 -9q35 0 57.5 14.5t56.5 55.5 q23 27 48 26q35 0 106 -53q35 -27 50.5 -47t15.5 -41q0 -31 -27 -65q-63 -92 -121.5 -132t-146.5 -40q-45 0 -84 13t-97 42q-47 23 -79.5 35t-65.5 12q-37 0 -60.5 -14.5t-56.5 -51.5q-20 -25 -47 -24q-35 0 -106 55q-35 25 -50.5 45.5t-15.5 40.5zM459 696 q0 -217 76.5 -325.5t238.5 -108.5t239 108.5t77 325.5q0 215 -77 323.5t-239 108.5t-238.5 -108.5t-76.5 -323.5z" />
<glyph unicode="&#xd6;" horiz-adv-x="1548" d="M47 696q0 348 185.5 537.5t541.5 189.5t541.5 -189.5t185.5 -537.5t-185.5 -537.5t-541.5 -189.5t-541.5 189.5t-185.5 537.5zM406 1634v52q0 55 34.5 93t89.5 38h56q55 0 90 -38t35 -93v-52q0 -55 -35 -93t-90 -38h-56q-55 0 -89.5 38t-34.5 93zM459 696 q0 -217 76.5 -325.5t238.5 -108.5t239 108.5t77 325.5q0 215 -77 323.5t-239 108.5t-238.5 -108.5t-76.5 -323.5zM844 1634v52q0 55 35.5 93t89.5 38h55q55 0 90 -38t35 -93v-52q0 -55 -35 -93t-90 -38h-55q-54 0 -89.5 38t-35.5 93z" />
<glyph unicode="&#xd7;" horiz-adv-x="819" d="M68 428q0 33 36 68l125 125l-125 127q-37 35 -36 67q0 33 36 70l62 61q39 39 70 39t67 -37l127 -127l127 127q37 37 68 37t69 -39l60 -61q39 -39 39 -70q0 -33 -37 -67l-125 -127l125 -125q37 -35 37 -68q0 -31 -39 -70l-62 -59q-39 -39 -69 -39q-31 0 -66 35l-127 127 l-127 -127q-34 -35 -65 -35t-70 39l-62 59q-39 39 -38 70z" />
<glyph unicode="&#xd8;" horiz-adv-x="1548" d="M47 696q0 348 185.5 537.5t541.5 189.5q33 0 98 -4l31 78q16 41 62 41h295q35 0 34 -29q0 -18 -8 -34l-65 -164q139 -88 209.5 -244t70.5 -371q0 -348 -185.5 -537.5t-541.5 -189.5q-33 0 -98 4l-43 -108q-16 -41 -60 -41h-297q-35 0 -34 31q0 8 8 32l78 195 q-139 88 -210 243.5t-71 370.5zM459 696q-1 -127 28 -223l267 655q-150 -8 -222.5 -115.5t-72.5 -316.5zM795 262q149 8 222 116.5t73 317.5q0 127 -29 224z" />
<glyph unicode="&#xd9;" horiz-adv-x="1466" d="M78 504v784q0 53 24.5 79t81.5 26h199q59 0 84 -26t25 -79v-790q0 -115 64.5 -175.5t176.5 -60.5q113 0 176.5 60.5t63.5 175.5v790q0 53 24.5 79t81.5 26h199q59 0 85 -26t26 -79v-784q0 -166 -83 -287t-230.5 -184.5t-342.5 -63.5q-194 0 -342.5 63.5t-230.5 184.5 t-82 287zM434 1866q0 25 21.5 38t58.5 13h246q53 0 72.5 -14.5t33.5 -55.5l90 -248q6 -18 7 -32q0 -23 -17.5 -36t-52.5 -13h-182q-60 0 -82.5 13t-46.5 54l-133 236q-14 23 -15 45z" />
<glyph unicode="&#xda;" horiz-adv-x="1466" d="M78 504v784q0 53 24.5 79t81.5 26h199q59 0 84 -26t25 -79v-790q0 -115 64.5 -175.5t176.5 -60.5q113 0 176.5 60.5t63.5 175.5v790q0 53 24.5 79t81.5 26h199q59 0 85 -26t26 -79v-784q0 -166 -83 -287t-230.5 -184.5t-342.5 -63.5q-194 0 -342.5 63.5t-230.5 184.5 t-82 287zM557 1569q0 16 6 30l90 248q14 41 34 55.5t73 14.5h246q37 0 58 -13.5t21 -37.5q0 -23 -14 -45l-133 -236q-25 -41 -47.5 -54t-81.5 -13h-182q-70 0 -70 51z" />
<glyph unicode="&#xdb;" horiz-adv-x="1466" d="M78 504v784q0 53 24.5 79t81.5 26h199q59 0 84 -26t25 -79v-790q0 -115 64.5 -175.5t176.5 -60.5q113 0 176.5 60.5t63.5 175.5v790q0 53 24.5 79t81.5 26h199q59 0 85 -26t26 -79v-784q0 -166 -83 -287t-230.5 -184.5t-342.5 -63.5q-194 0 -342.5 63.5t-230.5 184.5 t-82 287zM301 1561q0 25 25 55l196 256q29 35 45.5 45t65.5 10h207q49 0 66.5 -10t43.5 -45l197 -256q25 -31 24 -55q0 -18 -16 -29.5t-47 -11.5h-154q-49 0 -71.5 11t-42.5 42l-103 158l-104 -158q-18 -31 -41 -42t-72 -11h-153q-31 0 -48.5 11t-17.5 30z" />
<glyph unicode="&#xdc;" horiz-adv-x="1466" d="M78 504v784q0 53 24.5 79t81.5 26h199q59 0 84 -26t25 -79v-790q0 -115 64.5 -175.5t176.5 -60.5q113 0 176.5 60.5t63.5 175.5v790q0 53 24.5 79t81.5 26h199q59 0 85 -26t26 -79v-784q0 -166 -83 -287t-230.5 -184.5t-342.5 -63.5q-194 0 -342.5 63.5t-230.5 184.5 t-82 287zM362 1628v51q0 55 35 93t90 38h56q55 0 90 -37.5t35 -93.5v-51q0 -55 -35 -93t-90 -38h-56q-55 0 -90 38t-35 93zM801 1628v51q0 55 35.5 93t89.5 38h55q55 0 90 -37.5t35 -93.5v-51q0 -55 -35 -93t-90 -38h-55q-54 0 -89.5 38t-35.5 93z" />
<glyph unicode="&#xdd;" horiz-adv-x="1507" d="M47 1352q0 18 11.5 29.5t33.5 11.5h316q29 0 43 -11.5t28 -38.5l275 -483l272 483q14 27 28.5 38.5t43.5 11.5h317q43 0 43 -41q0 -16 -10 -37l-487 -836v-377q0 -53 -25 -77.5t-84 -24.5h-199q-59 0 -83.5 24.5t-24.5 77.5v379l-486 834q-12 18 -12 37zM602 1569 q0 16 6 30l90 248q14 41 34 55.5t73 14.5h246q37 0 58 -13.5t21 -37.5q0 -23 -14 -45l-133 -236q-25 -41 -47.5 -54t-81.5 -13h-182q-70 0 -70 51z" />
<glyph unicode="&#xde;" horiz-adv-x="1300" d="M88 102v1186q0 53 24.5 79t82.5 26h198q59 0 84 -26t25 -79v-112h194q287 0 422 -121t135 -359t-134 -358.5t-423 -120.5h-194v-115q0 -53 -24.5 -77.5t-84.5 -24.5h-198q-60 0 -83.5 24.5t-23.5 77.5zM502 516h162q84 0 130 45t46 135t-46 135.5t-130 45.5h-162v-361z " />
<glyph unicode="&#xdf;" horiz-adv-x="1347" d="M78 102v891q0 223 149.5 352.5t440.5 129.5q295 0 445.5 -118t150.5 -331q0 -113 -43 -194.5t-117 -112.5q96 -33 146 -121t50 -203q0 -203 -107.5 -314.5t-313.5 -111.5q-199 0 -324 84q-20 12 -20 35q0 18 12 37l90 154q10 18 25 18q14 0 24 -8q35 -23 90 -23 q104 0 105 156q0 88 -46.5 119.5t-150.5 31.5q-47 0 -69.5 15.5t-22.5 54.5v133q0 39 18.5 54.5t65.5 15.5q92 0 133 30.5t41 110.5t-40 116t-138 36q-88 0 -134 -45t-46 -125v-867q0 -53 -26 -77.5t-85 -24.5h-195q-59 0 -83.5 24.5t-24.5 77.5z" />
<glyph unicode="&#xe0;" horiz-adv-x="1265" d="M47 442q0 172 79 301t223.5 200t332.5 71q156 0 275.5 -34t220.5 -97v-820q0 -39 -14.5 -51t-57.5 -12h-209q-23 0 -35 7t-20 24l-27 61q-59 -63 -142 -93t-202 -30q-192 0 -308 124t-116 349zM395 1444q0 25 21.5 38t58.5 13h246q53 0 72.5 -14.5t33.5 -55.5l91 -247 q6 -18 6 -33q0 -23 -17.5 -36t-52.5 -13h-182q-60 0 -82.5 13t-46.5 54l-133 236q-14 23 -15 45zM459 446q0 -199 166 -198q80 0 125 39t45 110v320q-39 18 -99 18q-109 0 -173 -75.5t-64 -213.5z" />
<glyph unicode="&#xe1;" horiz-adv-x="1265" d="M47 442q0 172 79 301t223.5 200t332.5 71q156 0 275.5 -34t220.5 -97v-820q0 -39 -14.5 -51t-57.5 -12h-209q-23 0 -35 7t-20 24l-27 61q-59 -63 -142 -93t-202 -30q-192 0 -308 124t-116 349zM459 446q0 -199 166 -198q80 0 125 39t45 110v320q-39 18 -99 18 q-109 0 -173 -75.5t-64 -213.5zM485 1147q0 16 7 31l90 247q14 41 33.5 55.5t72.5 14.5h246q37 0 58.5 -13.5t21.5 -37.5q0 -23 -15 -45l-133 -236q-25 -41 -47 -54t-82 -13h-182q-70 0 -70 51z" />
<glyph unicode="&#xe2;" horiz-adv-x="1265" d="M47 442q0 172 79 301t223.5 200t332.5 71q156 0 275.5 -34t220.5 -97v-820q0 -39 -14.5 -51t-57.5 -12h-209q-23 0 -35 7t-20 24l-27 61q-59 -63 -142 -93t-202 -30q-192 0 -308 124t-116 349zM242 1139q0 25 24 55l197 256q29 35 45 45t65 10h207q49 0 66.5 -10 t44.5 -45l196 -256q25 -31 25 -55q0 -18 -16.5 -29.5t-46.5 -11.5h-154q-49 0 -71.5 11t-43.5 42l-102 158l-105 -158q-18 -31 -40.5 -42t-71.5 -11h-154q-31 0 -48 11t-17 30zM459 446q0 -199 166 -198q80 0 125 39t45 110v320q-39 18 -99 18q-109 0 -173 -75.5t-64 -213.5 z" />
<glyph unicode="&#xe3;" horiz-adv-x="1265" d="M47 442q0 172 79 301t223.5 200t332.5 71q156 0 275.5 -34t220.5 -97v-820q0 -39 -14.5 -51t-57.5 -12h-209q-23 0 -35 7t-20 24l-27 61q-59 -63 -142 -93t-202 -30q-192 0 -308 124t-116 349zM233 1282q0 29 27 64q63 88 120.5 127.5t139.5 39.5q59 0 107.5 -16 t103.5 -45q47 -23 71.5 -32t53.5 -9q35 0 57.5 14.5t57.5 55.5q23 27 47 26q35 0 106 -53q35 -27 50.5 -47.5t15.5 -40.5q0 -31 -27 -66q-63 -92 -121.5 -132t-146.5 -40q-45 0 -84 13.5t-96 42.5q-47 23 -80 35t-66 12q-37 0 -60.5 -14.5t-55.5 -51.5q-20 -25 -47 -24 q-37 0 -107 55q-35 25 -50.5 45.5t-15.5 40.5zM459 446q0 -199 166 -198q80 0 125 39t45 110v320q-39 18 -99 18q-109 0 -173 -75.5t-64 -213.5z" />
<glyph unicode="&#xe4;" horiz-adv-x="1265" d="M47 442q0 172 79 301t223.5 200t332.5 71q156 0 275.5 -34t220.5 -97v-820q0 -39 -14.5 -51t-57.5 -12h-209q-23 0 -35 7t-20 24l-27 61q-59 -63 -142 -93t-202 -30q-192 0 -308 124t-116 349zM324 1219v51q0 55 34.5 93t90.5 38h55q55 0 90 -38t35 -93v-51 q0 -55 -35 -93.5t-90 -38.5h-55q-56 0 -90.5 38t-34.5 94zM459 446q0 -199 166 -198q80 0 125 39t45 110v320q-39 18 -99 18q-109 0 -173 -75.5t-64 -213.5zM762 1219v51q0 55 36 93t89 38h55q55 0 90 -38t35 -93v-51q0 -55 -35 -93.5t-90 -38.5h-55q-53 0 -89 38t-36 94z " />
<glyph unicode="&#xe5;" horiz-adv-x="1265" d="M47 442q0 172 79 301t223.5 200t332.5 71q156 0 275.5 -34t220.5 -97v-820q0 -39 -14.5 -51t-57.5 -12h-209q-23 0 -35 7t-20 24l-27 61q-59 -63 -142 -93t-202 -30q-192 0 -308 124t-116 349zM440 1364q0 106 74 180t180 74t180 -74t74 -180t-73.5 -180t-180.5 -74 q-106 0 -180 73.5t-74 180.5zM459 446q0 -199 166 -198q80 0 125 39t45 110v320q-39 18 -99 18q-109 0 -173 -75.5t-64 -213.5zM614 1364q0 -33 24 -56.5t56 -23.5q33 0 55.5 23.5t22.5 56.5t-22.5 55.5t-55.5 22.5t-56.5 -22.5t-23.5 -55.5z" />
<glyph unicode="&#xe6;" horiz-adv-x="1906" d="M47 291q0 164 106.5 241.5t317.5 77.5h262v23q0 61 -43 94t-168 33q-68 0 -138.5 -14.5t-117.5 -36.5q-25 -10 -35 -11q-20 0 -32 27l-68 129q-10 20 -10 31q0 18 26 37q145 92 394 92q285 0 395 -162q57 78 152.5 120t220.5 42q272 0 411.5 -134.5t139.5 -371.5 q0 -53 -20.5 -77.5t-67.5 -24.5h-635q0 -84 69.5 -133.5t192.5 -49.5q84 0 137 15.5t113 46.5q25 10 32 10q18 0 31 -25l70 -131q10 -20 10 -30q0 -20 -25 -35q-90 -55 -184 -80t-229 -25q-143 0 -250 47t-168 140q-78 -92 -193.5 -139.5t-259.5 -47.5q-202 0 -319 80 t-117 242zM391 313q0 -90 139 -90q203 0 203 160v27h-221q-61 0 -91 -21.5t-30 -75.5zM1137 608h358q0 164 -180 164q-90 0 -134 -43t-44 -121z" />
<glyph unicode="&#xe7;" horiz-adv-x="1148" d="M47 489q0 156 71.5 275t208 184.5t322.5 65.5q141 0 238.5 -26.5t173.5 -82.5q23 -14 22 -37q0 -16 -16 -43l-84 -145q-14 -29 -35 -29q-12 0 -39 17q-55 35 -103 51t-120 16q-102 0 -164.5 -65.5t-62.5 -180.5q0 -117 63.5 -179t173.5 -62q66 0 119 18.5t109 50.5 q29 16 41 17q18 0 32 -29l93 -158q10 -20 10 -32q0 -18 -25 -35q-70 -45 -148.5 -71.5t-176.5 -35.5q10 -2 10 -14q0 -10 -4 -16l-47 -103q70 -12 102.5 -49t32.5 -102q0 -78 -67.5 -129.5t-201.5 -51.5q-55 0 -114.5 10.5t-89.5 26.5q-18 10 -22.5 16.5t1.5 20.5l43 109 q6 14 17 14q8 0 20 -6q41 -20 88 -21q68 0 68 43q0 31 -24.5 42.5t-82.5 11.5h-35q-16 0 -21 9t1 23l55 140q6 16 15.5 22t29.5 6h4q-231 27 -356 158t-125 356z" />
<glyph unicode="&#xe8;" horiz-adv-x="1216" d="M47 479q0 260 147.5 397.5t423.5 137.5q270 0 410.5 -134.5t140.5 -371.5q0 -102 -90 -102h-643q0 -88 66.5 -135.5t202.5 -47.5q84 0 140 15.5t113 46.5q25 10 33 10q18 0 31 -25l70 -131q10 -20 10 -30q0 -18 -25 -35q-84 -55 -190.5 -80t-243.5 -25q-172 0 -306 57.5 t-212 172t-78 280.5zM309 1444q0 25 21.5 38t58.5 13h246q53 0 72.5 -14.5t33.5 -55.5l90 -247q6 -18 7 -33q0 -23 -17.5 -36t-52.5 -13h-182q-60 0 -82.5 13t-46.5 54l-133 236q-14 23 -15 45zM436 608h365q0 78 -45 121t-135 43t-137.5 -44t-47.5 -120z" />
<glyph unicode="&#xe9;" horiz-adv-x="1216" d="M47 479q0 260 147.5 397.5t423.5 137.5q270 0 410.5 -134.5t140.5 -371.5q0 -102 -90 -102h-643q0 -88 66.5 -135.5t202.5 -47.5q84 0 140 15.5t113 46.5q25 10 33 10q18 0 31 -25l70 -131q10 -20 10 -30q0 -18 -25 -35q-84 -55 -190.5 -80t-243.5 -25q-172 0 -306 57.5 t-212 172t-78 280.5zM436 608h365q0 78 -45 121t-135 43t-137.5 -44t-47.5 -120zM455 1147q0 16 6 31l90 247q14 41 33.5 55.5t72.5 14.5h246q37 0 58.5 -13.5t21.5 -37.5q0 -23 -14 -45l-133 -236q-25 -41 -47.5 -54t-81.5 -13h-183q-69 0 -69 51z" />
<glyph unicode="&#xea;" horiz-adv-x="1216" d="M47 479q0 260 147.5 397.5t423.5 137.5q270 0 410.5 -134.5t140.5 -371.5q0 -102 -90 -102h-643q0 -88 66.5 -135.5t202.5 -47.5q84 0 140 15.5t113 46.5q25 10 33 10q18 0 31 -25l70 -131q10 -20 10 -30q0 -18 -25 -35q-84 -55 -190.5 -80t-243.5 -25q-172 0 -306 57.5 t-212 172t-78 280.5zM201 1139q0 25 24 55l197 256q29 35 45 45t65 10h207q49 0 66.5 -10t44.5 -45l197 -256q25 -31 24 -55q0 -18 -16.5 -29.5t-46.5 -11.5h-154q-49 0 -71.5 11t-43.5 42l-102 158l-105 -158q-18 -31 -40.5 -42t-71.5 -11h-154q-30 0 -47.5 11t-17.5 30z M436 608h365q0 78 -45 121t-135 43t-137.5 -44t-47.5 -120z" />
<glyph unicode="&#xeb;" horiz-adv-x="1216" d="M47 479q0 260 147.5 397.5t423.5 137.5q270 0 410.5 -134.5t140.5 -371.5q0 -102 -90 -102h-643q0 -88 66.5 -135.5t202.5 -47.5q84 0 140 15.5t113 46.5q25 10 33 10q18 0 31 -25l70 -131q10 -20 10 -30q0 -18 -25 -35q-84 -55 -190.5 -80t-243.5 -25q-172 0 -306 57.5 t-212 172t-78 280.5zM266 1214v52q0 55 35 93t90 38h55q55 0 90 -38t35 -93v-52q0 -55 -34.5 -93t-90.5 -38h-55q-55 0 -90 38t-35 93zM436 608h365q0 78 -45 121t-135 43t-137.5 -44t-47.5 -120zM705 1214v52q0 55 35.5 93t88.5 38h56q55 0 90 -38t35 -93v-52 q0 -55 -35 -93t-90 -38h-56q-53 0 -88.5 38t-35.5 93z" />
<glyph unicode="&#xec;" horiz-adv-x="589" d="M-57 1444q0 25 21.5 38t58.5 13h245q53 0 72.5 -14.5t34.5 -55.5l90 -247q6 -18 6 -33q0 -23 -17.5 -36t-52.5 -13h-182q-59 0 -81.5 13t-47.5 54l-133 236q-14 23 -14 45zM88 102v777q0 53 24.5 78.5t82.5 25.5h198q59 0 84 -25.5t25 -78.5v-777q0 -53 -24.5 -77.5 t-84.5 -24.5h-198q-60 0 -83.5 24.5t-23.5 77.5z" />
<glyph unicode="&#xed;" horiz-adv-x="618" d="M98 1159q0 16 6 31l91 248q14 41 33.5 55t72.5 14h246q37 0 58.5 -13t21.5 -38q0 -23 -15 -45l-133 -235q-25 -41 -47 -54.5t-82 -13.5h-182q-70 0 -70 51zM102 102v777q0 53 25 78.5t82 25.5h199q59 0 83.5 -25.5t24.5 -78.5v-777q0 -53 -24.5 -77.5t-83.5 -24.5h-199 q-59 0 -83 24.5t-24 77.5z" />
<glyph unicode="&#xee;" horiz-adv-x="618" d="M-125 1126q0 25 25 56l196 256q29 35 45.5 45t65.5 10h207q49 0 66.5 -10t43.5 -45l197 -256q25 -31 24 -56q0 -18 -16 -29.5t-47 -11.5h-154q-49 0 -71.5 11.5t-42.5 42.5l-103 157l-104 -157q-18 -31 -41 -42.5t-72 -11.5h-153q-31 0 -48.5 11.5t-17.5 29.5zM102 102 v777q0 53 25 78.5t82 25.5h199q59 0 83.5 -25.5t24.5 -78.5v-777q0 -53 -24.5 -77.5t-83.5 -24.5h-199q-59 0 -83 24.5t-24 77.5z" />
<glyph unicode="&#xef;" horiz-adv-x="618" d="M-51 1206v51q0 55 34.5 93.5t90.5 38.5h55q55 0 90 -38t35 -94v-51q0 -55 -35 -93t-90 -38h-55q-56 0 -90.5 38t-34.5 93zM102 102v777q0 53 25 78.5t82 25.5h199q59 0 83.5 -25.5t24.5 -78.5v-777q0 -53 -24.5 -77.5t-83.5 -24.5h-199q-59 0 -83 24.5t-24 77.5z M387 1206v51q0 55 36 93.5t89 38.5h55q55 0 90 -38t35 -94v-51q0 -55 -34.5 -93t-90.5 -38h-55q-53 0 -89 38t-36 93z" />
<glyph unicode="&#xf0;" horiz-adv-x="1374" d="M47 395q0 174 75 304t212 202t315 72q111 0 188.5 -27.5t141.5 -85.5q-2 86 -16.5 133t-55.5 78l-26 -39q-14 -23 -39 -22h-187q-14 0 -18 8t2 18l76 105q-12 2 -37 2q-111 0 -262 -64q-27 -12 -43 -12q-18 0 -29 25l-53 145q-8 25 -8 35q0 29 30 45q184 106 449 106 q80 0 143 -14l27 37q14 20 33 20h186q14 0 18.5 -8t-2.5 -18l-71 -103q106 -68 165.5 -185.5t59.5 -285.5q0 -109 -29 -248q-72 -334 -273.5 -491.5t-471.5 -157.5q-271 0 -385.5 104.5t-114.5 321.5zM455 408q0 -145 153 -146q211 0 252 285q4 33 4 45q0 74 -40 110.5 t-115 36.5q-121 0 -187.5 -77.5t-66.5 -253.5z" />
<glyph unicode="&#xf1;" horiz-adv-x="1239" d="M88 102v818q0 37 13.5 50t56.5 13h211q25 0 38 -7t15 -26l10 -61q57 57 150.5 91t208.5 34q166 0 268 -93.5t102 -275.5v-543q0 -53 -23.5 -77.5t-82.5 -24.5h-199q-59 0 -85 24.5t-26 77.5v516q0 61 -26.5 88t-83.5 27q-61 0 -97 -32.5t-36 -90.5v-508 q0 -53 -23.5 -77.5t-83.5 -24.5h-198q-60 0 -84.5 24.5t-24.5 77.5zM137 1282q0 29 27 64q63 88 120.5 127.5t139.5 39.5q59 0 107.5 -16t103.5 -45q47 -23 71.5 -32t53.5 -9q35 0 57.5 14.5t56.5 55.5q23 27 48 26q35 0 106 -53q35 -27 50.5 -47.5t15.5 -40.5 q0 -31 -27 -66q-63 -92 -121.5 -132t-146.5 -40q-45 0 -84 13.5t-97 42.5q-47 23 -79.5 35t-65.5 12q-37 0 -60.5 -14.5t-56.5 -51.5q-20 -25 -47 -24q-35 0 -106 55q-35 25 -50.5 45.5t-15.5 40.5z" />
<glyph unicode="&#xf2;" horiz-adv-x="1280" d="M47 492q0 242 155.5 382t436.5 140t437.5 -140.5t156.5 -381.5q0 -242 -156.5 -382.5t-437.5 -140.5t-436.5 140.5t-155.5 382.5zM295 1444q0 25 21.5 38t58.5 13h246q53 0 72.5 -14.5t33.5 -55.5l90 -247q6 -18 6 -33q0 -23 -17.5 -36t-51.5 -13h-183q-59 0 -81.5 13 t-47.5 54l-133 236q-14 23 -14 45zM459 492q0 -115 47 -172.5t133 -57.5q180 1 180 230q0 225 -180 225t-180 -225z" />
<glyph unicode="&#xf3;" horiz-adv-x="1280" d="M47 492q0 242 155.5 382t436.5 140t437.5 -140.5t156.5 -381.5q0 -242 -156.5 -382.5t-437.5 -140.5t-436.5 140.5t-155.5 382.5zM422 1147q0 16 6 31l90 247q14 41 33.5 55.5t73.5 14.5h245q37 0 58.5 -13.5t21.5 -37.5q0 -23 -14 -45l-133 -236q-25 -41 -47.5 -54 t-81.5 -13h-182q-70 0 -70 51zM459 492q0 -115 47 -172.5t133 -57.5q180 1 180 230q0 225 -180 225t-180 -225z" />
<glyph unicode="&#xf4;" horiz-adv-x="1280" d="M47 492q0 242 155.5 382t436.5 140t437.5 -140.5t156.5 -381.5q0 -242 -156.5 -382.5t-437.5 -140.5t-436.5 140.5t-155.5 382.5zM203 1139q0 25 24 55l197 256q29 35 45 45t66 10h206q49 0 66.5 -10t44.5 -45l197 -256q25 -31 24 -55q0 -18 -16.5 -29.5t-46.5 -11.5 h-154q-49 0 -71.5 11t-43.5 42l-102 158l-104 -158q-18 -31 -41 -42t-72 -11h-154q-30 0 -47.5 11t-17.5 30zM459 492q0 -115 47 -172.5t133 -57.5q180 1 180 230q0 225 -180 225t-180 -225z" />
<glyph unicode="&#xf5;" horiz-adv-x="1280" d="M47 492q0 242 155.5 382t436.5 140t437.5 -140.5t156.5 -381.5q0 -242 -156.5 -382.5t-437.5 -140.5t-436.5 140.5t-155.5 382.5zM170 1266q0 29 27 63q63 88 120.5 128t139.5 40q59 0 107 -16.5t104 -44.5q47 -23 71.5 -32t53.5 -9q35 0 57 14t57 55q23 27 47 27 q35 0 107 -53q35 -27 50 -47.5t15 -40.5q0 -31 -26 -66q-63 -92 -121.5 -132t-147.5 -40q-45 0 -83.5 13.5t-96.5 41.5q-47 23 -79.5 35t-65.5 12q-37 0 -60.5 -14t-56.5 -51q-23 -25 -47 -25q-35 0 -106 56q-35 25 -50.5 45t-15.5 41zM459 492q0 -115 47 -172.5t133 -57.5 q180 1 180 230q0 225 -180 225t-180 -225z" />
<glyph unicode="&#xf6;" horiz-adv-x="1280" d="M47 492q0 242 155.5 382t436.5 140t437.5 -140.5t156.5 -381.5q0 -242 -156.5 -382.5t-437.5 -140.5t-436.5 140.5t-155.5 382.5zM266 1219v51q0 55 35 93t90 38h55q55 0 90 -38t35 -93v-51q0 -55 -34.5 -93.5t-90.5 -38.5h-55q-55 0 -90 38t-35 94zM459 492 q0 -115 47 -172.5t133 -57.5q180 1 180 230q0 225 -180 225t-180 -225zM705 1219v51q0 55 35.5 93t88.5 38h56q55 0 90 -38t35 -93v-51q0 -55 -35 -93.5t-90 -38.5h-56q-53 0 -88.5 38t-35.5 94z" />
<glyph unicode="&#xf7;" horiz-adv-x="958" d="M47 569v103q0 51 19.5 74.5t74.5 23.5h676q55 0 74.5 -23.5t19.5 -74.5v-103q0 -51 -19.5 -74.5t-74.5 -23.5h-676q-55 0 -74.5 23.5t-19.5 74.5zM336 240v47q0 49 30.5 81.5t79.5 32.5h48q49 0 79.5 -32.5t30.5 -81.5v-47q0 -47 -30.5 -81t-79.5 -34h-48q-47 0 -78.5 34 t-31.5 81zM336 954v47q0 49 30.5 82t79.5 33h48q49 0 79.5 -32.5t30.5 -82.5v-47q0 -47 -30.5 -80.5t-79.5 -33.5h-48q-47 0 -78.5 33.5t-31.5 80.5z" />
<glyph unicode="&#xf8;" horiz-adv-x="1280" d="M47 492q0 242 155.5 382t436.5 140h10l47 119q16 41 62 41h295q35 0 34 -29q0 -18 -8 -35l-73 -184q110 -66 168.5 -177.5t58.5 -256.5q0 -242 -156.5 -382.5t-437.5 -140.5h-16l-43 -104q-16 -41 -60 -41h-297q-35 0 -35 31q0 8 9 32l69 174q-106 68 -162.5 177.5 t-56.5 253.5zM459 492q0 -115 47 -172.5t133 -57.5q180 1 180 230q0 225 -180 225t-180 -225z" />
<glyph unicode="&#xf9;" horiz-adv-x="1234" d="M78 348v531q0 53 24.5 78.5t81.5 25.5h199q59 0 84 -25.5t25 -78.5v-514q0 -117 112 -117q61 0 94 32.5t33 92.5v506q0 53 24.5 78.5t84.5 25.5h198q59 0 84 -25.5t25 -78.5v-816q0 -39 -13.5 -51t-56.5 -12h-211q-25 0 -38 6t-15 25l-10 63q-59 -57 -147.5 -91 t-200.5 -34q-179 0 -278 93.5t-99 285.5zM330 1444q0 25 21.5 38t58.5 13h245q53 0 73 -14.5t34 -55.5l90 -247q6 -18 6 -33q0 -23 -17.5 -36t-52.5 -13h-182q-59 0 -81.5 13t-47.5 54l-133 236q-14 23 -14 45z" />
<glyph unicode="&#xfa;" horiz-adv-x="1234" d="M78 348v531q0 53 24.5 78.5t81.5 25.5h199q59 0 84 -25.5t25 -78.5v-514q0 -117 112 -117q61 0 94 32.5t33 92.5v506q0 53 24.5 78.5t84.5 25.5h198q59 0 84 -25.5t25 -78.5v-816q0 -39 -13.5 -51t-56.5 -12h-211q-25 0 -38 6t-15 25l-10 63q-59 -57 -147.5 -91 t-200.5 -34q-179 0 -278 93.5t-99 285.5zM416 1147q0 16 6 31l90 247q14 41 33.5 55.5t72.5 14.5h246q37 0 58.5 -13.5t21.5 -37.5q0 -23 -14 -45l-133 -236q-25 -41 -47.5 -54t-81.5 -13h-183q-69 0 -69 51z" />
<glyph unicode="&#xfb;" horiz-adv-x="1275" d="M78 348v531q0 53 24.5 78.5t81.5 25.5h199q59 0 84 -25.5t25 -78.5v-514q0 -117 112 -117q61 0 94 32.5t33 92.5v506q0 53 24.5 78.5t84.5 25.5h198q59 0 84 -25.5t25 -78.5v-816q0 -39 -13.5 -51t-56.5 -12h-211q-25 0 -38 6t-15 25l-10 63q-59 -57 -147.5 -91 t-200.5 -34q-179 0 -278 93.5t-99 285.5zM174 1139q0 25 25 55l196 256q29 35 45.5 45t65.5 10h207q49 0 66.5 -10t43.5 -45l197 -256q25 -31 24 -55q0 -18 -16 -29.5t-47 -11.5h-154q-49 0 -71.5 11t-42.5 42l-103 158l-104 -158q-18 -31 -41 -42t-72 -11h-153 q-31 0 -48.5 11t-17.5 30z" />
<glyph unicode="&#xfc;" horiz-adv-x="1234" d="M78 348v531q0 53 24.5 78.5t81.5 25.5h199q59 0 84 -25.5t25 -78.5v-514q0 -117 112 -117q61 0 94 32.5t33 92.5v506q0 53 24.5 78.5t84.5 25.5h198q59 0 84 -25.5t25 -78.5v-816q0 -39 -13.5 -51t-56.5 -12h-211q-25 0 -38 6t-15 25l-10 63q-59 -57 -147.5 -91 t-200.5 -34q-179 0 -278 93.5t-99 285.5zM233 1186v51q0 55 35 93t90 38h56q55 0 90 -38t35 -93v-51q0 -55 -35 -93t-90 -38h-56q-55 0 -90 37.5t-35 93.5zM672 1186v51q0 55 35.5 93t89.5 38h55q55 0 90 -38t35 -93v-51q0 -55 -35 -93t-90 -38h-55q-54 0 -89.5 37.5 t-35.5 93.5z" />
<glyph unicode="&#xfd;" horiz-adv-x="1243" d="M51 944q0 18 11.5 28.5t31.5 10.5h301q55 0 74 -51l176 -467l176 467q10 27 26.5 39t47.5 12h301q41 0 41 -39q0 -14 -10 -39l-381 -809q-72 -152 -133.5 -239.5t-142.5 -131.5t-195 -44q-172 0 -297 100q-23 18 -23 35q0 12 15 37l82 145q14 27 34 27q10 0 39 -15 q35 -20 60.5 -30.5t62.5 -10.5q45 0 69.5 23.5t41.5 73.5l-398 839q-10 20 -10 39zM451 1180q0 16 6 30l90 248q14 41 33.5 55.5t72.5 14.5h246q37 0 58.5 -13.5t21.5 -37.5q0 -23 -14 -45l-134 -236q-25 -41 -47 -54.5t-82 -13.5h-182q-69 1 -69 52z" />
<glyph unicode="&#xfe;" horiz-adv-x="1275" d="M88 -311v1630q0 53 24.5 78.5t82.5 25.5h190q59 0 84 -25.5t25 -78.5v-328q31 10 74.5 16.5t82.5 6.5q274 0 426 -133t152 -392q0 -238 -131 -379t-371 -141q-70 0 -132.5 15.5t-100.5 42.5v-338q0 -53 -25 -78t-84 -25h-190q-60 0 -83.5 24.5t-23.5 78.5zM492 389 q0 -70 39.5 -106.5t109.5 -36.5q88 0 131 66.5t43 179.5q0 133 -53 187t-162 54q-68 0 -108 -18v-326z" />
<glyph unicode="&#xff;" horiz-adv-x="1243" d="M10 944q0 18 11.5 28.5t31.5 10.5h301q55 0 74 -51l176 -467l176 467q10 27 26.5 39t47.5 12h301q41 0 41 -39q0 -14 -10 -39l-381 -809q-72 -152 -133.5 -239.5t-142 -131.5t-195.5 -44q-172 0 -297 100q-23 18 -23 35q0 12 15 37l82 145q14 27 34 27q10 0 39 -15 q35 -20 60.5 -30.5t62.5 -10.5q45 0 69.5 23.5t41.5 73.5l-398 839q-10 20 -10 39zM238 1219v51q0 55 34.5 93t89.5 38h56q55 0 90 -38t35 -93v-51q0 -55 -35 -93.5t-90 -38.5h-56q-55 0 -89.5 38t-34.5 94zM676 1219v51q0 55 36 93t89 38h55q55 0 90 -38t35 -93v-51 q0 -55 -35 -93.5t-90 -38.5h-55q-53 0 -89 38t-36 94z" />
<glyph unicode="&#x100;" horiz-adv-x="1529" d="M47 37q0 16 10 41l521 1245q16 39 35.5 54.5t58.5 15.5h186q39 0 58.5 -15.5t35.5 -54.5l521 -1245q10 -25 10 -39q0 -18 -11.5 -28.5t-31.5 -10.5h-318q-29 0 -45 11.5t-26 37.5l-72 197h-430l-70 -197q-10 -27 -26.5 -38t-46.5 -11h-316q-43 0 -43 37zM389 1645v94 q0 55 21.5 78.5t78.5 23.5h551q57 0 78 -23.5t21 -78.5v-94q0 -55 -20.5 -79t-78.5 -24h-551q-57 0 -78.5 23.5t-21.5 79.5zM639 524h250l-125 348z" />
<glyph unicode="&#x101;" horiz-adv-x="1265" d="M47 442q0 172 79 301t223.5 200t332.5 71q156 0 275.5 -34t220.5 -97v-820q0 -39 -14.5 -51t-57.5 -12h-209q-23 0 -35 7t-20 24l-27 61q-59 -63 -142 -93t-202 -30q-192 0 -308 124t-116 349zM315 1223v94q0 55 21.5 78.5t79.5 23.5h551q57 0 77.5 -23.5t20.5 -78.5v-94 q0 -55 -20.5 -79t-77.5 -24h-551q-58 0 -79.5 23.5t-21.5 79.5zM459 446q0 -199 166 -198q80 0 125 39t45 110v320q-39 18 -99 18q-109 0 -173 -75.5t-64 -213.5z" />
<glyph unicode="&#x102;" horiz-adv-x="1529" d="M47 37q0 16 10 41l521 1245q16 39 35.5 54.5t58.5 15.5h186q39 0 58.5 -15.5t35.5 -54.5l521 -1245q10 -25 10 -39q0 -18 -11.5 -28.5t-31.5 -10.5h-318q-29 0 -45 11.5t-26 37.5l-72 197h-430l-70 -197q-10 -27 -26.5 -38t-46.5 -11h-316q-43 0 -43 37zM377 1878 q0 16 9 26.5t24 10.5h221q20 0 27.5 -9.5t7.5 -29.5q0 -100 98 -100t98 100q0 20 7.5 29.5t27.5 9.5h221q14 0 23.5 -10.5t9.5 -26.5q0 -158 -100.5 -256t-286.5 -98q-189 0 -288 98t-99 256zM639 524h250l-125 348z" />
<glyph unicode="&#x103;" horiz-adv-x="1265" d="M47 442q0 172 79 301t223.5 200t332.5 71q156 0 275.5 -34t220.5 -97v-820q0 -39 -14.5 -51t-57.5 -12h-209q-23 0 -35 7t-20 24l-27 61q-59 -63 -142 -93t-202 -30q-192 0 -308 124t-116 349zM307 1473q0 16 9.5 26t23.5 10h221q20 0 27.5 -9t7.5 -30q0 -100 98 -100 t99 100q0 20 7 29.5t27 9.5h222q14 0 23 -10t9 -26q0 -158 -100 -256.5t-287 -98.5q-188 0 -287.5 98.5t-99.5 256.5zM459 446q0 -199 166 -198q80 0 125 39t45 110v320q-39 18 -99 18q-109 0 -173 -75.5t-64 -213.5z" />
<glyph unicode="&#x104;" horiz-adv-x="1529" d="M47 37q0 16 10 41l521 1245q16 39 35.5 54.5t58.5 15.5h186q39 0 58.5 -15.5t35.5 -54.5l521 -1245q10 -25 10 -39q0 -18 -11.5 -28.5t-31.5 -10.5h-105q8 -10 -4 -23q-78 -96 -101.5 -133t-23.5 -77q0 -55 49 -56q29 0 45 8l15 5q8 0 14 -15l43 -92q4 -8 4 -12 q0 -12 -24 -23q-72 -33 -209 -33q-102 0 -154.5 51.5t-52.5 131.5q0 57 29.5 116.5t95.5 135.5q20 20 26 22q-25 10 -36 43l-72 197h-430l-70 -197q-10 -27 -26.5 -38t-46.5 -11h-316q-43 0 -43 37zM639 524h250l-125 348z" />
<glyph unicode="&#x105;" horiz-adv-x="1265" d="M47 442q0 172 79 301t223.5 200t332.5 71q156 0 275.5 -34t220.5 -97v-820q0 -35 -12.5 -48t-47.5 -15q4 -10 -6 -18q-78 -96 -101.5 -133t-23.5 -78q0 -55 49 -56q29 0 45 9q12 4 15 4q8 0 14 -15l43 -92q4 -8 4 -12q0 -12 -24 -23q-72 -33 -209 -32q-102 0 -154.5 51 t-52.5 131q0 57 29.5 116.5t95.5 135.5q14 14 20 18q-12 10 -20 25l-27 61q-59 -63 -142 -93t-202 -30q-193 0 -308.5 124t-115.5 349zM459 446q0 -199 166 -198q80 0 125 39t45 110v320q-39 18 -99 18q-109 0 -173 -75.5t-64 -213.5z" />
<glyph unicode="&#x106;" horiz-adv-x="1390" d="M47 696q0 358 195.5 542.5t558.5 184.5q158 0 284.5 -31.5t212.5 -88.5q23 -14 23 -37q0 -14 -14 -43l-88 -150q-12 -27 -33 -26q-12 0 -41 14q-123 68 -289 67q-190 0 -293.5 -109.5t-103.5 -322.5t110.5 -323.5t300.5 -110.5q168 0 297 68q29 14 41 14q18 0 33 -25 l92 -157q12 -20 13 -37q0 -18 -25 -37q-172 -119 -508 -119q-364 0 -565 185.5t-201 541.5zM584 1569q0 16 6 30l90 248q14 41 33.5 55.5t72.5 14.5h246q37 0 58.5 -13.5t21.5 -37.5q0 -23 -14 -45l-133 -236q-25 -41 -47.5 -54t-81.5 -13h-183q-69 0 -69 51z" />
<glyph unicode="&#x107;" horiz-adv-x="1148" d="M47 489q0 156 71.5 275t208 184.5t322.5 65.5q141 0 238.5 -26.5t173.5 -82.5q23 -14 22 -37q0 -16 -16 -43l-84 -145q-14 -29 -35 -29q-12 0 -39 17q-55 35 -103 51t-120 16q-102 0 -164.5 -65.5t-62.5 -180.5q0 -117 63.5 -179t173.5 -62q66 0 119 18.5t109 50.5 q29 16 41 17q18 0 32 -29l93 -158q10 -20 10 -32q0 -18 -25 -35q-86 -55 -187.5 -83t-242.5 -28q-287 0 -442.5 133.5t-155.5 386.5zM436 1147q0 16 6 31l90 247q14 41 34 55.5t73 14.5h246q37 0 58.5 -13.5t21.5 -37.5q0 -23 -15 -45l-133 -236q-25 -41 -47 -54t-82 -13 h-182q-70 0 -70 51z" />
<glyph unicode="&#x108;" horiz-adv-x="1390" d="M47 696q0 358 195.5 542.5t558.5 184.5q158 0 284.5 -31.5t212.5 -88.5q23 -14 23 -37q0 -14 -14 -43l-88 -150q-12 -27 -33 -26q-12 0 -41 14q-123 68 -289 67q-190 0 -293.5 -109.5t-103.5 -322.5t110.5 -323.5t300.5 -110.5q168 0 297 68q29 14 41 14q18 0 33 -25 l92 -157q12 -20 13 -37q0 -18 -25 -37q-172 -119 -508 -119q-364 0 -565 185.5t-201 541.5zM328 1536q0 25 24 55l197 256q29 35 45 45.5t65 10.5h207q49 0 66.5 -10.5t44.5 -45.5l197 -256q25 -31 24 -55q0 -18 -16.5 -29.5t-46.5 -11.5h-154q-49 0 -71.5 11.5t-43.5 41.5 l-102 158l-105 -158q-18 -31 -40.5 -42t-71.5 -11h-154q-31 0 -48 11.5t-17 29.5z" />
<glyph unicode="&#x109;" horiz-adv-x="1146" d="M47 489q0 156 71.5 275t208 184.5t322.5 65.5q141 0 238.5 -26.5t173.5 -82.5q23 -14 22 -37q0 -16 -16 -43l-84 -145q-14 -29 -35 -29q-12 0 -39 17q-55 35 -103 51t-120 16q-102 0 -164.5 -65.5t-62.5 -180.5q0 -117 63.5 -179t173.5 -62q66 0 119 18.5t109 50.5 q29 16 41 17q18 0 32 -29l93 -158q10 -20 10 -32q0 -18 -25 -35q-86 -55 -187.5 -83t-242.5 -28q-287 0 -442.5 133.5t-155.5 386.5zM188 1139q0 25 25 55l197 256q29 35 45 45t65 10h207q49 0 66.5 -10t44.5 -45l196 -256q25 -31 25 -55q0 -18 -16.5 -29.5t-47.5 -11.5 h-153q-49 0 -71.5 11t-43.5 42l-102 158l-105 -158q-18 -31 -40.5 -42t-71.5 -11h-154q-31 0 -48.5 11t-17.5 30z" />
<glyph unicode="&#x10a;" horiz-adv-x="1390" d="M47 696q0 358 195.5 542.5t558.5 184.5q158 0 284.5 -31.5t212.5 -88.5q23 -14 23 -37q0 -14 -14 -43l-88 -150q-12 -27 -33 -26q-12 0 -41 14q-123 68 -289 67q-190 0 -293.5 -109.5t-103.5 -322.5t110.5 -323.5t300.5 -110.5q168 0 297 68q29 14 41 14q18 0 33 -25 l92 -157q12 -20 13 -37q0 -18 -25 -37q-172 -119 -508 -119q-364 0 -565 185.5t-201 541.5zM682 1669v51q0 55 35 93t90 38h55q55 0 90 -37.5t35 -93.5v-51q0 -55 -34.5 -93t-90.5 -38h-55q-55 0 -90 38t-35 93z" />
<glyph unicode="&#x10b;" horiz-adv-x="1146" d="M47 489q0 156 71.5 275t208 184.5t322.5 65.5q141 0 238.5 -26.5t173.5 -82.5q23 -14 22 -37q0 -16 -16 -43l-84 -145q-14 -29 -35 -29q-12 0 -39 17q-55 35 -103 51t-120 16q-102 0 -164.5 -65.5t-62.5 -180.5q0 -117 63.5 -179t173.5 -62q66 0 119 18.5t109 50.5 q29 16 41 17q18 0 32 -29l93 -158q10 -20 10 -32q0 -18 -25 -35q-86 -55 -187.5 -83t-242.5 -28q-287 0 -442.5 133.5t-155.5 386.5zM471 1247v51q0 55 35 93.5t90 38.5h55q55 0 90 -38t35 -94v-51q0 -55 -34.5 -93t-90.5 -38h-55q-55 0 -90 38t-35 93z" />
<glyph unicode="&#x10c;" horiz-adv-x="1390" d="M47 696q0 358 195.5 542.5t558.5 184.5q158 0 284.5 -31.5t212.5 -88.5q23 -14 23 -37q0 -14 -14 -43l-88 -150q-12 -27 -33 -26q-12 0 -41 14q-123 68 -289 67q-190 0 -293.5 -109.5t-103.5 -322.5t110.5 -323.5t300.5 -110.5q168 0 297 68q29 14 41 14q18 0 33 -25 l92 -157q12 -20 13 -37q0 -18 -25 -37q-172 -119 -508 -119q-364 0 -565 185.5t-201 541.5zM373 1903q0 39 61 39h158q49 0 70.5 -10.5t42.5 -41.5l104 -157l102 157q20 31 42 41.5t71 10.5h158q61 0 61 -39q0 -23 -24 -58l-197 -256q-25 -35 -42 -44t-69 -9h-206 q-50 0 -66 9t-45 44l-197 256q-25 35 -24 58z" />
<glyph unicode="&#x10d;" horiz-adv-x="1146" d="M47 489q0 156 71.5 275t208 184.5t322.5 65.5q141 0 238.5 -26.5t173.5 -82.5q23 -14 22 -37q0 -16 -16 -43l-84 -145q-14 -29 -35 -29q-12 0 -39 17q-55 35 -103 51t-120 16q-102 0 -164.5 -65.5t-62.5 -180.5q0 -117 63.5 -179t173.5 -62q66 0 119 18.5t109 50.5 q29 16 41 17q18 0 32 -29l93 -158q10 -20 10 -32q0 -18 -25 -35q-86 -55 -187.5 -83t-242.5 -28q-287 0 -442.5 133.5t-155.5 386.5zM180 1481q0 39 62 39h157q49 0 71 -10.5t42 -41.5l104 -157l103 157q20 31 41.5 41.5t70.5 10.5h158q61 0 62 -39q0 -23 -25 -58l-197 -256 q-25 -35 -42 -44t-68 -9h-207q-49 0 -65.5 9.5t-45.5 43.5l-196 256q-25 35 -25 58z" />
<glyph unicode="&#x10e;" horiz-adv-x="1411" d="M88 102v1186q0 53 24.5 79t82.5 26h450q352 0 535.5 -169t183.5 -528q0 -350 -184.5 -523t-534.5 -173h-450q-60 0 -83.5 24.5t-23.5 77.5zM209 1903q0 39 61 39h158q49 0 70.5 -10.5t42.5 -41.5l104 -157l103 157q20 31 41.5 41.5t70.5 10.5h158q61 0 61 -39 q0 -23 -24 -58l-197 -256q-25 -35 -42 -44t-68 -9h-207q-49 0 -65.5 9t-45.5 44l-197 256q-25 35 -24 58zM502 297h162q147 0 217.5 89t70.5 310t-70.5 309.5t-217.5 88.5h-162v-797z" />
<glyph unicode="&#x10f;" horiz-adv-x="1648" d="M47 498q0 236 131 376t371 140q68 0 131 -15.5t100 -40.5v330q0 53 24.5 79t84.5 26h190q59 0 84 -26t25 -79v-1173q-88 -63 -229.5 -104.5t-299.5 -41.5q-305 0 -458.5 133.5t-153.5 395.5zM459 496q0 -133 53 -190.5t160 -57.5q69 -1 110 22v330q0 135 -145 135 q-90 0 -134 -64.5t-44 -174.5zM1247 1196q0 16 6 31l90 248q14 41 34 55t75 14h211q37 0 58.5 -13t21.5 -38q0 -23 -14 -45l-134 -236q-25 -43 -47 -55t-82 -12h-147q-72 0 -72 51z" />
<glyph unicode="&#x110;" horiz-adv-x="1474" d="M-14 649v94q0 55 20.5 79t77.5 24h66v442q0 53 24.5 79t83.5 26h451q719 0 718 -697q0 -350 -185 -523t-533 -173h-451q-59 0 -83.5 24.5t-24.5 77.5v447h-66q-57 0 -77.5 23.5t-20.5 76.5zM565 297h160q150 0 219.5 89t69.5 310t-70 309.5t-219 88.5h-160v-248h185 q57 0 78.5 -23.5t21.5 -79.5v-94q0 -53 -21.5 -76.5t-78.5 -23.5h-185v-252z" />
<glyph unicode="&#x111;" horiz-adv-x="1280" d="M47 498q0 236 131 376t371 140q68 0 131 -15.5t100 -40.5v107h-159q-43 0 -57.5 14.5t-14.5 55.5v96q0 43 14.5 57.5t57.5 14.5h161q0 47 33 68.5t103 21.5h133q70 0 99.5 -19.5t33.5 -70.5h39q43 0 57 -14.5t14 -57.5v-96q0 -43 -14 -56.5t-59 -13.5h-33v-950 q-88 -63 -229.5 -104.5t-299.5 -41.5q-305 0 -458.5 133.5t-153.5 395.5zM459 496q0 -133 53 -190.5t160 -57.5q69 -1 110 22v330q0 135 -145 135q-90 0 -134 -64.5t-44 -174.5z" />
<glyph unicode="&#x112;" horiz-adv-x="1169" d="M88 102v1186q0 53 24.5 79t82.5 26h849q57 0 78 -23.5t21 -79.5v-94q0 -55 -20.5 -78.5t-78.5 -23.5h-542v-250h358q57 0 79 -23.5t22 -79.5v-90q0 -55 -21.5 -78.5t-79.5 -23.5h-358v-252h540q57 0 78 -23.5t21 -78.5v-95q0 -53 -20.5 -76.5t-78.5 -23.5h-847 q-60 0 -83.5 24.5t-23.5 77.5zM260 1645v94q0 55 21.5 78.5t78.5 23.5h551q57 0 78 -23.5t21 -78.5v-94q0 -55 -20.5 -79t-78.5 -24h-551q-57 0 -78.5 23.5t-21.5 79.5z" />
<glyph unicode="&#x113;" horiz-adv-x="1216" d="M47 479q0 260 147.5 397.5t423.5 137.5q270 0 410.5 -134.5t140.5 -371.5q0 -102 -90 -102h-643q0 -88 66.5 -135.5t202.5 -47.5q84 0 140 15.5t113 46.5q25 10 33 10q18 0 31 -25l70 -131q10 -20 10 -30q0 -18 -25 -35q-84 -55 -190.5 -80t-243.5 -25q-172 0 -306 57.5 t-212 172t-78 280.5zM246 1255v95q0 55 21.5 78.5t78.5 23.5h551q57 0 77.5 -23.5t20.5 -78.5v-95q0 -55 -20.5 -78.5t-77.5 -23.5h-551q-57 0 -78.5 23.5t-21.5 78.5zM436 608h365q0 78 -45 121t-135 43t-137.5 -44t-47.5 -120z" />
<glyph unicode="&#x114;" horiz-adv-x="1169" d="M88 102v1186q0 53 24.5 79t82.5 26h849q57 0 78 -23.5t21 -79.5v-94q0 -55 -20.5 -78.5t-78.5 -23.5h-542v-250h358q57 0 79 -23.5t22 -79.5v-90q0 -55 -21.5 -78.5t-79.5 -23.5h-358v-252h540q57 0 78 -23.5t21 -78.5v-95q0 -53 -20.5 -76.5t-78.5 -23.5h-847 q-60 0 -83.5 24.5t-23.5 77.5zM248 1878q0 16 9 26.5t24 10.5h221q20 0 27.5 -9.5t7.5 -29.5q0 -100 98 -100t98 100q0 20 7.5 29.5t27.5 9.5h221q14 0 23.5 -10.5t9.5 -26.5q0 -158 -100.5 -256t-286.5 -98q-189 0 -288 98t-99 256z" />
<glyph unicode="&#x115;" horiz-adv-x="1216" d="M47 479q0 260 147.5 397.5t423.5 137.5q270 0 410.5 -134.5t140.5 -371.5q0 -102 -90 -102h-643q0 -88 66.5 -135.5t202.5 -47.5q84 0 140 15.5t113 46.5q25 10 33 10q18 0 31 -25l70 -131q10 -20 10 -30q0 -18 -25 -35q-84 -55 -190.5 -80t-243.5 -25q-172 0 -306 57.5 t-212 172t-78 280.5zM246 1456q0 16 9 26.5t24 10.5h221q20 0 27.5 -9t7.5 -30q0 -100 98 -100t98 100q0 20 7 29.5t28 9.5h221q14 0 23.5 -10t9.5 -27q0 -158 -100.5 -256t-286.5 -98q-189 0 -288 98t-99 256zM436 608h365q0 78 -45 121t-135 43t-137.5 -44t-47.5 -120z " />
<glyph unicode="&#x116;" horiz-adv-x="1169" d="M88 102v1186q0 53 24.5 79t82.5 26h849q57 0 78 -23.5t21 -79.5v-94q0 -55 -20.5 -78.5t-78.5 -23.5h-542v-250h358q57 0 79 -23.5t22 -79.5v-90q0 -55 -21.5 -78.5t-79.5 -23.5h-358v-252h540q57 0 78 -23.5t21 -78.5v-95q0 -53 -20.5 -76.5t-78.5 -23.5h-847 q-60 0 -83.5 24.5t-23.5 77.5zM471 1669v51q0 55 35 93t90 38h55q55 0 90 -37.5t35 -93.5v-51q0 -55 -34.5 -93t-90.5 -38h-55q-55 0 -90 38t-35 93z" />
<glyph unicode="&#x117;" horiz-adv-x="1216" d="M47 479q0 260 147.5 397.5t423.5 137.5q270 0 410.5 -134.5t140.5 -371.5q0 -102 -90 -102h-643q0 -88 66.5 -135.5t202.5 -47.5q84 0 140 15.5t113 46.5q25 10 33 10q18 0 31 -25l70 -131q10 -20 10 -30q0 -18 -25 -35q-84 -55 -190.5 -80t-243.5 -25q-172 0 -306 57.5 t-212 172t-78 280.5zM436 608h365q0 78 -45 121t-135 43t-137.5 -44t-47.5 -120zM473 1247v51q0 55 35 93.5t90 38.5h55q55 0 90 -38t35 -94v-51q0 -55 -34.5 -93t-90.5 -38h-55q-55 0 -90 38t-35 93z" />
<glyph unicode="&#x118;" horiz-adv-x="1169" d="M88 102v1186q0 53 24.5 79t82.5 26h849q57 0 78 -23.5t21 -79.5v-94q0 -55 -20.5 -78.5t-78.5 -23.5h-542v-250h358q57 0 79 -23.5t22 -79.5v-90q0 -55 -21.5 -78.5t-79.5 -23.5h-358v-252h540q57 0 78 -23.5t21 -78.5v-95q0 -53 -20.5 -76.5t-76.5 -23.5q8 -10 -4 -23 q-78 -96 -101.5 -133t-23.5 -77q0 -55 50 -56q29 0 45 8q12 4 14 5q8 0 14 -15l43 -92q4 -8 4 -12q0 -12 -24 -23q-72 -33 -209 -33q-102 0 -154.5 51.5t-52.5 131.5q0 57 30 116.5t95 135.5l16 16h-591q-59 0 -83 24.5t-24 77.5z" />
<glyph unicode="&#x119;" horiz-adv-x="1216" d="M47 479q0 260 147.5 397.5t423.5 137.5q270 0 410.5 -134.5t140.5 -371.5q0 -102 -90 -102h-643q0 -88 66.5 -135.5t202.5 -47.5q84 0 140 15.5t113 46.5q25 10 33 10q18 0 31 -25l70 -131q10 -20 10 -30q0 -14 -12 -27l-5 -4q-78 -96 -101 -133t-23 -78q0 -55 49 -55 q29 0 45 8q12 4 14 4q8 0 14 -14l43 -93q4 -8 4 -12q0 -12 -24 -22q-72 -33 -209 -33q-102 0 -154.5 51t-52.5 131q0 66 41 139q-27 -2 -88 -2q-172 0 -306 57.5t-212 172t-78 280.5zM436 608h365q0 78 -45 121t-135 43t-137.5 -44t-47.5 -120z" />
<glyph unicode="&#x11a;" horiz-adv-x="1169" d="M88 102v1186q0 53 24.5 79t82.5 26h849q57 0 78 -23.5t21 -79.5v-94q0 -55 -20.5 -78.5t-78.5 -23.5h-542v-250h358q57 0 79 -23.5t22 -79.5v-90q0 -55 -21.5 -78.5t-79.5 -23.5h-358v-252h540q57 0 78 -23.5t21 -78.5v-95q0 -53 -20.5 -76.5t-78.5 -23.5h-847 q-60 0 -83.5 24.5t-23.5 77.5zM188 1903q0 39 62 39h158q49 0 70.5 -10.5t41.5 -41.5l105 -157l102 157q20 31 42 41.5t71 10.5h157q61 0 62 -39q0 -23 -25 -58l-196 -256q-25 -35 -42.5 -44t-68.5 -9h-207q-49 0 -65.5 9t-44.5 44l-197 256q-25 35 -25 58z" />
<glyph unicode="&#x11b;" horiz-adv-x="1216" d="M47 479q0 260 147.5 397.5t423.5 137.5q270 0 410.5 -134.5t140.5 -371.5q0 -102 -90 -102h-643q0 -88 66.5 -135.5t202.5 -47.5q84 0 140 15.5t113 46.5q25 10 33 10q18 0 31 -25l70 -131q10 -20 10 -30q0 -18 -25 -35q-84 -55 -190.5 -80t-243.5 -25q-172 0 -306 57.5 t-212 172t-78 280.5zM186 1481q0 39 62 39h158q49 0 70.5 -10.5t41.5 -41.5l105 -157l102 157q20 31 41.5 41.5t71.5 10.5h157q61 0 62 -39q0 -23 -25 -58l-196 -256q-25 -35 -42.5 -44t-68.5 -9h-207q-49 0 -65.5 9.5t-44.5 43.5l-197 256q-25 35 -25 58zM436 608h365 q0 78 -45 121t-135 43t-137.5 -44t-47.5 -120z" />
<glyph unicode="&#x11c;" horiz-adv-x="1443" d="M47 696q0 356 202 541.5t564 185.5q158 0 287 -31.5t215 -88.5q23 -14 22 -35q0 -12 -14 -41l-90 -154q-12 -27 -33 -26q-12 0 -41 14q-131 68 -291 67q-190 0 -299.5 -108.5t-109.5 -323.5q0 -219 98 -325.5t281 -106.5q45 0 95 8.5t81 20.5v250h-176q-57 0 -79 22.5 t-22 77.5v92q0 53 21.5 76t79.5 23h436q70 0 96.5 -32t26.5 -97v-500q0 -39 -9.5 -60.5t-37.5 -42.5q-188 -133 -537 -133q-364 0 -565 185.5t-201 541.5zM381 1511q0 25 25 56l196 256q29 35 45.5 45t65.5 10h207q49 0 66.5 -10t43.5 -45l197 -256q25 -31 24 -56 q0 -18 -16 -29.5t-47 -11.5h-154q-49 0 -71.5 11.5t-42.5 42.5l-103 157l-104 -157q-18 -31 -41 -42.5t-72 -11.5h-154q-30 0 -47.5 11.5t-17.5 29.5z" />
<glyph unicode="&#x11d;" horiz-adv-x="1275" d="M47 508q0 250 155.5 378t461.5 128q154 0 293 -43t231 -109v-653q0 -250 -143.5 -403.5t-417.5 -153.5q-123 0 -251 27.5t-190 70.5q-14 12 -14 27q0 10 6 20l88 162q6 10 13.5 17.5t15.5 7.5q4 0 24 -9q96 -49 267 -49q96 0 145 41t49 133q-41 -29 -102.5 -46 t-130.5 -17q-244 0 -372 121t-128 350zM223 1139q0 25 25 55l196 256q29 35 45.5 45t65.5 10h207q49 0 66.5 -10t43.5 -45l197 -256q25 -31 25 -55q0 -18 -16.5 -29.5t-47.5 -11.5h-153q-49 0 -72 11t-43 42l-103 158l-104 -158q-18 -31 -40.5 -42t-72.5 -11h-153 q-31 0 -48.5 11t-17.5 30zM459 526q0 -104 43 -152t135 -48q147 0 147 141v248q-43 18 -143 18q-90 0 -136 -45t-46 -162z" />
<glyph unicode="&#x11e;" horiz-adv-x="1443" d="M47 696q0 356 202 541.5t564 185.5q158 0 287 -31.5t215 -88.5q23 -14 22 -35q0 -12 -14 -41l-90 -154q-12 -27 -33 -26q-12 0 -41 14q-131 68 -291 67q-190 0 -299.5 -108.5t-109.5 -323.5q0 -219 98 -325.5t281 -106.5q45 0 95 8.5t81 20.5v250h-176q-57 0 -79 22.5 t-22 77.5v92q0 53 21.5 76t79.5 23h436q70 0 96.5 -32t26.5 -97v-500q0 -39 -9.5 -60.5t-37.5 -42.5q-188 -133 -537 -133q-364 0 -565 185.5t-201 541.5zM414 1829q0 16 9 26.5t23 10.5h222q20 0 27 -9.5t7 -29.5q0 -100 99 -101q98 0 98 101q0 20 7 29.5t28 9.5h221 q14 0 23.5 -10.5t9.5 -26.5q0 -158 -100.5 -256t-286.5 -98q-189 0 -288 98t-99 256z" />
<glyph unicode="&#x11f;" horiz-adv-x="1275" d="M47 508q0 250 155.5 378t461.5 128q154 0 293 -43t231 -109v-653q0 -250 -143.5 -403.5t-417.5 -153.5q-123 0 -251 27.5t-190 70.5q-14 12 -14 27q0 10 6 20l88 162q6 10 13.5 17.5t15.5 7.5q4 0 24 -9q96 -49 267 -49q96 0 145 41t49 133q-41 -29 -102.5 -46 t-130.5 -17q-244 0 -372 121t-128 350zM270 1440q0 16 9.5 26.5t23.5 10.5h221q20 0 27.5 -9.5t7.5 -29.5q0 -100 98 -101q98 0 99 101q0 20 7 29.5t28 9.5h221q14 0 23 -10.5t9 -26.5q0 -158 -100 -256.5t-287 -98.5q-188 0 -287.5 98.5t-99.5 256.5zM459 526 q0 -104 43 -152t135 -48q147 0 147 141v248q-43 18 -143 18q-90 0 -136 -45t-46 -162z" />
<glyph unicode="&#x120;" horiz-adv-x="1443" d="M47 696q0 356 202 541.5t564 185.5q158 0 287 -31.5t215 -88.5q23 -14 22 -35q0 -12 -14 -41l-90 -154q-12 -27 -33 -26q-12 0 -41 14q-131 68 -291 67q-190 0 -299.5 -108.5t-109.5 -323.5q0 -219 98 -325.5t281 -106.5q45 0 95 8.5t81 20.5v250h-176q-57 0 -79 22.5 t-22 77.5v92q0 53 21.5 76t79.5 23h436q70 0 96.5 -32t26.5 -97v-500q0 -39 -9.5 -60.5t-37.5 -42.5q-188 -133 -537 -133q-364 0 -565 185.5t-201 541.5zM647 1653v51q0 55 35 93t90 38h55q55 0 90 -38t35 -93v-51q0 -55 -34.5 -93t-90.5 -38h-55q-55 0 -90 37.5t-35 93.5z " />
<glyph unicode="&#x121;" horiz-adv-x="1275" d="M47 508q0 250 155.5 378t461.5 128q154 0 293 -43t231 -109v-653q0 -250 -143.5 -403.5t-417.5 -153.5q-123 0 -251 27.5t-190 70.5q-14 12 -14 27q0 10 6 20l88 162q6 10 13.5 17.5t15.5 7.5q4 0 24 -9q96 -49 267 -49q96 0 145 41t49 133q-41 -29 -102.5 -46 t-130.5 -17q-244 0 -372 121t-128 350zM459 526q0 -104 43 -152t135 -48q147 0 147 141v248q-43 18 -143 18q-90 0 -136 -45t-46 -162zM512 1249v51q0 55 35 93.5t90 38.5h55q55 0 90 -38t35 -94v-51q0 -55 -34.5 -93t-90.5 -38h-55q-55 0 -90 38t-35 93z" />
<glyph unicode="&#x122;" horiz-adv-x="1443" d="M47 696q0 356 202 541.5t564 185.5q158 0 287 -31.5t215 -88.5q23 -14 22 -35q0 -12 -14 -41l-90 -154q-12 -27 -33 -26q-12 0 -41 14q-131 68 -291 67q-190 0 -299.5 -108.5t-109.5 -323.5q0 -219 98 -325.5t281 -106.5q45 0 95 8.5t81 20.5v250h-176q-57 0 -79 22.5 t-22 77.5v92q0 53 21.5 76t79.5 23h436q70 0 96.5 -32t26.5 -97v-500q0 -39 -9.5 -60.5t-37.5 -42.5q-188 -133 -537 -133q-364 0 -565 185.5t-201 541.5zM602 -500q0 6 4 27l92 323q14 45 35 60.5t68 15.5h164q41 0 59 -10t18 -33q0 -20 -16 -59l-135 -318 q-10 -25 -27.5 -36t-52.5 -11h-156q-53 0 -53 41z" />
<glyph unicode="&#x123;" horiz-adv-x="1275" d="M47 508q0 250 155.5 378t461.5 128q154 0 293 -43t231 -109v-653q0 -250 -143.5 -403.5t-417.5 -153.5q-123 0 -251 27.5t-190 70.5q-14 12 -14 27q0 10 6 20l88 162q6 10 13.5 17.5t15.5 7.5q4 0 24 -9q96 -49 267 -49q96 0 145 41t49 133q-41 -29 -102.5 -46 t-130.5 -17q-244 0 -372 121t-128 350zM459 526q0 -104 43 -152t135 -48q147 0 147 141v248q-43 18 -143 18q-90 0 -136 -45t-46 -162zM502 1188q0 20 16 59l135 318q10 25 27.5 36t52.5 11h156q53 0 53 -41q0 -6 -4 -27l-92 -323q-14 -45 -34.5 -60.5t-68.5 -15.5h-163 q-41 0 -59.5 10t-18.5 33z" />
<glyph unicode="&#x124;" horiz-adv-x="1472" d="M88 102v1186q0 53 24.5 79t82.5 26h198q59 0 84 -26t25 -79v-442h467v442q0 53 24.5 79t83.5 26h199q59 0 83.5 -26t24.5 -79v-1186q0 -53 -24.5 -77.5t-83.5 -24.5h-199q-59 0 -83.5 24.5t-24.5 77.5v447h-467v-447q0 -53 -24.5 -77.5t-84.5 -24.5h-198 q-60 0 -83.5 24.5t-23.5 77.5zM299 1561q0 25 25 55l196 256q29 35 45.5 45t65.5 10h207q49 0 66.5 -10t43.5 -45l197 -256q25 -31 24 -55q0 -18 -16 -29.5t-47 -11.5h-154q-49 0 -71.5 11t-42.5 42l-103 158l-104 -158q-18 -31 -41 -42t-72 -11h-153q-31 0 -48.5 11 t-17.5 30z" />
<glyph unicode="&#x125;" horiz-adv-x="1239" d="M88 102v1227q0 37 13.5 50.5t56.5 13.5h219q43 0 56 -13.5t13 -50.5v-430q61 53 148.5 84t196.5 31q166 0 268 -93.5t102 -275.5v-543q0 -53 -23.5 -77.5t-82.5 -24.5h-199q-59 0 -85 24.5t-26 77.5v516q0 61 -25.5 88t-80.5 27q-61 0 -99 -32.5t-38 -90.5v-508 q0 -53 -23.5 -77.5t-83.5 -24.5h-198q-60 0 -84.5 24.5t-24.5 77.5zM106 1511q0 25 25 56l197 256q29 35 45 45t65 10h207q49 0 66.5 -10t44.5 -45l196 -256q25 -31 25 -56q0 -18 -16.5 -29.5t-47.5 -11.5h-153q-49 0 -71.5 11.5t-43.5 42.5l-102 157l-105 -157 q-18 -31 -40.5 -42.5t-71.5 -11.5h-154q-31 0 -48.5 11.5t-17.5 29.5z" />
<glyph unicode="&#x126;" horiz-adv-x="1576" d="M41 1047v104q0 41 14.5 55.5t57.5 14.5h30v67q0 53 25 79t82 26h199q59 0 83.5 -26t24.5 -79v-67h467v67q0 53 24.5 79t84.5 26h198q59 0 84 -26t25 -79v-67h24q43 0 57.5 -14.5t14.5 -55.5v-104q0 -43 -14.5 -56.5t-57.5 -13.5h-24v-875q0 -53 -24.5 -77.5t-84.5 -24.5 h-198q-59 0 -84 24.5t-25 77.5v447h-467v-447q0 -53 -24.5 -77.5t-83.5 -24.5h-199q-59 0 -83 24.5t-24 77.5v875h-30q-43 0 -57.5 13.5t-14.5 56.5zM557 846h467v131h-467v-131z" />
<glyph unicode="&#x127;" horiz-adv-x="1357" d="M6 1126v78q0 53 19.5 69.5t78.5 16.5h101v39q0 37 14 50.5t57 13.5h205q43 0 56.5 -13.5t13.5 -50.5v-39h55q59 0 80 -17.5t21 -68.5v-78q0 -51 -20.5 -68.5t-80.5 -17.5h-55v-153q61 57 153.5 92t204.5 35q166 0 268.5 -93.5t102.5 -275.5v-543q0 -53 -24.5 -77.5 t-84.5 -24.5h-196q-59 0 -85 24.5t-26 77.5v516q0 61 -25.5 88t-80.5 27q-61 0 -99 -32.5t-38 -90.5v-508q0 -53 -24 -77.5t-83 -24.5h-199q-59 0 -84.5 24.5t-25.5 77.5v938h-101q-59 0 -78.5 16.5t-19.5 69.5z" />
<glyph unicode="&#x128;" horiz-adv-x="638" d="M-174 1622q0 29 27 64q63 88 120.5 127.5t139.5 39.5q59 0 107 -16t104 -45q47 -23 71.5 -32t53.5 -9q35 0 57 14.5t57 55.5q23 27 47 26q35 0 107 -53q35 -27 50 -47.5t15 -40.5q0 -31 -26 -66q-63 -92 -122 -132t-147 -40q-45 0 -83.5 13.5t-96.5 42.5q-47 23 -79.5 35 t-65.5 12q-37 0 -60.5 -14.5t-56.5 -51.5q-23 -25 -47 -24q-37 0 -107 55q-35 25 -50 45.5t-15 40.5zM113 102v1186q0 53 24.5 79t81.5 26h199q59 0 83.5 -26t24.5 -79v-1186q0 -53 -24.5 -77.5t-83.5 -24.5h-199q-59 0 -82.5 24.5t-23.5 77.5z" />
<glyph unicode="&#x129;" horiz-adv-x="618" d="M-170 1266q0 29 27 63q63 88 120.5 128t139.5 40q59 0 107 -16.5t104 -44.5q47 -23 71.5 -32t53.5 -9q35 0 57 14t57 55q23 27 47 27q35 0 107 -53q35 -27 50 -47.5t15 -40.5q0 -31 -26 -66q-63 -92 -121.5 -132t-146.5 -40q-46 0 -84.5 13.5t-96.5 41.5q-47 23 -79.5 35 t-65.5 12q-37 0 -60.5 -14t-56.5 -51q-20 -25 -47 -25q-37 0 -106 56q-35 25 -50.5 45t-15.5 41zM102 102v777q0 53 25 78.5t82 25.5h199q59 0 83.5 -25.5t24.5 -78.5v-777q0 -53 -24.5 -77.5t-83.5 -24.5h-199q-59 0 -83 24.5t-24 77.5z" />
<glyph unicode="&#x12a;" horiz-adv-x="641" d="M-55 1630v96q0 53 20.5 78t77.5 25h551q57 0 78.5 -24.5t21.5 -78.5v-96q0 -53 -21.5 -76.5t-78.5 -23.5h-551q-57 0 -77.5 23.5t-20.5 76.5zM113 102v1186q0 53 24.5 79t83.5 26h197q59 0 84.5 -26t25.5 -79v-1186q0 -53 -25.5 -77.5t-84.5 -24.5h-197q-59 0 -83.5 24.5 t-24.5 77.5z" />
<glyph unicode="&#x12b;" horiz-adv-x="618" d="M-66 1255v95q0 55 21.5 78.5t79.5 23.5h551q57 0 77.5 -23.5t20.5 -78.5v-95q0 -55 -20.5 -78.5t-77.5 -23.5h-551q-58 0 -79.5 23.5t-21.5 78.5zM102 102v777q0 53 25 78.5t82 25.5h199q59 0 83.5 -25.5t24.5 -78.5v-777q0 -53 -24.5 -77.5t-83.5 -24.5h-199 q-59 0 -83 24.5t-24 77.5z" />
<glyph unicode="&#x12c;" horiz-adv-x="638" d="M-66 1872q0 16 9.5 26.5t23.5 10.5h221q20 0 27.5 -9.5t7.5 -29.5q0 -100 99 -101q98 0 98 101q0 20 7 29.5t28 9.5h221q14 0 23.5 -10.5t9.5 -26.5q0 -158 -100.5 -256t-286.5 -98q-189 0 -288.5 98t-99.5 256zM113 102v1186q0 53 24.5 79t81.5 26h199q59 0 83.5 -26 t24.5 -79v-1186q0 -53 -24.5 -77.5t-83.5 -24.5h-199q-59 0 -82.5 24.5t-23.5 77.5z" />
<glyph unicode="&#x12d;" horiz-adv-x="620" d="M-76 1489q0 16 9.5 26.5t23.5 10.5h221q20 0 27.5 -9.5t7.5 -29.5q0 -100 98 -101q98 0 99 101q0 20 7 29.5t27 9.5h222q14 0 23 -10.5t9 -26.5q0 -158 -100 -256t-287 -98q-188 0 -287.5 98t-99.5 256zM102 102v777q0 53 25 78.5t84 25.5h199q59 0 83.5 -25.5 t24.5 -78.5v-777q0 -53 -24.5 -77.5t-83.5 -24.5h-199q-59 0 -84 24.5t-25 77.5z" />
<glyph unicode="&#x12e;" horiz-adv-x="589" d="M31 -264q0 57 29.5 116.5t95.5 135.5l12 14q-43 4 -61.5 28.5t-18.5 71.5v1186q0 53 24.5 79t82.5 26h198q60 0 84.5 -26t24.5 -79v-1186q0 -45 -16.5 -68.5t-55.5 -31.5q6 -6 -4 -20q-78 -96 -101.5 -133t-23.5 -78q0 -55 49 -56q29 0 45 9q12 4 15 4q8 0 14 -15l43 -92 q4 -8 4 -12q0 -12 -25 -23q-72 -33 -208 -32q-102 0 -154.5 51t-52.5 131z" />
<glyph unicode="&#x12f;" horiz-adv-x="612" d="M43 -264q0 57 29.5 116.5t95.5 135.5l12 14q-45 4 -63.5 28.5t-18.5 71.5v777q0 53 24.5 78.5t84.5 25.5h196q60 0 85.5 -25.5t25.5 -78.5v-777q0 -45 -16.5 -68.5t-55.5 -29.5q2 -2 2 -8t-6 -14q-78 -96 -101.5 -133t-23.5 -78q0 -55 49 -56q29 0 46 9q12 4 14 4 q8 0 14 -15l43 -92q4 -8 4 -12q0 -12 -24 -23q-72 -33 -209 -32q-102 0 -154.5 51t-52.5 131zM88 1214v50q0 53 37 91t106 38h148q72 0 108.5 -38t36.5 -91v-50q0 -51 -36.5 -89t-108.5 -38h-148q-70 0 -106.5 38t-36.5 89z" />
<glyph unicode="&#x130;" horiz-adv-x="589" d="M88 102v1186q0 53 24.5 79t82.5 26h198q59 0 84 -26t25 -79v-1186q0 -53 -24.5 -77.5t-84.5 -24.5h-198q-60 0 -83.5 24.5t-23.5 77.5zM152 1620v51q0 55 34.5 93t89.5 38h56q55 0 90 -38t35 -93v-51q0 -55 -35 -93t-90 -38h-56q-55 0 -89.5 38t-34.5 93z" />
<glyph unicode="&#x131;" horiz-adv-x="589" d="M88 102v777q0 53 24.5 78.5t82.5 25.5h198q59 0 84 -25.5t25 -78.5v-777q0 -53 -24.5 -77.5t-84.5 -24.5h-198q-60 0 -83.5 24.5t-23.5 77.5z" />
<glyph unicode="&#x132;" horiz-adv-x="1566" d="M88 102v1186q0 53 24.5 79t82.5 26h198q59 0 84 -26t25 -79v-1186q0 -53 -24.5 -77.5t-84.5 -24.5h-198q-60 0 -83.5 24.5t-23.5 77.5zM512 129q0 14 14 43l88 152q14 29 37 28q16 0 37 -16q100 -74 211 -74q162 0 162 164v862q0 53 24.5 79t83.5 26h199q59 0 84 -26 t25 -79v-864q0 -209 -127 -332t-371 -123q-266 0 -444 123q-23 14 -23 37z" />
<glyph unicode="&#x133;" horiz-adv-x="1169" d="M72 1214v50q0 53 36.5 91t106.5 38h147q72 0 109 -38t37 -91v-50q0 -51 -37 -89t-109 -38h-147q-70 0 -106.5 38t-36.5 89zM82 102v777q0 53 24.5 78.5t83.5 25.5h197q59 0 85 -25.5t26 -78.5v-777q0 -53 -26 -77.5t-85 -24.5h-197q-59 0 -83.5 24.5t-24.5 77.5z M141 -289q0 14 15 43l86 152q18 27 39 26q18 0 34 -14q100 -72 191 -72q80 0 114.5 38t34.5 114v881q0 53 25 78.5t84 25.5h199q59 0 83.5 -25.5t24.5 -78.5v-887q0 -203 -122 -320.5t-357 -117.5q-266 -1 -430 120q-20 14 -21 37zM643 1214v50q0 53 38 91t105 38h150 q70 0 107.5 -38t37.5 -91v-50q0 -51 -37.5 -89t-107.5 -38h-150q-67 0 -105 38t-38 89z" />
<glyph unicode="&#x134;" horiz-adv-x="1189" d="M6 129q0 14 14 43l89 152q14 29 36 28q16 0 37 -16q100 -74 211 -74q162 0 162 164v862q0 53 24.5 79t84.5 26h198q59 0 84 -26t25 -79v-864q0 -209 -127 -332t-371 -123q-266 0 -444 123q-23 14 -23 37zM334 1561q0 25 24 55l197 256q29 35 45 45t66 10h206 q49 0 66.5 -10t44.5 -45l197 -256q25 -31 24 -55q0 -18 -16.5 -29.5t-46.5 -11.5h-154q-49 0 -71.5 11t-43.5 42l-102 158l-104 -158q-18 -31 -41 -42t-72 -11h-154q-30 0 -47.5 11t-17.5 30z" />
<glyph unicode="&#x135;" horiz-adv-x="860" d="M-291 -190q0 14 15 43l88 151q14 29 34 29q16 0 39 -17q100 -72 191 -71q80 0 114.5 37.5t34.5 113.5v783q0 53 24.5 78.5t84.5 25.5h198q59 0 84 -25.5t25 -78.5v-789q0 -203 -122 -320.5t-357 -117.5q-266 0 -430 121q-23 16 -23 37zM4 1171q0 25 25 56l196 256 q29 35 45.5 45t65.5 10h207q49 0 66.5 -10t43.5 -45l197 -256q25 -31 24 -56q0 -18 -16 -29.5t-47 -11.5h-154q-49 0 -71.5 11.5t-42.5 42.5l-103 157l-104 -157q-18 -31 -41 -42.5t-72 -11.5h-153q-31 0 -48.5 11.5t-17.5 29.5z" />
<glyph unicode="&#x136;" horiz-adv-x="1349" d="M88 102v1186q0 53 24.5 79t82.5 26h198q59 0 84 -26t25 -79v-491l385 567q10 16 25.5 22.5t45.5 6.5h316q20 0 31.5 -10.5t11.5 -28.5q0 -23 -14 -39l-439 -613l455 -624q14 -16 14 -39q0 -18 -11 -28.5t-32 -10.5h-317q-29 0 -43.5 5t-26.5 22l-401 577v-502 q0 -53 -24.5 -77.5t-84.5 -24.5h-198q-59 0 -83 24.5t-24 77.5zM422 -500q0 6 4 27l92 323q14 45 34.5 60.5t68.5 15.5h163q41 0 59.5 -10t18.5 -33q0 -20 -16 -59l-135 -318q-10 -25 -27.5 -36t-52.5 -11h-156q-53 0 -53 41z" />
<glyph unicode="&#x137;" horiz-adv-x="1220" d="M88 102v1186q0 53 24.5 79t82.5 26h198q59 0 84 -26t25 -79v-686l270 352q12 16 26.5 22.5t43.5 6.5h317q20 0 31.5 -11t11.5 -30q0 -20 -14 -37l-350 -401l360 -426q14 -17 14 -37q0 -18 -12 -29.5t-33 -11.5h-317q-29 0 -42 5t-28 22l-278 379v-304q0 -53 -24.5 -77.5 t-84.5 -24.5h-198q-59 0 -83 24.5t-24 77.5zM381 -500q0 6 4 27l92 323q14 45 34.5 60.5t68.5 15.5h163q41 0 59.5 -10t18.5 -33q0 -20 -16 -59l-135 -318q-10 -25 -27.5 -36t-52.5 -11h-156q-53 0 -53 41z" />
<glyph unicode="&#x138;" horiz-adv-x="1220" d="M88 117v762q0 59 28.5 81.5t102.5 22.5h174q59 0 84 -25.5t25 -78.5v-277l270 352q12 16 26.5 22.5t43.5 6.5h317q20 0 31.5 -11t11.5 -30q0 -20 -14 -37l-350 -401l360 -426q14 -17 14 -37q0 -18 -12 -29.5t-33 -11.5h-317q-29 0 -42 5t-28 22l-278 379v-304 q0 -57 -29 -79.5t-104 -22.5h-174q-61 0 -84 28.5t-23 88.5z" />
<glyph unicode="&#x139;" horiz-adv-x="1134" d="M88 102v1186q0 53 24.5 79t82.5 26h198q59 0 84 -26t25 -79v-991h528q57 0 77.5 -23.5t20.5 -78.5v-95q0 -53 -20.5 -76.5t-77.5 -23.5h-835q-60 0 -83.5 24.5t-23.5 77.5zM166 1520q0 16 6 30l90 248q14 41 33.5 55.5t73.5 14.5h245q37 0 58.5 -13.5t21.5 -37.5 q0 -23 -14 -45l-133 -236q-25 -41 -47.5 -54.5t-81.5 -13.5h-182q-70 1 -70 52z" />
<glyph unicode="&#x13a;" horiz-adv-x="589" d="M88 102v1186q0 53 24.5 79t82.5 26h198q59 0 84 -26t25 -79v-1186q0 -53 -24.5 -77.5t-84.5 -24.5h-198q-60 0 -83.5 24.5t-23.5 77.5zM115 1585q0 16 6 31l90 248q14 41 33.5 55t72.5 14h246q37 0 58.5 -13t21.5 -38q0 -23 -14 -45l-133 -235q-25 -41 -47.5 -54.5 t-81.5 -13.5h-183q-69 0 -69 51z" />
<glyph unicode="&#x13b;" horiz-adv-x="1134" d="M88 102v1186q0 53 24.5 79t82.5 26h198q59 0 84 -26t25 -79v-991h528q57 0 77.5 -23.5t20.5 -78.5v-95q0 -53 -20.5 -76.5t-77.5 -23.5h-835q-60 0 -83.5 24.5t-23.5 77.5zM369 -500q0 6 4 27l92 323q14 45 34.5 60.5t67.5 15.5h164q41 0 59.5 -10t18.5 -33 q0 -20 -16 -59l-136 -318q-10 -25 -27.5 -36t-51.5 -11h-156q-53 0 -53 41z" />
<glyph unicode="&#x13c;" horiz-adv-x="604" d="M16 -500q0 6 4 27l93 323q14 45 34.5 60.5t67.5 15.5h164q41 0 59.5 -10t18.5 -33q0 -20 -17 -59l-135 -318q-10 -25 -27.5 -36t-52.5 -11h-155q-54 0 -54 41zM102 102v1186q0 53 25 79t82 26h199q59 0 83.5 -26t24.5 -79v-1186q0 -53 -24.5 -77.5t-83.5 -24.5h-199 q-59 0 -83 24.5t-24 77.5z" />
<glyph unicode="&#x13d;" horiz-adv-x="1200" d="M88 102v1186q0 53 24.5 79t82.5 26h198q59 0 84 -26t25 -79v-991h528q57 0 77.5 -23.5t20.5 -78.5v-95q0 -53 -20.5 -76.5t-77.5 -23.5h-835q-60 0 -83.5 24.5t-23.5 77.5zM715 1063q0 6 4 27l92 323q14 45 34.5 60.5t67.5 15.5h164q41 0 59.5 -10.5t18.5 -32.5 q0 -20 -16 -60l-135 -317q-10 -25 -28 -36t-52 -11h-156q-53 0 -53 41z" />
<glyph unicode="&#x13e;" horiz-adv-x="1064" d="M88 102v1186q0 53 24.5 79t82.5 26h198q59 0 84 -26t25 -79v-1186q0 -53 -24.5 -77.5t-84.5 -24.5h-198q-60 0 -83.5 24.5t-23.5 77.5zM637 1157q0 6 4 27l92 323q14 45 34.5 60.5t68.5 15.5h163q41 0 59.5 -10t18.5 -33q0 -20 -16 -59l-135 -318q-10 -25 -27.5 -36 t-52.5 -11h-156q-53 0 -53 41z" />
<glyph unicode="&#x13f;" horiz-adv-x="1134" d="M88 102v1186q0 53 24.5 79t82.5 26h198q59 0 84 -26t25 -79v-991h528q57 0 77.5 -23.5t20.5 -78.5v-95q0 -53 -20.5 -76.5t-77.5 -23.5h-835q-60 0 -83.5 24.5t-23.5 77.5zM676 702v52q0 55 34.5 93t90.5 38h53q55 0 90 -38t35 -93v-52q0 -55 -35 -93t-90 -38h-53 q-56 0 -90.5 38t-34.5 93z" />
<glyph unicode="&#x140;" horiz-adv-x="890" d="M88 102v1186q0 53 24.5 79t82.5 26h198q59 0 84 -26t25 -79v-1186q0 -53 -24.5 -77.5t-84.5 -24.5h-198q-60 0 -83.5 24.5t-23.5 77.5zM602 657v52q0 55 35 93t90 38h53q55 0 90 -38t35 -93v-52q0 -55 -34.5 -93t-90.5 -38h-53q-55 0 -90 38t-35 93z" />
<glyph unicode="&#x141;" horiz-adv-x="1314" d="M70 608q0 20 26 33l170 96v551q0 53 24.5 79t84.5 26h196q59 0 85 -26t26 -79v-315l162 92q16 10 26 10q16 0 35 -26l99 -162q8 -10 8 -23q0 -18 -29 -35l-301 -172v-360h526q58 0 79.5 -23.5t21.5 -78.5v-95q0 -53 -21.5 -76.5t-79.5 -23.5h-833q-59 0 -84 24.5 t-25 77.5v320l-28 -16q-20 -10 -31 -11q-16 0 -31 23l-96 162q-10 16 -10 28z" />
<glyph unicode="&#x142;" horiz-adv-x="856" d="M-14 584q0 20 26 32l199 113v559q0 53 24.5 79t83.5 26h199q59 0 84 -26t25 -79v-321l71 41q16 10 27 10q16 0 35 -27l102 -160q8 -10 8 -22q0 -18 -28 -35l-215 -123v-549q0 -53 -24.5 -77.5t-84.5 -24.5h-199q-59 0 -83.5 24.5t-24.5 77.5v312l-55 -31q-20 -10 -29 -10 q-18 0 -33 22l-98 160q-10 16 -10 29z" />
<glyph unicode="&#x143;" horiz-adv-x="1433" d="M88 102v1188q0 53 24.5 78t84.5 25h161q37 0 58.5 -10.5t42.5 -41.5l473 -679v626q0 53 24.5 79t81.5 26h199q59 0 84 -26t25 -79v-1188q0 -53 -25 -76.5t-84 -23.5h-162q-39 0 -59.5 9t-40.5 40l-473 680v-629q0 -53 -24.5 -76.5t-84.5 -23.5h-198q-60 0 -83.5 24.5 t-23.5 77.5zM516 1544q0 16 6 31l90 248q14 41 34 55t73 14h246q37 0 58 -13t21 -38q0 -23 -14 -45l-133 -235q-25 -41 -47.5 -54.5t-81.5 -13.5h-182q-70 0 -70 51z" />
<glyph unicode="&#x144;" horiz-adv-x="1239" d="M88 102v818q0 37 13.5 50t56.5 13h211q25 0 38 -7t15 -26l10 -61q57 57 150.5 91t208.5 34q166 0 268 -93.5t102 -275.5v-543q0 -53 -23.5 -77.5t-82.5 -24.5h-199q-59 0 -85 24.5t-26 77.5v516q0 61 -26.5 88t-83.5 27q-61 0 -97 -32.5t-36 -90.5v-508 q0 -53 -23.5 -77.5t-83.5 -24.5h-198q-60 0 -84.5 24.5t-24.5 77.5zM467 1180q0 16 6 30l90 248q14 41 33.5 55.5t73.5 14.5h245q37 0 58.5 -13.5t21.5 -37.5q0 -23 -14 -45l-133 -236q-25 -41 -47.5 -54.5t-81.5 -13.5h-182q-70 1 -70 52z" />
<glyph unicode="&#x145;" horiz-adv-x="1433" d="M88 102v1188q0 53 24.5 78t84.5 25h161q37 0 58.5 -10.5t42.5 -41.5l473 -679v626q0 53 24.5 79t81.5 26h199q59 0 84 -26t25 -79v-1188q0 -53 -25 -76.5t-84 -23.5h-162q-39 0 -59.5 9t-40.5 40l-473 680v-629q0 -53 -24.5 -76.5t-84.5 -23.5h-198q-60 0 -83.5 24.5 t-23.5 77.5zM487 -500q0 6 5 27l92 323q14 45 34.5 60.5t67.5 15.5h164q41 0 59.5 -10t18.5 -33q0 -20 -17 -59l-135 -318q-10 -25 -27.5 -36t-52.5 -11h-155q-54 0 -54 41z" />
<glyph unicode="&#x146;" horiz-adv-x="1239" d="M88 102v818q0 37 13.5 50t56.5 13h211q25 0 38 -7t15 -26l10 -61q57 57 150.5 91t208.5 34q166 0 268 -93.5t102 -275.5v-543q0 -53 -23.5 -77.5t-82.5 -24.5h-199q-59 0 -85 24.5t-26 77.5v516q0 61 -26.5 88t-83.5 27q-61 0 -97 -32.5t-36 -90.5v-508 q0 -53 -23.5 -77.5t-83.5 -24.5h-198q-60 0 -84.5 24.5t-24.5 77.5zM434 -500q0 6 4 27l92 323q14 45 35 60.5t68 15.5h164q41 0 59 -10t18 -33q0 -20 -16 -59l-135 -318q-10 -25 -27.5 -36t-52.5 -11h-156q-53 0 -53 41z" />
<glyph unicode="&#x147;" horiz-adv-x="1433" d="M88 102v1188q0 53 24.5 78t84.5 25h161q37 0 58.5 -10.5t42.5 -41.5l473 -679v626q0 53 24.5 79t81.5 26h199q59 0 84 -26t25 -79v-1188q0 -53 -25 -76.5t-84 -23.5h-162q-39 0 -59.5 9t-40.5 40l-473 680v-629q0 -53 -24.5 -76.5t-84.5 -23.5h-198q-60 0 -83.5 24.5 t-23.5 77.5zM281 1878q0 39 61 39h158q49 0 70.5 -10.5t41.5 -40.5l105 -158l102 158q20 31 42 41t71 10h158q61 0 61 -39q0 -23 -25 -57l-196 -256q-25 -35 -42.5 -44.5t-68.5 -9.5h-207q-49 0 -65.5 9.5t-44.5 44.5l-197 256q-25 35 -24 57z" />
<glyph unicode="&#x148;" horiz-adv-x="1239" d="M88 102v818q0 37 13.5 50t56.5 13h211q25 0 38 -7t15 -26l10 -61q57 57 150.5 91t208.5 34q166 0 268 -93.5t102 -275.5v-543q0 -53 -23.5 -77.5t-82.5 -24.5h-199q-59 0 -85 24.5t-26 77.5v516q0 61 -26.5 88t-83.5 27q-61 0 -97 -32.5t-36 -90.5v-508 q0 -53 -23.5 -77.5t-83.5 -24.5h-198q-60 0 -84.5 24.5t-24.5 77.5zM221 1464q0 39 62 39h157q49 0 70.5 -10t42.5 -41l104 -158l103 158q20 31 41.5 41t70.5 10h158q61 0 62 -39q0 -23 -25 -57l-197 -256q-25 -35 -42 -44t-68 -9h-207q-49 0 -65.5 9t-45.5 44l-196 256 q-25 35 -25 57z" />
<glyph unicode="&#x149;" horiz-adv-x="1437" d="M-18 1063q0 6 4 27l92 323q14 45 34.5 60.5t67.5 15.5h164q41 0 59.5 -10.5t18.5 -32.5q0 -20 -16 -60l-136 -317q-10 -25 -27.5 -36t-52.5 -11h-155q-53 0 -53 41zM287 102v818q0 37 13 50t56 13h211q25 0 38 -7t16 -26l10 -61q57 57 150 91t208 34q166 0 268.5 -93.5 t102.5 -275.5v-543q0 -53 -23.5 -77.5t-83.5 -24.5h-198q-59 0 -85 24.5t-26 77.5v516q0 61 -26.5 88t-83.5 27q-61 0 -97.5 -32.5t-36.5 -90.5v-508q0 -53 -23.5 -77.5t-82.5 -24.5h-199q-59 0 -83.5 24.5t-24.5 77.5z" />
<glyph unicode="&#x14a;" horiz-adv-x="1433" d="M88 102v1188q0 53 24.5 78t84.5 25h161q37 0 58.5 -10.5t42.5 -41.5l473 -679v626q0 53 24.5 79t81.5 26h199q59 0 84 -26t25 -79v-1321q0 -209 -126 -332.5t-370 -123.5q-283 -1 -449 114q-20 14 -20 37q0 14 14 43l88 152q18 29 37 28q14 0 37 -16q92 -63 213 -64 q162 0 162 164v146l-430 614v-629q0 -53 -24.5 -76.5t-84.5 -23.5h-198q-59 0 -83 24.5t-24 77.5z" />
<glyph unicode="&#x14b;" horiz-adv-x="1239" d="M88 102v818q0 37 13.5 50t56.5 13h211q23 0 36 -7t17 -26l10 -61q59 55 152.5 90t206.5 35q166 0 268 -93.5t102 -275.5v-741q0 -205 -121.5 -323t-357.5 -118q-262 0 -430 123q-20 14 -21 35q0 16 15 45l86 150q16 29 37 28q16 0 37 -16q96 -70 190 -70q80 0 114.5 38 t34.5 112v715q0 111 -106 110q-61 0 -99 -32.5t-38 -90.5v-508q0 -53 -23.5 -77.5t-83.5 -24.5h-198q-59 0 -84 24.5t-25 77.5z" />
<glyph unicode="&#x14c;" horiz-adv-x="1548" d="M47 696q0 348 185.5 537.5t541.5 189.5t541.5 -189.5t185.5 -537.5t-185.5 -537.5t-541.5 -189.5t-541.5 189.5t-185.5 537.5zM401 1620v94q0 55 21.5 79t79.5 24h551q57 0 77.5 -24t20.5 -79v-94q0 -55 -20.5 -78.5t-77.5 -23.5h-551q-58 0 -79.5 23.5t-21.5 78.5z M459 696q0 -217 76.5 -325.5t238.5 -108.5t239 108.5t77 325.5q0 215 -77 323.5t-239 108.5t-238.5 -108.5t-76.5 -323.5z" />
<glyph unicode="&#x14d;" horiz-adv-x="1280" d="M47 492q0 242 155.5 382t436.5 140t437.5 -140.5t156.5 -381.5q0 -242 -156.5 -382.5t-437.5 -140.5t-436.5 140.5t-155.5 382.5zM262 1255v95q0 55 21.5 78.5t78.5 23.5h551q57 0 78 -23.5t21 -78.5v-95q0 -55 -20.5 -78.5t-78.5 -23.5h-551q-57 0 -78.5 23.5 t-21.5 78.5zM459 492q0 -115 47 -172.5t133 -57.5q180 1 180 230q0 225 -180 225t-180 -225z" />
<glyph unicode="&#x14e;" horiz-adv-x="1548" d="M47 696q0 348 185.5 537.5t541.5 189.5t541.5 -189.5t185.5 -537.5t-185.5 -537.5t-541.5 -189.5t-541.5 189.5t-185.5 537.5zM391 1853q0 16 9.5 26.5t23.5 10.5h221q20 0 27.5 -9t7.5 -30q0 -100 98 -100t99 100q0 20 7 29.5t27 9.5h222q14 0 23 -10t9 -27 q0 -158 -100 -256t-287 -98q-188 0 -287.5 98.5t-99.5 255.5zM459 696q0 -217 76.5 -325.5t238.5 -108.5t239 108.5t77 325.5q0 215 -77 323.5t-239 108.5t-238.5 -108.5t-76.5 -323.5z" />
<glyph unicode="&#x14f;" horiz-adv-x="1280" d="M47 492q0 242 155.5 382t436.5 140t437.5 -140.5t156.5 -381.5q0 -242 -156.5 -382.5t-437.5 -140.5t-436.5 140.5t-155.5 382.5zM252 1456q0 16 9 26.5t24 10.5h221q20 0 27.5 -9t7.5 -30q0 -100 98 -100t98 100q0 20 7.5 29.5t27.5 9.5h221q14 0 23.5 -10t9.5 -27 q0 -158 -100.5 -256t-286.5 -98q-188 0 -287.5 98t-99.5 256zM459 492q0 -115 47 -172.5t133 -57.5q180 1 180 230q0 225 -180 225t-180 -225z" />
<glyph unicode="&#x150;" horiz-adv-x="1548" d="M47 696q0 348 185.5 537.5t541.5 189.5t541.5 -189.5t185.5 -537.5t-185.5 -537.5t-541.5 -189.5t-541.5 189.5t-185.5 537.5zM383 1559q0 16 8 32l121 248q23 43 40 56.5t69 13.5h213q37 0 59 -13.5t22 -37.5q0 -20 -18 -46l-164 -235q-23 -31 -35 -43t-33.5 -18.5 t-62.5 -6.5h-147q-35 0 -53.5 13.5t-18.5 36.5zM459 696q0 -217 76.5 -325.5t238.5 -108.5t239 108.5t77 325.5q0 215 -77 323.5t-239 108.5t-238.5 -108.5t-76.5 -323.5zM877 1561q0 10 8 30l123 248q16 33 24 44t27.5 18.5t56.5 7.5h211q37 0 59.5 -13.5t22.5 -37.5 q0 -23 -16 -46l-166 -235q-31 -43 -51.5 -55.5t-77.5 -12.5h-148q-37 0 -55 13.5t-18 38.5z" />
<glyph unicode="&#x151;" horiz-adv-x="1280" d="M47 492q0 242 155.5 382t436.5 140t437.5 -140.5t156.5 -381.5q0 -242 -156.5 -382.5t-437.5 -140.5t-436.5 140.5t-155.5 382.5zM182 1145q0 16 8 33l121 247q23 43 40.5 56.5t68.5 13.5h213q37 0 59.5 -13.5t22.5 -37.5q0 -20 -19 -45l-164 -236q-23 -31 -35 -43 t-33.5 -18t-62.5 -6h-147q-35 0 -53.5 13t-18.5 36zM459 492q0 -115 47 -172.5t133 -57.5q180 1 180 230q0 225 -180 225t-180 -225zM676 1147q0 10 8 31l123 247q16 33 24.5 44.5t28 18.5t55.5 7h211q37 0 59.5 -13.5t22.5 -37.5q0 -23 -16 -45l-166 -236 q-31 -43 -51.5 -55t-77.5 -12h-147q-37 0 -55.5 13t-18.5 38z" />
<glyph unicode="&#x152;" horiz-adv-x="2246" d="M47 696q0 351 167 539t478 188q150 0 271.5 -47t181.5 -131v43q0 53 24.5 79t81.5 26h850q57 0 78 -23.5t21 -79.5v-94q0 -55 -20.5 -78.5t-78.5 -23.5h-542v-250h358q57 0 78.5 -23.5t21.5 -79.5v-90q0 -55 -21.5 -78.5t-78.5 -23.5h-358v-252h540q57 0 78 -23.5 t21 -78.5v-95q0 -53 -20.5 -76.5t-78.5 -23.5h-848q-59 0 -82.5 24.5t-23.5 77.5v48q-55 -86 -176 -133.5t-277 -47.5q-311 0 -478 188.5t-167 538.5zM459 696q0 -217 76.5 -325.5t238.5 -108.5t239 108.5t77 325.5q0 215 -77 323.5t-239 108.5t-238.5 -108.5t-76.5 -323.5z " />
<glyph unicode="&#x153;" horiz-adv-x="2107" d="M47 492q0 243 146.5 382.5t424.5 139.5q319 0 461 -185q131 184 451 185q256 0 393 -135.5t137 -370.5q0 -102 -90 -102h-643q0 -88 66.5 -135.5t201.5 -47.5q84 0 140.5 15.5t113.5 46.5q25 10 33 10q18 0 31 -25l69 -131q10 -20 11 -30q0 -18 -25 -35q-86 -55 -182 -80 t-232 -25q-147 0 -270 45t-199 144q-143 -188 -467 -189q-279 0 -425 139.5t-146 383.5zM459 492q0 -115 47 -172.5t133 -57.5q180 0 180 230q0 225 -180 225t-180 -225zM1327 608h365q0 78 -45 121t-136 43q-90 0 -137 -44t-47 -120z" />
<glyph unicode="&#x154;" horiz-adv-x="1300" d="M88 102v1186q0 53 24.5 79t82.5 26h503q285 0 420 -119t135 -354q0 -293 -225 -404l203 -440q8 -16 8 -33q0 -18 -13.5 -30.5t-35.5 -12.5h-287q-31 0 -48 8t-26 31l-170 416h-157v-353q0 -53 -24.5 -77.5t-84.5 -24.5h-198q-60 0 -83.5 24.5t-23.5 77.5zM471 1544 q0 16 6 31l90 248q14 41 34 55t73 14h246q37 0 58 -13t21 -38q0 -23 -14 -45l-133 -235q-25 -41 -47.5 -54.5t-81.5 -13.5h-182q-70 0 -70 51zM502 748h151q186 0 187 172q0 174 -176 174h-162v-346z" />
<glyph unicode="&#x155;" horiz-adv-x="944" d="M88 102v818q0 37 13.5 50t56.5 13h211q25 0 38 -7t15 -26l10 -59q123 123 297 123q68 0 111 -11.5t78 -35.5q20 -14 20 -33q0 -6 -4 -23l-66 -186q-8 -29 -30 -29q-10 0 -25 9q-55 31 -133 30q-78 0 -128 -43t-50 -114v-476q0 -53 -23.5 -77.5t-83.5 -24.5h-198 q-60 0 -84.5 24.5t-24.5 77.5zM213 1180q0 16 6 30l90 248q14 41 33.5 55.5t73.5 14.5h246q37 0 58 -13.5t21 -37.5q0 -23 -14 -45l-133 -236q-25 -41 -47.5 -54.5t-81.5 -13.5h-182q-70 1 -70 52z" />
<glyph unicode="&#x156;" horiz-adv-x="1300" d="M88 102v1186q0 53 24.5 79t82.5 26h503q285 0 420 -119t135 -354q0 -293 -225 -404l203 -440q8 -16 8 -33q0 -18 -13.5 -30.5t-35.5 -12.5h-287q-31 0 -48 8t-26 31l-170 416h-157v-353q0 -53 -24.5 -77.5t-84.5 -24.5h-198q-60 0 -83.5 24.5t-23.5 77.5zM434 -500 q0 6 4 27l92 323q14 45 35 60.5t68 15.5h164q41 0 59 -10t18 -33q0 -20 -16 -59l-135 -318q-10 -25 -27.5 -36t-52.5 -11h-156q-53 0 -53 41zM502 748h151q186 0 187 172q0 174 -176 174h-162v-346z" />
<glyph unicode="&#x157;" horiz-adv-x="946" d="M2 -500q0 6 4 27l92 323q14 45 35 60.5t68 15.5h164q41 0 59 -10t18 -33q0 -20 -16 -59l-135 -318q-10 -25 -27.5 -36t-52.5 -11h-156q-53 0 -53 41zM88 102v818q0 37 13.5 50t56.5 13h211q25 0 38 -7t15 -26l10 -59q123 123 297 123q68 0 111 -11.5t78 -35.5 q20 -14 20 -33q0 -6 -4 -23l-66 -186q-8 -29 -30 -29q-10 0 -25 9q-55 31 -133 30q-78 0 -128 -43t-50 -114v-476q0 -53 -23.5 -77.5t-83.5 -24.5h-198q-60 0 -84.5 24.5t-24.5 77.5z" />
<glyph unicode="&#x158;" horiz-adv-x="1300" d="M88 102v1186q0 53 24.5 79t82.5 26h503q285 0 420 -119t135 -354q0 -293 -225 -404l203 -440q8 -16 8 -33q0 -18 -13.5 -30.5t-35.5 -12.5h-287q-31 0 -48 8t-26 31l-170 416h-157v-353q0 -53 -24.5 -77.5t-84.5 -24.5h-198q-60 0 -83.5 24.5t-23.5 77.5zM258 1878 q0 39 61 39h158q49 0 70.5 -10.5t42.5 -40.5l104 -158l103 158q20 31 41.5 41t70.5 10h158q61 0 61 -39q0 -23 -24 -57l-197 -256q-25 -35 -42 -44.5t-68 -9.5h-207q-49 0 -65.5 9.5t-45.5 44.5l-196 256q-25 35 -25 57zM502 748h151q186 0 187 172q0 174 -176 174h-162 v-346z" />
<glyph unicode="&#x159;" horiz-adv-x="970" d="M76 1481q0 39 61 39h158q49 0 70.5 -10.5t42.5 -41.5l104 -157l102 157q20 31 42 41.5t71 10.5h158q61 0 61 -39q0 -23 -24 -58l-197 -256q-25 -35 -42 -44t-69 -9h-206q-50 0 -66 9.5t-45 43.5l-197 256q-25 35 -24 58zM113 102v818q0 37 13 50t56 13h211q25 0 38 -7 t15 -26l11 -59q123 123 297 123q68 0 110.5 -11.5t77.5 -35.5q20 -14 21 -33q0 -6 -5 -23l-65 -186q-8 -29 -31 -29q-10 0 -24 9q-55 31 -133 30q-78 0 -128.5 -43t-50.5 -114v-476q0 -53 -23.5 -77.5t-82.5 -24.5h-199q-59 0 -83.5 24.5t-24.5 77.5z" />
<glyph unicode="&#x15a;" horiz-adv-x="1239" d="M47 154q0 16 12 34l101 160q16 25 33 25q10 0 34 -15q76 -43 172.5 -69.5t190.5 -26.5q96 0 142 28.5t46 92.5q0 61 -50 96t-187 88q-207 78 -323 175.5t-116 265.5q0 203 145.5 309t387.5 106q168 0 287.5 -29.5t203.5 -90.5q35 -27 35 -50q0 -14 -12 -32l-100 -160 q-18 -25 -33 -25q-10 0 -35 15q-119 78 -283 77q-88 0 -135 -28.5t-47 -93.5q0 -45 24.5 -74t66.5 -50.5t130 -54.5l39 -14q152 -59 239 -113.5t132 -133.5t45 -197q0 -182 -136 -291t-401 -109q-172 0 -325.5 36t-247.5 101q-35 23 -35 48zM508 1544q0 16 6 31l90 248 q14 41 33.5 55t73.5 14h245q37 0 58.5 -13t21.5 -38q0 -23 -14 -45l-133 -235q-25 -41 -47.5 -54.5t-81.5 -13.5h-182q-70 0 -70 51z" />
<glyph unicode="&#x15b;" horiz-adv-x="1099" d="M47 119q0 10 10 31l86 153q12 25 31 25q12 0 35 -13q57 -31 146 -56.5t159 -25.5q66 0 94.5 13.5t28.5 44.5q0 29 -40 48t-144 50l-45 12q-170 51 -246 117t-76 187q0 150 129 229.5t346 79.5q135 0 235.5 -24.5t192.5 -74.5q37 -20 37 -45q0 -14 -12 -36l-84 -134 q-14 -23 -29 -22q-12 0 -33 12q-49 27 -114.5 43.5t-126.5 16.5q-141 0 -142 -62q0 -29 46.5 -48t142.5 -42q23 -6 62.5 -16.5t66.5 -20.5q98 -35 151.5 -70.5t76 -84t22.5 -121.5q0 -88 -53.5 -159t-164 -114t-272.5 -43q-289 1 -477 107q-39 25 -39 43zM385 1147 q0 16 6 31l90 247q14 41 34 55.5t73 14.5h246q37 0 58 -13.5t21 -37.5q0 -23 -14 -45l-133 -236q-25 -41 -47.5 -54t-81.5 -13h-182q-70 0 -70 51z" />
<glyph unicode="&#x15c;" horiz-adv-x="1239" d="M47 154q0 16 12 34l101 160q16 25 33 25q10 0 34 -15q76 -43 172.5 -69.5t190.5 -26.5q96 0 142 28.5t46 92.5q0 61 -50 96t-187 88q-207 78 -323 175.5t-116 265.5q0 203 145.5 309t387.5 106q168 0 287.5 -29.5t203.5 -90.5q35 -27 35 -50q0 -14 -12 -32l-100 -160 q-18 -25 -33 -25q-10 0 -35 15q-119 78 -283 77q-88 0 -135 -28.5t-47 -93.5q0 -45 24.5 -74t66.5 -50.5t130 -54.5l39 -14q152 -59 239 -113.5t132 -133.5t45 -197q0 -182 -136 -291t-401 -109q-172 0 -325.5 36t-247.5 101q-35 23 -35 48zM203 1536q0 25 24 55l197 256 q29 35 45 45.5t66 10.5h206q49 0 66.5 -10.5t44.5 -45.5l197 -256q25 -31 24 -55q0 -18 -16.5 -29.5t-46.5 -11.5h-154q-49 0 -71.5 11.5t-43.5 41.5l-102 158l-104 -158q-18 -31 -41 -42t-72 -11h-154q-30 0 -47.5 11.5t-17.5 29.5z" />
<glyph unicode="&#x15d;" horiz-adv-x="1099" d="M47 119q0 10 10 31l86 153q12 25 31 25q12 0 35 -13q57 -31 146 -56.5t159 -25.5q66 0 94.5 13.5t28.5 44.5q0 29 -40 48t-144 50l-45 12q-170 51 -246 117t-76 187q0 150 129 229.5t346 79.5q135 0 235.5 -24.5t192.5 -74.5q37 -20 37 -45q0 -14 -12 -36l-84 -134 q-14 -23 -29 -22q-12 0 -33 12q-49 27 -114.5 43.5t-126.5 16.5q-141 0 -142 -62q0 -29 46.5 -48t142.5 -42q23 -6 62.5 -16.5t66.5 -20.5q98 -35 151.5 -70.5t76 -84t22.5 -121.5q0 -88 -53.5 -159t-164 -114t-272.5 -43q-289 1 -477 107q-39 25 -39 43zM129 1139 q0 25 25 55l196 256q29 35 45.5 45t65.5 10h207q49 0 66.5 -10t43.5 -45l197 -256q25 -31 24 -55q0 -18 -16 -29.5t-47 -11.5h-154q-49 0 -71.5 11t-42.5 42l-103 158l-104 -158q-18 -31 -41 -42t-72 -11h-153q-31 0 -48.5 11t-17.5 30z" />
<glyph unicode="&#x15e;" horiz-adv-x="1241" d="M45 154q0 14 14 34l101 160q16 25 33 25q10 0 34 -15q74 -45 171.5 -70.5t191.5 -25.5q96 0 142 28.5t46 92.5q0 61 -50 96t-187 88q-207 78 -323 175.5t-116 265.5q0 203 145.5 309t387.5 106q166 0 284.5 -29.5t206.5 -90.5q35 -27 35 -50q0 -14 -12 -32l-100 -160 q-18 -25 -33 -25q-10 0 -35 15q-113 78 -283 77q-88 0 -135 -28.5t-47 -93.5q0 -45 24.5 -74t66.5 -50.5t130 -54.5l39 -14q152 -59 239 -113.5t132 -133.5t45 -197q0 -172 -121 -278.5t-358 -119.5l-47 -102q68 -10 101.5 -47t33.5 -105q0 -78 -68.5 -128t-202.5 -50 q-57 0 -115.5 10.5t-86.5 24.5q-18 10 -22.5 16.5t1.5 20.5l43 110q6 14 17 15q8 0 20 -6q35 -20 86 -21q37 0 52.5 10.5t15.5 32.5q0 31 -24.5 42t-80.5 11h-35q-16 0 -21 9.5t1 23.5l55 137l4 9q-233 37 -358 122q-37 25 -37 48z" />
<glyph unicode="&#x15f;" horiz-adv-x="1099" d="M47 119q0 10 10 31l86 153q12 25 31 25q12 0 35 -13q57 -31 146 -56.5t159 -25.5q66 0 94.5 13.5t28.5 44.5q0 29 -40 48t-144 50l-45 12q-170 51 -246 117t-76 187q0 150 129 229.5t346 79.5q137 0 237.5 -24.5t190.5 -74.5q37 -20 37 -45q0 -14 -12 -36l-84 -134 q-14 -23 -29 -22q-12 0 -33 12q-49 27 -114.5 43.5t-126.5 16.5q-141 0 -142 -62q0 -29 46.5 -48t142.5 -42q23 -6 62.5 -16.5t66.5 -20.5q98 -35 151.5 -70.5t76 -84t22.5 -121.5q0 -111 -84 -193t-248 -110l-55 -123q70 -10 102.5 -47t32.5 -105q0 -78 -67.5 -128 t-201.5 -50q-57 0 -115.5 10t-86.5 25q-18 10 -22.5 16t1.5 21l41 110q6 14 19 15q6 0 18 -7q39 -20 88 -20q37 0 52.5 10t15.5 33q0 31 -24.5 42t-80.5 11h-35q-16 0 -21 9.5t1 23.5l59 147q-213 18 -356 101q-39 25 -39 43z" />
<glyph unicode="&#x160;" horiz-adv-x="1239" d="M47 154q0 16 12 34l101 160q16 25 33 25q10 0 34 -15q76 -43 172.5 -69.5t190.5 -26.5q96 0 142 28.5t46 92.5q0 61 -50 96t-187 88q-207 78 -323 175.5t-116 265.5q0 203 145.5 309t387.5 106q168 0 287.5 -29.5t203.5 -90.5q35 -27 35 -50q0 -14 -12 -32l-100 -160 q-18 -25 -33 -25q-10 0 -35 15q-119 78 -283 77q-88 0 -135 -28.5t-47 -93.5q0 -45 24.5 -74t66.5 -50.5t130 -54.5l39 -14q152 -59 239 -113.5t132 -133.5t45 -197q0 -182 -136 -291t-401 -109q-172 0 -325.5 36t-247.5 101q-35 23 -35 48zM225 1903q0 39 62 39h157 q49 0 71 -10.5t42 -41.5l105 -157l102 157q20 31 41.5 41.5t71.5 10.5h157q61 0 62 -39q0 -23 -25 -58l-197 -256q-25 -35 -42 -44t-68 -9h-207q-49 0 -65.5 9t-45.5 44l-196 256q-25 35 -25 58z" />
<glyph unicode="&#x161;" horiz-adv-x="1099" d="M47 119q0 10 10 31l86 153q12 25 31 25q12 0 35 -13q57 -31 146 -56.5t159 -25.5q66 0 94.5 13.5t28.5 44.5q0 29 -40 48t-144 50l-45 12q-170 51 -246 117t-76 187q0 150 129 229.5t346 79.5q135 0 235.5 -24.5t192.5 -74.5q37 -20 37 -45q0 -14 -12 -36l-84 -134 q-14 -23 -29 -22q-12 0 -33 12q-49 27 -114.5 43.5t-126.5 16.5q-141 0 -142 -62q0 -29 46.5 -48t142.5 -42q23 -6 62.5 -16.5t66.5 -20.5q98 -35 151.5 -70.5t76 -84t22.5 -121.5q0 -88 -53.5 -159t-164 -114t-272.5 -43q-289 1 -477 107q-39 25 -39 43zM129 1464 q0 39 61 39h158q49 0 70.5 -10t42.5 -41l104 -158l103 158q20 31 41.5 41t70.5 10h158q61 0 61 -39q0 -23 -24 -57l-197 -256q-25 -35 -42 -44t-68 -9h-207q-49 0 -65.5 9t-45.5 44l-196 256q-25 35 -25 57z" />
<glyph unicode="&#x162;" horiz-adv-x="1257" d="M6 1194v96q0 53 20.5 78t77.5 25h1047q57 0 78.5 -25t21.5 -78v-96q0 -53 -21.5 -76.5t-78.5 -23.5h-315v-992q0 -45 -17.5 -69.5t-58.5 -30.5h14q25 0 25 -16q0 -10 -4 -17l-47 -102q70 -12 102.5 -49t32.5 -103q0 -78 -67.5 -129t-201.5 -51q-55 0 -114.5 10.5 t-89.5 26.5q-18 10 -22.5 16t1.5 21l43 108q6 14 17 15q8 0 20 -6q41 -20 88 -21q68 0 68 43q0 31 -25 42t-82 11h-35q-16 0 -21 9.5t1 23.5l55 139q8 20 25 27h-15q-59 0 -83.5 24.5t-24.5 77.5v992h-316q-57 0 -77.5 23.5t-20.5 76.5z" />
<glyph unicode="&#x163;" horiz-adv-x="989" d="M10 801v80q0 55 19.5 78.5t76.5 23.5h84v51q0 49 23 99.5t66 121.5q20 35 37.5 45.5t62.5 10.5h121q57 0 80.5 -24.5t23.5 -78.5v-225h164q57 0 76.5 -23.5t19.5 -78.5v-80q0 -55 -19.5 -78t-76.5 -23h-164v-315q0 -63 24.5 -93t80.5 -30q35 0 56 8.5t52 28.5 q16 10 31 10q20 0 35 -24l86 -148q14 -25 14 -39q0 -18 -25 -35q-102 -70 -233 -86q2 -8 -4 -20l-47 -102q70 -12 102.5 -49t32.5 -103q0 -78 -67.5 -129t-200.5 -51q-55 0 -114.5 10t-90.5 27q-18 10 -22.5 16t1.5 21l43 108q6 14 17 14q8 0 20 -6q41 -20 88 -20 q68 0 68 43q0 31 -24.5 42t-82.5 11h-34q-16 0 -21.5 9t0.5 24l55 139q6 20 17 25q-133 33 -202 134t-69 257v323h-84q-57 0 -76.5 22.5t-19.5 78.5z" />
<glyph unicode="&#x164;" horiz-adv-x="1257" d="M6 1194v96q0 53 20.5 78t77.5 25h1047q57 0 78.5 -25t21.5 -78v-96q0 -53 -21.5 -76.5t-78.5 -23.5h-315v-992q0 -53 -25 -77.5t-84 -24.5h-199q-59 0 -83.5 24.5t-24.5 77.5v992h-316q-57 0 -77.5 23.5t-20.5 76.5zM199 1878q0 39 61 39h158q49 0 70.5 -10.5t41.5 -40.5 l105 -158l102 158q20 31 42 41t71 10h158q61 0 61 -39q0 -23 -25 -57l-196 -256q-25 -35 -42.5 -44.5t-68.5 -9.5h-207q-49 0 -65 9.5t-45 44.5l-197 256q-25 35 -24 57z" />
<glyph unicode="&#x165;" horiz-adv-x="1167" d="M10 801v80q0 55 19.5 78.5t76.5 23.5h84v51q0 49 23 99.5t66 121.5q20 35 37.5 45.5t62.5 10.5h121q57 0 80.5 -24.5t23.5 -78.5v-225h164q57 0 76.5 -23.5t19.5 -78.5v-80q0 -55 -19.5 -78t-76.5 -23h-164v-315q0 -63 24.5 -93t80.5 -30q35 0 56 8.5t52 28.5 q16 10 31 10q20 0 35 -24l86 -148q14 -25 14 -39q0 -18 -25 -35q-70 -47 -156.5 -70.5t-205.5 -23.5q-197 0 -301.5 107.5t-104.5 300.5v323h-84q-57 0 -76.5 22.5t-19.5 78.5zM721 1229q0 6 4 26l92 324q14 45 34.5 60.5t68.5 15.5h163q41 0 59.5 -10.5t18.5 -32.5 q0 -20 -16 -60l-135 -317q-10 -25 -27.5 -36t-52.5 -11h-156q-53 0 -53 41z" />
<glyph unicode="&#x166;" horiz-adv-x="1257" d="M6 1194v96q0 53 20.5 78t77.5 25h1047q57 0 78.5 -25t21.5 -78v-96q0 -53 -21.5 -76.5t-78.5 -23.5h-315v-199h65q57 0 78.5 -23.5t21.5 -78.5v-95q0 -55 -21.5 -78.5t-78.5 -23.5h-65v-494q0 -53 -25 -77.5t-84 -24.5h-199q-59 0 -83.5 24.5t-24.5 77.5v494h-70 q-57 0 -77.5 23.5t-20.5 78.5v95q0 55 20.5 78.5t77.5 23.5h70v199h-316q-57 0 -77.5 23.5t-20.5 76.5z" />
<glyph unicode="&#x167;" horiz-adv-x="989" d="M10 801v80q0 55 19.5 78.5t76.5 23.5h84v51q0 49 23 99.5t66 121.5q20 35 37.5 45.5t62.5 10.5h121q57 0 80.5 -24.5t23.5 -78.5v-225h164q57 0 76.5 -23.5t19.5 -78.5v-80q0 -55 -19.5 -78t-76.5 -23h-164v-86h123q47 0 62.5 -14t15.5 -61v-107q0 -47 -14.5 -61.5 t-63.5 -14.5h-121q4 -49 28.5 -71.5t74.5 -22.5q35 0 56 8.5t52 28.5q16 10 31 10q20 0 35 -24l86 -148q14 -25 14 -39q0 -18 -25 -35q-70 -47 -156.5 -70.5t-205.5 -23.5q-190 0 -294.5 102.5t-111.5 284.5h-55q-49 0 -63.5 14.5t-14.5 61.5v107q0 47 15.5 61t62.5 14h55 v86h-84q-57 0 -76.5 22.5t-19.5 78.5z" />
<glyph unicode="&#x168;" horiz-adv-x="1466" d="M78 504v784q0 53 24.5 79t81.5 26h199q59 0 84 -26t25 -79v-790q0 -115 64.5 -175.5t176.5 -60.5q113 0 176.5 60.5t63.5 175.5v790q0 53 24.5 79t81.5 26h199q59 0 85 -26t26 -79v-784q0 -166 -83 -287t-230.5 -184.5t-342.5 -63.5q-194 0 -342.5 63.5t-230.5 184.5 t-82 287zM295 1647q0 29 27 63q63 88 120.5 128t139.5 40q59 0 107 -16.5t104 -44.5q47 -23 71.5 -32t53.5 -9q35 0 57 14t57 55q23 27 47 27q35 0 107 -53q35 -27 50 -47.5t15 -40.5q0 -31 -26 -66q-63 -92 -122 -132t-147 -40q-45 0 -83.5 13.5t-96.5 41.5 q-47 23 -79.5 35t-65.5 12q-37 0 -60.5 -14t-56.5 -51q-20 -25 -47 -25q-35 0 -107 56q-35 25 -50 45t-15 41z" />
<glyph unicode="&#x169;" horiz-adv-x="1232" d="M78 348v531q0 53 24.5 78.5t81.5 25.5h199q59 0 84 -25.5t25 -78.5v-514q0 -117 112 -117q61 0 94 32.5t33 92.5v506q0 53 24.5 78.5t84.5 25.5h198q59 0 84 -25.5t25 -78.5v-816q0 -39 -13.5 -51t-56.5 -12h-211q-25 0 -38 6t-15 25l-10 63q-59 -57 -147.5 -91 t-200.5 -34q-179 0 -278 93.5t-99 285.5zM150 1282q0 29 26 64q63 88 120.5 127.5t139.5 39.5q59 0 107.5 -16t103.5 -45q47 -23 71.5 -32t53.5 -9q35 0 57.5 14.5t57.5 55.5q23 27 47 26q35 0 106 -53q35 -27 50.5 -47.5t15.5 -40.5q0 -31 -27 -66q-63 -92 -121.5 -132 t-146.5 -40q-45 0 -84 13.5t-96 42.5q-47 23 -80 35t-66 12q-37 0 -60.5 -14.5t-55.5 -51.5q-23 -25 -47 -24q-37 0 -107 55q-35 25 -50 45.5t-15 40.5z" />
<glyph unicode="&#x16a;" horiz-adv-x="1466" d="M78 504v784q0 53 24.5 79t81.5 26h199q59 0 84 -26t25 -79v-790q0 -115 64.5 -175.5t176.5 -60.5q113 0 176.5 60.5t63.5 175.5v790q0 53 24.5 79t81.5 26h199q59 0 85 -26t26 -79v-784q0 -166 -83 -287t-230.5 -184.5t-342.5 -63.5q-194 0 -342.5 63.5t-230.5 184.5 t-82 287zM362 1620v94q0 55 22 79t79 24h551q57 0 77.5 -24t20.5 -79v-94q0 -55 -20.5 -78.5t-77.5 -23.5h-551q-57 0 -79 23.5t-22 78.5z" />
<glyph unicode="&#x16b;" horiz-adv-x="1232" d="M78 348v531q0 53 24.5 78.5t81.5 25.5h199q59 0 84 -25.5t25 -78.5v-514q0 -117 112 -117q61 0 94 32.5t33 92.5v506q0 53 24.5 78.5t84.5 25.5h198q59 0 84 -25.5t25 -78.5v-816q0 -39 -13.5 -51t-56.5 -12h-211q-25 0 -38 6t-15 25l-10 63q-59 -57 -147.5 -91 t-200.5 -34q-179 0 -278 93.5t-99 285.5zM209 1255v95q0 55 21.5 78.5t78.5 23.5h551q57 0 77.5 -23.5t20.5 -78.5v-95q0 -55 -20 -78.5t-78 -23.5h-551q-57 0 -78.5 23.5t-21.5 78.5z" />
<glyph unicode="&#x16c;" horiz-adv-x="1466" d="M78 504v784q0 53 24.5 79t81.5 26h199q59 0 84 -26t25 -79v-790q0 -115 64.5 -175.5t176.5 -60.5q113 0 176.5 60.5t63.5 175.5v790q0 53 24.5 79t81.5 26h199q59 0 85 -26t26 -79v-784q0 -166 -83 -287t-230.5 -184.5t-342.5 -63.5q-194 0 -342.5 63.5t-230.5 184.5 t-82 287zM352 1853q0 16 9.5 26.5t23.5 10.5h221q20 0 27.5 -9t7.5 -30q0 -100 98 -100t99 100q0 20 7 29.5t27 9.5h222q14 0 23 -10t9 -27q0 -158 -100 -256t-287 -98q-188 0 -287.5 98.5t-99.5 255.5z" />
<glyph unicode="&#x16d;" horiz-adv-x="1232" d="M78 348v531q0 53 24.5 78.5t81.5 25.5h199q59 0 84 -25.5t25 -78.5v-514q0 -117 112 -117q61 0 94 32.5t33 92.5v506q0 53 24.5 78.5t84.5 25.5h198q59 0 84 -25.5t25 -78.5v-816q0 -39 -13.5 -51t-56.5 -12h-211q-25 0 -38 6t-15 25l-10 63q-59 -57 -147.5 -91 t-200.5 -34q-179 0 -278 93.5t-99 285.5zM225 1456q0 16 9.5 26.5t23.5 10.5h221q20 0 27.5 -9t7.5 -30q0 -100 98 -100t99 100q0 20 7 29.5t27 9.5h222q14 0 23 -10t9 -27q0 -158 -100 -256t-287 -98q-188 0 -287.5 98t-99.5 256z" />
<glyph unicode="&#x16e;" horiz-adv-x="1466" d="M78 504v784q0 53 24.5 79t81.5 26h199q59 0 84 -26t25 -79v-790q0 -115 64.5 -175.5t176.5 -60.5q113 0 176.5 60.5t63.5 175.5v790q0 53 24.5 79t81.5 26h199q59 0 85 -26t26 -79v-784q0 -166 -83 -287t-230.5 -184.5t-342.5 -63.5q-194 0 -342.5 63.5t-230.5 184.5 t-82 287zM498 1729q0 106 73.5 179.5t180.5 73.5q106 0 180 -73.5t74 -179.5t-74 -180t-180 -74q-107 0 -180.5 73.5t-73.5 180.5zM672 1729q0 -33 23.5 -56.5t56.5 -23.5q32 0 54.5 23.5t22.5 56.5t-22.5 55t-54.5 22q-33 0 -56.5 -22.5t-23.5 -54.5z" />
<glyph unicode="&#x16f;" horiz-adv-x="1232" d="M78 348v531q0 53 24.5 78.5t81.5 25.5h199q59 0 84 -25.5t25 -78.5v-514q0 -117 112 -117q61 0 94 32.5t33 92.5v506q0 53 24.5 78.5t84.5 25.5h198q59 0 84 -25.5t25 -78.5v-816q0 -39 -13.5 -51t-56.5 -12h-211q-25 0 -38 6t-15 25l-10 63q-59 -57 -147.5 -91 t-200.5 -34q-179 0 -278 93.5t-99 285.5zM356 1331q0 106 74 180t180 74t180 -73.5t74 -180.5q0 -106 -73.5 -180t-180.5 -74q-106 0 -180 74t-74 180zM530 1331q0 -33 24 -56.5t56 -23.5q33 0 55.5 23.5t22.5 56.5t-22.5 55.5t-55.5 22.5t-56.5 -22.5t-23.5 -55.5z" />
<glyph unicode="&#x170;" horiz-adv-x="1466" d="M78 504v784q0 53 24.5 79t81.5 26h199q59 0 84 -26t25 -79v-790q0 -115 64.5 -175.5t176.5 -60.5q113 0 176.5 60.5t63.5 175.5v790q0 53 24.5 79t81.5 26h199q59 0 85 -26t26 -79v-784q0 -166 -83 -287t-230.5 -184.5t-342.5 -63.5q-194 0 -342.5 63.5t-230.5 184.5 t-82 287zM358 1559q0 16 9 32l120 248q23 43 40.5 56.5t68.5 13.5h213q37 0 59.5 -13.5t22.5 -37.5q0 -20 -19 -46l-163 -235q-23 -31 -35 -43t-34 -18.5t-62 -6.5h-148q-35 0 -53.5 13.5t-18.5 36.5zM852 1561q0 10 8 30l123 248q16 33 24.5 44t28 18.5t56.5 7.5h211 q37 0 59 -13.5t22 -37.5q0 -23 -16 -46l-166 -235q-31 -43 -51.5 -55.5t-77.5 -12.5h-147q-37 0 -55.5 13.5t-18.5 38.5z" />
<glyph unicode="&#x171;" horiz-adv-x="1282" d="M78 348v531q0 53 24.5 78.5t81.5 25.5h199q59 0 84 -25.5t25 -78.5v-514q0 -117 112 -117q61 0 94 32.5t33 92.5v506q0 53 24.5 78.5t84.5 25.5h198q59 0 84 -25.5t25 -78.5v-816q0 -39 -13.5 -51t-56.5 -12h-211q-25 0 -38 6t-15 25l-10 63q-59 -57 -147.5 -91 t-200.5 -34q-179 0 -278 93.5t-99 285.5zM168 1161q0 16 8 33l121 248q23 43 40 56t69 13h212q37 0 59.5 -13t22.5 -38q0 -20 -18 -45l-164 -235q-23 -31 -35 -43.5t-33.5 -18.5t-62.5 -6h-147q-35 0 -53.5 13.5t-18.5 35.5zM662 1163q0 10 8 31l123 248q16 33 24 44 t27.5 18t56.5 7h211q37 0 59.5 -13t22.5 -38q0 -23 -16 -45l-166 -235q-31 -43 -51.5 -55.5t-77.5 -12.5h-148q-37 0 -55 13.5t-18 37.5z" />
<glyph unicode="&#x172;" horiz-adv-x="1466" d="M78 504v784q0 53 24.5 79t81.5 26h199q59 0 84 -26t25 -79v-790q0 -115 64.5 -175.5t176.5 -60.5q113 0 176.5 60.5t63.5 175.5v790q0 53 24.5 79t81.5 26h199q59 0 85 -26t26 -79v-784q0 -213 -135.5 -349.5t-364.5 -172.5l-4 -9q-78 -96 -101.5 -133t-23.5 -78 q0 -55 49 -55q29 0 45 8q12 4 14 4q8 0 15 -14l43 -92q4 -8 4 -12q0 -12 -25 -23q-72 -33 -209 -33q-102 0 -154.5 51.5t-52.5 131.5q0 55 29 114.5t94 132.5q-246 29 -390 168.5t-144 360.5z" />
<glyph unicode="&#x173;" horiz-adv-x="1263" d="M78 348v531q0 53 24.5 78.5t81.5 25.5h199q59 0 84 -25.5t25 -78.5v-514q0 -117 112 -117q61 0 94 32.5t33 92.5v506q0 53 24.5 78.5t84.5 25.5h198q60 0 84.5 -25.5t24.5 -78.5v-816q0 -39 -13.5 -51t-56.5 -12h-12q4 -10 -6 -18q-78 -96 -101.5 -133t-23.5 -78 q0 -55 49 -56q29 0 45 9q12 4 14 4q8 0 15 -15l43 -92q4 -8 4 -12q0 -12 -25 -23q-72 -33 -209 -32q-102 0 -154 51t-52 131q0 57 29.5 116.5t94.5 135.5q2 2 11.5 11t21.5 13q-4 4 -8 19l-10 63q-59 -57 -147.5 -91t-200.5 -34q-178 0 -277.5 93.5t-99.5 285.5z" />
<glyph unicode="&#x174;" horiz-adv-x="1796" d="M49 1354q0 39 51 39h289q37 0 52.5 -12.5t19.5 -39.5l123 -626l164 514q10 33 26.5 45t52.5 12h138q37 0 54 -12t28 -45l163 -514l121 626q4 27 20.5 39.5t53.5 12.5h289q53 0 53 -39q0 -14 -2 -23l-315 -1263q-8 -37 -31 -52.5t-64 -15.5h-186q-41 0 -62.5 15.5 t-31.5 52.5l-158 538l-158 -538q-10 -37 -32.5 -52.5t-61.5 -15.5h-186q-41 0 -64.5 15.5t-32.5 52.5l-311 1263q-2 8 -2 23zM461 1536q0 25 24 55l197 256q29 35 45 45.5t66 10.5h206q49 0 66.5 -10.5t44.5 -45.5l197 -256q25 -31 24 -55q0 -18 -16.5 -29.5t-46.5 -11.5 h-154q-49 0 -71.5 11.5t-43.5 41.5l-102 158l-104 -158q-18 -31 -41 -42t-72 -11h-154q-30 0 -47.5 11.5t-17.5 29.5z" />
<glyph unicode="&#x175;" horiz-adv-x="1579" d="M47 954q0 29 41 29h270q27 0 39.5 -9t16.5 -30l110 -465l140 375q10 25 21 34t40 9h129q29 0 40 -9t21 -34l138 -375l112 465q6 20 16.5 29.5t37.5 9.5h272q41 0 41 -29q0 -6 -4 -18l-266 -885q-8 -31 -23.5 -41t-46.5 -10h-201q-29 0 -43 11.5t-24 39.5l-136 371 l-135 -371q-8 -29 -23.5 -40t-43.5 -11h-199q-31 0 -47 10t-25 41l-264 885q-4 12 -4 18zM354 1139q0 25 25 55l196 256q29 35 45.5 45t65.5 10h207q49 0 66.5 -10t44.5 -45l196 -256q25 -31 25 -55q0 -18 -16.5 -29.5t-47.5 -11.5h-153q-49 0 -72 11t-43 42l-102 158 l-105 -158q-18 -31 -40.5 -42t-72.5 -11h-153q-31 0 -48.5 11t-17.5 30z" />
<glyph unicode="&#x176;" horiz-adv-x="1507" d="M47 1352q0 18 11.5 29.5t33.5 11.5h316q29 0 43 -11.5t28 -38.5l275 -483l272 483q14 27 28.5 38.5t43.5 11.5h317q43 0 43 -41q0 -16 -10 -37l-487 -836v-377q0 -53 -25 -77.5t-84 -24.5h-199q-59 0 -83.5 24.5t-24.5 77.5v379l-486 834q-12 18 -12 37zM317 1536 q0 25 25 55l197 256q29 35 45 45.5t65 10.5h207q49 0 66.5 -10.5t44.5 -45.5l196 -256q25 -31 25 -55q0 -18 -16.5 -29.5t-47.5 -11.5h-153q-49 0 -71.5 11.5t-43.5 41.5l-102 158l-105 -158q-18 -31 -40.5 -42t-71.5 -11h-154q-31 0 -48.5 11.5t-17.5 29.5z" />
<glyph unicode="&#x177;" horiz-adv-x="1243" d="M51 944q0 18 11.5 28.5t31.5 10.5h301q55 0 74 -51l176 -467l176 467q10 27 26.5 39t47.5 12h301q41 0 41 -39q0 -14 -10 -39l-381 -809q-72 -152 -133.5 -239.5t-142.5 -131.5t-195 -44q-172 0 -297 100q-23 18 -23 35q0 12 15 37l82 145q14 27 34 27q10 0 39 -15 q35 -20 60.5 -30.5t62.5 -10.5q45 0 69.5 23.5t41.5 73.5l-398 839q-10 20 -10 39zM193 1139q0 25 24 55l197 256q29 35 45 45t65 10h207q49 0 66.5 -10t44.5 -45l196 -256q25 -31 25 -55q0 -18 -16.5 -29.5t-47.5 -11.5h-153q-49 0 -71.5 11t-43.5 42l-102 158l-105 -158 q-18 -31 -40.5 -42t-71.5 -11h-154q-31 0 -48 11t-17 30z" />
<glyph unicode="&#x178;" horiz-adv-x="1507" d="M47 1352q0 18 11.5 29.5t33.5 11.5h316q29 0 43 -11.5t28 -38.5l275 -483l272 483q14 27 28.5 38.5t43.5 11.5h317q43 0 43 -41q0 -16 -10 -37l-487 -836v-377q0 -53 -25 -77.5t-84 -24.5h-199q-59 0 -83.5 24.5t-24.5 77.5v379l-486 834q-12 18 -12 37zM410 1608v51 q0 55 34.5 93t90.5 38h55q55 0 90 -38t35 -93v-51q0 -55 -35 -93t-90 -38h-55q-56 0 -90.5 37.5t-34.5 93.5zM848 1608v51q0 55 36 93t89 38h55q55 0 90 -38t35 -93v-51q0 -55 -35 -93t-90 -38h-55q-53 0 -89 37.5t-36 93.5z" />
<glyph unicode="&#x179;" horiz-adv-x="1306" d="M47 96q0 55 10.5 88t48.5 86l607 824h-543q-59 0 -84 24.5t-25 77.5v94q0 53 25 78t84 25h995q53 0 71.5 -21.5t18.5 -77.5q0 -55 -10 -86.5t-51 -87.5l-602 -823h561q59 0 83 -24.5t24 -77.5v-95q0 -51 -24 -75.5t-83 -24.5h-1016q-53 0 -71.5 20.5t-18.5 75.5z M573 1544q0 16 7 31l90 248q14 41 33.5 55t72.5 14h246q37 0 58.5 -13t21.5 -38q0 -23 -15 -45l-133 -235q-25 -41 -47 -54.5t-82 -13.5h-182q-70 0 -70 51z" />
<glyph unicode="&#x17a;" horiz-adv-x="1103" d="M51 74q0 86 13.5 125t66.5 92l399 393h-368q-59 0 -84 24.5t-25 77.5v95q0 53 24.5 77.5t84.5 24.5h792q45 0 61.5 -15.5t16.5 -54.5q0 -84 -13 -124.5t-65 -96.5l-370 -395h364q59 0 84 -24.5t25 -77.5v-95q0 -51 -24.5 -75.5t-84.5 -24.5h-809q-51 0 -69.5 15.5 t-18.5 58.5zM365 1180q0 16 6 30l90 248q14 41 33.5 55.5t72.5 14.5h246q37 0 58.5 -13.5t21.5 -37.5q0 -23 -14 -45l-134 -236q-25 -41 -47 -54.5t-82 -13.5h-182q-69 1 -69 52z" />
<glyph unicode="&#x17b;" horiz-adv-x="1306" d="M47 96q0 55 10.5 88t48.5 86l607 824h-543q-59 0 -84 24.5t-25 77.5v94q0 53 25 78t84 25h995q53 0 71.5 -21.5t18.5 -77.5q0 -55 -10 -86.5t-51 -87.5l-602 -823h561q59 0 83 -24.5t24 -77.5v-95q0 -51 -24 -75.5t-83 -24.5h-1016q-53 0 -71.5 20.5t-18.5 75.5z M549 1645v51q0 55 34.5 93t90.5 38h55q55 0 90 -38t35 -93v-51q0 -55 -35 -93.5t-90 -38.5h-55q-56 0 -90.5 38t-34.5 94z" />
<glyph unicode="&#x17c;" horiz-adv-x="1103" d="M51 74q0 86 13.5 125t66.5 92l399 393h-368q-59 0 -84 24.5t-25 77.5v95q0 53 24.5 77.5t84.5 24.5h792q45 0 61.5 -15.5t16.5 -54.5q0 -84 -13 -124.5t-65 -96.5l-370 -395h364q59 0 84 -24.5t25 -77.5v-95q0 -51 -24.5 -75.5t-84.5 -24.5h-809q-51 0 -69.5 15.5 t-18.5 58.5zM414 1247v51q0 55 34.5 93.5t90.5 38.5h55q55 0 90 -38t35 -94v-51q0 -55 -35 -93t-90 -38h-55q-56 0 -90.5 38t-34.5 93z" />
<glyph unicode="&#x17d;" horiz-adv-x="1306" d="M47 96q0 55 10.5 88t48.5 86l607 824h-543q-59 0 -84 24.5t-25 77.5v94q0 53 25 78t84 25h995q53 0 71.5 -21.5t18.5 -77.5q0 -55 -10 -86.5t-51 -87.5l-602 -823h561q59 0 83 -24.5t24 -77.5v-95q0 -51 -24 -75.5t-83 -24.5h-1016q-53 0 -71.5 20.5t-18.5 75.5z M231 1903q0 39 62 39h158q49 0 70.5 -10.5t41.5 -41.5l105 -157l102 157q20 31 42 41.5t71 10.5h157q61 0 62 -39q0 -23 -25 -58l-196 -256q-25 -35 -42.5 -44t-68.5 -9h-207q-49 0 -65.5 9t-44.5 44l-197 256q-25 35 -25 58z" />
<glyph unicode="&#x17e;" horiz-adv-x="1103" d="M51 74q0 86 13.5 125t66.5 92l399 393h-368q-59 0 -84 24.5t-25 77.5v95q0 53 24.5 77.5t84.5 24.5h792q45 0 61.5 -15.5t16.5 -54.5q0 -84 -13 -124.5t-65 -96.5l-370 -395h364q59 0 84 -24.5t25 -77.5v-95q0 -51 -24.5 -75.5t-84.5 -24.5h-809q-51 0 -69.5 15.5 t-18.5 58.5zM127 1481q0 39 61 39h158q49 0 70.5 -10.5t42.5 -41.5l104 -157l103 157q20 31 41.5 41.5t70.5 10.5h158q61 0 61 -39q0 -23 -24 -58l-197 -256q-25 -35 -42 -44t-68 -9h-207q-49 0 -65.5 9.5t-45.5 43.5l-196 256q-25 35 -25 58z" />
<glyph unicode="&#x18f;" horiz-adv-x="1429" d="M47 668q0 102 88 102h856q0 188 -76.5 273t-271.5 85q-180 0 -324 -69q-33 -14 -40 -15q-18 0 -33 25l-88 152q-14 29 -15 43q0 23 21 36q86 61 219 92t299 31q242 0 398.5 -97t229 -262t72.5 -372q0 -338 -165.5 -530.5t-514.5 -192.5q-655 1 -655 699zM416 532 q0 -127 71.5 -198.5t214.5 -71.5q138 0 213.5 74t75.5 196h-575z" />
<glyph unicode="&#x192;" horiz-adv-x="1155" d="M-229 -238q0 14 14 35l88 125q14 23 35 23q14 0 29 -8q47 -29 112 -29q61 0 92 30.5t37 92.5l70 669h-74q-57 0 -77.5 24t-20.5 79v78q0 55 20.5 78.5t77.5 23.5h102l5 31q20 195 140 302t337 107t329 -90q20 -14 21 -35q0 -14 -14 -34l-88 -125q-14 -25 -35 -25 q-12 0 -29 10q-53 29 -115 29q-63 0 -91.5 -28.5t-35.5 -90.5l-6 -51h137q57 0 79 -23.5t22 -78.5v-78q0 -55 -21.5 -79t-79.5 -24h-167l-68 -653q-20 -195 -139 -301t-336 -106q-213 0 -328 88q-23 16 -22 34z" />
<glyph unicode="&#x1a0;" horiz-adv-x="1660" d="M47 696q0 348 185.5 537.5t541.5 189.5q291 0 469 -131q55 12 77.5 51t22.5 119q0 43 11.5 57.5t40.5 14.5h221q35 0 47 -14.5t12 -59.5q0 -158 -56 -259t-185 -148q68 -150 67 -357q0 -348 -185.5 -537.5t-541.5 -189.5t-541.5 189.5t-185.5 537.5zM459 696 q0 -217 76.5 -325.5t238.5 -108.5t239 108.5t77 325.5q0 215 -77 323.5t-239 108.5t-238.5 -108.5t-76.5 -323.5z" />
<glyph unicode="&#x1a1;" horiz-adv-x="1468" d="M47 492q0 242 155.5 382t436.5 140q262 0 420 -129q49 14 70.5 53t21.5 115q0 41 11.5 56t39.5 15h221q35 0 47.5 -14t12.5 -59q0 -168 -61.5 -270.5t-207.5 -145.5q18 -68 19 -143q0 -242 -156.5 -382.5t-437.5 -140.5t-436.5 140.5t-155.5 382.5zM459 492 q0 -115 47 -172.5t133 -57.5q180 1 180 230q0 225 -180 225t-180 -225z" />
<glyph unicode="&#x1af;" horiz-adv-x="1808" d="M78 504v784q0 53 24.5 79t81.5 26h199q59 0 84 -26t25 -79v-790q0 -117 65.5 -176.5t175.5 -59.5q111 0 175.5 58.5t64.5 177.5v790q0 53 24.5 79t81.5 26h230q80 0 80 -93v-14q49 8 69.5 24.5t27.5 51.5t7 111q0 35 9 48t36 13h227q35 0 46.5 -12.5t11.5 -53.5 q0 -207 -101.5 -323.5t-332.5 -136.5v-504q0 -166 -83 -287t-230.5 -184.5t-342.5 -63.5q-194 0 -342.5 63.5t-230.5 184.5t-82 287z" />
<glyph unicode="&#x1b0;" horiz-adv-x="1542" d="M78 348v531q0 53 24.5 78.5t81.5 25.5h199q59 0 84 -25.5t25 -78.5v-514q0 -61 27.5 -89t84.5 -28q61 0 94 32.5t33 92.5v506q0 61 32 82.5t118 21.5h157q53 0 79 -21.5t30 -64.5q45 8 61.5 44t16.5 112q0 37 14 54t49 17h209q35 0 47 -14t12 -59q0 -203 -92 -311.5 t-317 -133.5v-543q0 -39 -13.5 -51t-56.5 -12h-211q-25 0 -38 6t-15 25l-10 63q-59 -59 -143.5 -92t-215.5 -33q-176 0 -271 94.5t-95 284.5z" />
<glyph unicode="&#x1cd;" horiz-adv-x="1529" d="M47 37q0 16 10 41l521 1245q16 39 35.5 54.5t58.5 15.5h186q39 0 58.5 -15.5t35.5 -54.5l521 -1245q10 -25 10 -39q0 -18 -11.5 -28.5t-31.5 -10.5h-318q-29 0 -45 11.5t-26 37.5l-72 197h-430l-70 -197q-10 -27 -26.5 -38t-46.5 -11h-316q-43 0 -43 37zM328 1878 q0 39 61 39h158q49 0 70.5 -10.5t41.5 -40.5l105 -158l102 158q20 31 42 41t71 10h158q61 0 61 -39q0 -23 -24 -57l-197 -256q-25 -35 -42 -44.5t-69 -9.5h-207q-49 0 -65 9.5t-45 44.5l-197 256q-25 35 -24 57zM639 524h250l-125 348z" />
<glyph unicode="&#x1ce;" horiz-adv-x="1265" d="M47 442q0 172 79 301t223.5 200t332.5 71q156 0 275.5 -34t220.5 -97v-820q0 -39 -14.5 -51t-57.5 -12h-209q-23 0 -35 7t-20 24l-27 61q-59 -63 -142 -93t-202 -30q-192 0 -308 124t-116 349zM317 1513q0 39 62 39h158q49 0 70.5 -10t41.5 -41l105 -158l102 158 q20 31 42 41t71 10h157q61 0 62 -39q0 -23 -25 -57l-196 -256q-25 -35 -42.5 -44t-68.5 -9h-207q-49 0 -65.5 9t-44.5 44l-197 256q-25 35 -25 57zM459 446q0 -199 166 -198q80 0 125 39t45 110v320q-39 18 -99 18q-109 0 -173 -75.5t-64 -213.5z" />
<glyph unicode="&#x1cf;" horiz-adv-x="638" d="M-125 1878q0 39 62 39h157q49 0 70.5 -10.5t42.5 -40.5l104 -158l103 158q20 31 41.5 41t70.5 10h158q61 0 61 -39q0 -23 -24 -57l-197 -256q-25 -35 -42 -44.5t-68 -9.5h-207q-49 0 -65.5 9.5t-45.5 44.5l-196 256q-25 35 -25 57zM113 102v1186q0 53 24.5 79t81.5 26 h199q59 0 83.5 -26t24.5 -79v-1186q0 -53 -24.5 -77.5t-83.5 -24.5h-199q-59 0 -82.5 24.5t-23.5 77.5z" />
<glyph unicode="&#x1d0;" horiz-adv-x="618" d="M-125 1528q0 41 64 41h153q51 0 73.5 -11.5t41.5 -41.5l102 -156l105 156q18 31 40.5 42t71.5 11h154q31 0 48 -11.5t17 -29.5q0 -25 -24 -55l-197 -256q-29 -35 -45 -44.5t-65 -9.5h-207q-51 0 -68.5 9.5t-42.5 44.5l-196 256q-25 31 -25 55zM102 102v777q0 53 25 78.5 t82 25.5h199q59 0 83.5 -25.5t24.5 -78.5v-777q0 -53 -24.5 -77.5t-83.5 -24.5h-199q-59 0 -83 24.5t-24 77.5z" />
<glyph unicode="&#x1d1;" horiz-adv-x="1548" d="M47 696q0 348 185.5 537.5t541.5 189.5t541.5 -189.5t185.5 -537.5t-185.5 -537.5t-541.5 -189.5t-541.5 189.5t-185.5 537.5zM342 1878q0 39 61 39h158q49 0 70.5 -10.5t42.5 -40.5l104 -158l103 158q20 31 41.5 41t70.5 10h158q61 0 61 -39q0 -23 -24 -57l-197 -256 q-25 -35 -42 -44.5t-68 -9.5h-207q-49 0 -65.5 9.5t-45.5 44.5l-196 256q-25 35 -25 57zM459 696q0 -217 76.5 -325.5t238.5 -108.5t239 108.5t77 325.5q0 215 -77 323.5t-239 108.5t-238.5 -108.5t-76.5 -323.5z" />
<glyph unicode="&#x1d2;" horiz-adv-x="1280" d="M47 492q0 242 155.5 382t436.5 140t437.5 -140.5t156.5 -381.5q0 -242 -156.5 -382.5t-437.5 -140.5t-436.5 140.5t-155.5 382.5zM203 1464q0 39 61 39h158q49 0 70.5 -10t42.5 -41l104 -158l102 158q20 31 42 41t71 10h158q61 0 61 -39q0 -23 -24 -57l-197 -256 q-25 -35 -42 -44t-69 -9h-206q-50 0 -66 9t-45 44l-197 256q-25 35 -24 57zM459 492q0 -115 47 -172.5t133 -57.5q180 1 180 230q0 225 -180 225t-180 -225z" />
<glyph unicode="&#x1d3;" horiz-adv-x="1466" d="M78 504v784q0 53 24.5 79t81.5 26h199q59 0 84 -26t25 -79v-790q0 -115 64.5 -175.5t176.5 -60.5q113 0 176.5 60.5t63.5 175.5v790q0 53 24.5 79t81.5 26h199q59 0 85 -26t26 -79v-784q0 -166 -83 -287t-230.5 -184.5t-342.5 -63.5q-194 0 -342.5 63.5t-230.5 184.5 t-82 287zM291 1878q0 39 61 39h158q49 0 70.5 -10.5t42.5 -40.5l104 -158l102 158q20 31 42 41t71 10h158q61 0 61 -39q0 -23 -24 -57l-197 -256q-25 -35 -42 -44.5t-69 -9.5h-206q-50 0 -66 9.5t-45 44.5l-197 256q-25 35 -24 57z" />
<glyph unicode="&#x1d4;" horiz-adv-x="1234" d="M78 348v531q0 53 24.5 78.5t81.5 25.5h199q59 0 84 -25.5t25 -78.5v-514q0 -117 112 -117q61 0 94 32.5t33 92.5v506q0 53 24.5 78.5t84.5 25.5h198q59 0 84 -25.5t25 -78.5v-816q0 -39 -13.5 -51t-56.5 -12h-211q-25 0 -38 6t-15 25l-10 63q-59 -57 -147.5 -91 t-200.5 -34q-179 0 -278 93.5t-99 285.5zM176 1464q0 39 62 39h157q49 0 70.5 -10t42.5 -41l104 -158l103 158q20 31 41.5 41t70.5 10h158q61 0 62 -39q0 -23 -25 -57l-197 -256q-25 -35 -42 -44t-68 -9h-207q-49 0 -65.5 9t-45.5 44l-196 256q-25 35 -25 57z" />
<glyph unicode="&#x1d5;" horiz-adv-x="1466" d="M78 504v784q0 53 24.5 79t81.5 26h199q59 0 84 -26t25 -79v-790q0 -115 64.5 -175.5t176.5 -60.5q113 0 176.5 60.5t63.5 175.5v790q0 53 24.5 79t81.5 26h199q59 0 85 -26t26 -79v-784q0 -166 -83 -287t-230.5 -184.5t-342.5 -63.5q-194 0 -342.5 63.5t-230.5 184.5 t-82 287zM348 2001v94q0 55 21.5 79t79.5 24h550q57 0 78 -24t21 -79v-94q0 -55 -20.5 -79t-78.5 -24h-550q-58 0 -79.5 24t-21.5 79zM358 1620v51q0 55 35 93t90 38h56q55 0 90 -38t35 -93v-51q0 -55 -35 -93t-90 -38h-56q-55 0 -90 38t-35 93zM797 1620v51q0 55 35.5 93 t89.5 38h55q55 0 90 -38t35 -93v-51q0 -55 -35 -93t-90 -38h-55q-54 0 -89.5 38t-35.5 93z" />
<glyph unicode="&#x1d6;" horiz-adv-x="1234" d="M78 348v531q0 53 24.5 78.5t81.5 25.5h199q59 0 84 -25.5t25 -78.5v-514q0 -117 112 -117q61 0 94 32.5t33 92.5v506q0 53 24.5 78.5t84.5 25.5h198q59 0 84 -25.5t25 -78.5v-816q0 -39 -13.5 -51t-56.5 -12h-211q-25 0 -38 6t-15 25l-10 63q-59 -57 -147.5 -91 t-200.5 -34q-179 0 -278 93.5t-99 285.5zM240 1581v94q0 55 21.5 79t78.5 24h551q57 0 77.5 -23.5t20.5 -79.5v-94q0 -55 -20.5 -78.5t-77.5 -23.5h-551q-57 0 -78.5 23.5t-21.5 78.5zM252 1186v51q0 55 35 93t90 38h55q55 0 90 -38t35 -93v-51q0 -55 -35 -93t-90 -38h-55 q-55 0 -90 37.5t-35 93.5zM690 1186v51q0 55 36 93t89 38h55q55 0 90 -38t35 -93v-51q0 -55 -34.5 -93t-90.5 -38h-55q-53 0 -89 37.5t-36 93.5z" />
<glyph unicode="&#x1d7;" horiz-adv-x="1466" d="M78 504v784q0 53 24.5 79t81.5 26h199q59 0 84 -26t25 -79v-790q0 -115 64.5 -175.5t176.5 -60.5q113 0 176.5 60.5t63.5 175.5v790q0 53 24.5 79t81.5 26h199q59 0 85 -26t26 -79v-784q0 -166 -83 -287t-230.5 -184.5t-342.5 -63.5q-194 0 -342.5 63.5t-230.5 184.5 t-82 287zM360 1640v52q0 55 35 93t90 38h56q55 0 90 -38t35 -93v-52q0 -55 -35 -93t-90 -38h-56q-55 0 -90 38t-35 93zM621 1901q0 16 6 30l65 178q12 39 27.5 51.5t58.5 12.5h137q59 0 60 -39q0 -20 -17 -49l-92 -164q-23 -39 -39 -49t-61 -10h-94q-51 0 -51 39zM805 1640 v52q0 55 34.5 93t90.5 38h53q55 0 90 -38t35 -93v-52q0 -55 -35 -93t-90 -38h-53q-56 0 -90.5 38t-34.5 93z" />
<glyph unicode="&#x1d8;" horiz-adv-x="1234" d="M78 348v531q0 53 24.5 78.5t81.5 25.5h199q59 0 84 -25.5t25 -78.5v-514q0 -117 112 -117q61 0 94 32.5t33 92.5v506q0 53 24.5 78.5t84.5 25.5h198q59 0 84 -25.5t25 -78.5v-816q0 -39 -13.5 -51t-56.5 -12h-211q-25 0 -38 6t-15 25l-10 63q-59 -57 -147.5 -91 t-200.5 -34q-179 0 -278 93.5t-99 285.5zM250 1229v51q0 55 34.5 93t90.5 38h55q55 0 90 -38t35 -93v-51q0 -55 -35 -93t-90 -38h-55q-56 0 -90.5 38t-34.5 93zM510 1489q0 16 6 31l66 178q12 39 27.5 51t58.5 12h137q59 0 59 -39q0 -20 -16 -49l-92 -164q-23 -39 -39.5 -49 t-61.5 -10h-94q-51 0 -51 39zM694 1229v51q0 55 35 93t90 38h53q55 0 90 -38t35 -93v-51q0 -55 -34.5 -93t-90.5 -38h-53q-55 0 -90 38t-35 93z" />
<glyph unicode="&#x1d9;" horiz-adv-x="1466" d="M78 504v784q0 53 24.5 79t81.5 26h199q59 0 84 -26t25 -79v-790q0 -115 64.5 -175.5t176.5 -60.5q113 0 176.5 60.5t63.5 175.5v790q0 53 24.5 79t81.5 26h199q59 0 85 -26t26 -79v-784q0 -166 -83 -287t-230.5 -184.5t-342.5 -63.5q-194 0 -342.5 63.5t-230.5 184.5 t-82 287zM309 2175q0 16 13.5 25.5t35.5 9.5h189q31 0 43 -4t24 -23l113 -158l111 158q12 18 23 22.5t44 4.5h189q23 0 36 -9.5t13 -25.5q0 -23 -23 -45l-202 -232q-4 -6 -19.5 -23t-35 -23.5t-52.5 -6.5h-168q-41 0 -58.5 8.5t-30.5 23.5t-17 21l-205 232q-23 23 -23 45z M362 1636v52q0 55 35 93t90 38h54q55 0 90 -38t35 -93v-52q0 -55 -35 -93t-90 -38h-54q-55 0 -90 38t-35 93zM805 1636v52q0 55 34.5 93t90.5 38h55q55 0 90 -38t35 -93v-52q0 -55 -35 -93t-90 -38h-55q-56 0 -90.5 38t-34.5 93z" />
<glyph unicode="&#x1da;" horiz-adv-x="1234" d="M78 348v531q0 53 24.5 78.5t81.5 25.5h199q59 0 84 -25.5t25 -78.5v-514q0 -117 112 -117q61 0 94 32.5t33 92.5v506q0 53 24.5 78.5t84.5 25.5h198q59 0 84 -25.5t25 -78.5v-816q0 -39 -13.5 -51t-56.5 -12h-211q-25 0 -38 6t-15 25l-10 63q-59 -57 -147.5 -91 t-200.5 -34q-179 0 -278 93.5t-99 285.5zM190 1763q0 16 13.5 25.5t36.5 9.5h188q33 0 44 -4t24 -22l112 -158l111 158q12 18 23.5 22t43.5 4h189q23 0 36 -9t13 -26q0 -23 -23 -45l-202 -231q-4 -6 -19.5 -23.5t-35 -23.5t-52.5 -6h-168q-41 0 -58 8t-30.5 23.5t-17.5 21.5 l-205 231q-23 23 -23 45zM244 1225v51q0 55 34.5 93t90.5 38h53q55 0 90 -38t35 -93v-51q0 -55 -35 -93t-90 -38h-53q-56 0 -90.5 37.5t-34.5 93.5zM686 1225v51q0 55 35 93t90 38h55q55 0 90 -38t35 -93v-51q0 -55 -34.5 -93t-90.5 -38h-55q-55 0 -90 37.5t-35 93.5z" />
<glyph unicode="&#x1db;" horiz-adv-x="1466" d="M78 504v784q0 53 24.5 79t81.5 26h199q59 0 84 -26t25 -79v-790q0 -115 64.5 -175.5t176.5 -60.5q113 0 176.5 60.5t63.5 175.5v790q0 53 24.5 79t81.5 26h199q59 0 85 -26t26 -79v-784q0 -166 -83 -287t-230.5 -184.5t-342.5 -63.5q-194 0 -342.5 63.5t-230.5 184.5 t-82 287zM356 1638v52q0 55 35 93t90 38h56q55 0 90 -38t35 -93v-52q0 -55 -35 -93t-90 -38h-56q-55 0 -90 38t-35 93zM489 2132q0 39 60 39h137q43 0 58.5 -12.5t29.5 -51.5l66 -178q6 -14 6 -28q0 -41 -51 -41h-95q-45 0 -62 10t-40 49l-92 164q-16 29 -17 49zM801 1638 v52q0 55 34.5 93t90.5 38h53q55 0 90 -38t35 -93v-52q0 -55 -35 -93t-90 -38h-53q-56 0 -90.5 38t-34.5 93z" />
<glyph unicode="&#x1dc;" horiz-adv-x="1234" d="M78 348v531q0 53 24.5 78.5t81.5 25.5h199q59 0 84 -25.5t25 -78.5v-514q0 -117 112 -117q61 0 94 32.5t33 92.5v506q0 53 24.5 78.5t84.5 25.5h198q59 0 84 -25.5t25 -78.5v-816q0 -39 -13.5 -51t-56.5 -12h-211q-25 0 -38 6t-15 25l-10 63q-59 -57 -147.5 -91 t-200.5 -34q-179 0 -278 93.5t-99 285.5zM238 1229v51q0 55 34.5 93t89.5 38h56q55 0 90 -38t35 -93v-51q0 -55 -35 -93t-90 -38h-56q-55 0 -89.5 38t-34.5 93zM371 1722q0 39 59 39h137q43 0 58.5 -12t29.5 -51l66 -178q6 -14 6 -29q0 -41 -51 -41h-94q-45 0 -62.5 10 t-40.5 49l-92 164q-16 29 -16 49zM682 1229v51q0 55 35 93t90 38h53q55 0 90 -38t35 -93v-51q0 -55 -35 -93t-90 -38h-53q-55 0 -90 38t-35 93z" />
<glyph unicode="&#x1e6;" horiz-adv-x="1443" d="M47 696q0 356 202 541.5t564 185.5q158 0 287 -31.5t215 -88.5q23 -14 22 -35q0 -12 -14 -41l-90 -154q-12 -27 -33 -26q-12 0 -41 14q-131 68 -291 67q-190 0 -299.5 -108.5t-109.5 -323.5q0 -219 98 -325.5t281 -106.5q45 0 95 8.5t81 20.5v250h-176q-57 0 -79 22.5 t-22 77.5v92q0 53 21.5 76t79.5 23h436q70 0 96.5 -32t26.5 -97v-500q0 -39 -9.5 -60.5t-37.5 -42.5q-188 -133 -537 -133q-364 0 -565 185.5t-201 541.5zM383 1878q0 39 61 39h158q49 0 70.5 -10.5t42.5 -40.5l104 -158l103 158q20 31 41.5 41t70.5 10h158q61 0 61 -39 q0 -23 -24 -57l-197 -256q-25 -35 -42 -44.5t-68 -9.5h-207q-49 0 -65.5 9.5t-45.5 44.5l-196 256q-25 35 -25 57z" />
<glyph unicode="&#x1e7;" horiz-adv-x="1275" d="M47 508q0 250 155.5 378t461.5 128q154 0 293 -43t231 -109v-653q0 -250 -143.5 -403.5t-417.5 -153.5q-123 0 -251 27.5t-190 70.5q-14 12 -14 27q0 10 6 20l88 162q6 10 13.5 17.5t15.5 7.5q4 0 24 -9q96 -49 267 -49q96 0 145 41t49 133q-41 -29 -102.5 -46 t-130.5 -17q-244 0 -372 121t-128 350zM225 1464q0 39 62 39h157q49 0 71 -10t42 -41l105 -158l102 158q20 31 41.5 41t71.5 10h157q61 0 62 -39q0 -23 -25 -57l-197 -256q-25 -35 -42 -44t-68 -9h-207q-49 0 -65.5 9t-45.5 44l-196 256q-25 35 -25 57zM459 526 q0 -104 43 -152t135 -48q147 0 147 141v248q-43 18 -143 18q-90 0 -136 -45t-46 -162z" />
<glyph unicode="&#x1fa;" horiz-adv-x="1529" d="M47 37q0 16 10 41l521 1245l18 37q-41 35 -63.5 85t-22.5 105q0 106 73.5 180t180.5 74q106 0 180 -73.5t74 -180.5q0 -55 -22.5 -104t-61.5 -86l18 -37l521 -1245q10 -25 10 -39q0 -18 -11.5 -28.5t-31.5 -10.5h-318q-29 0 -45 11.5t-26 37.5l-72 197h-430l-70 -197 q-10 -27 -26.5 -38t-46.5 -11h-316q-43 0 -43 37zM594 1898q0 16 6 31l90 248q14 41 33.5 55.5t73.5 14.5h245q37 0 58.5 -13.5t21.5 -38.5q0 -23 -14 -45l-133 -235q-25 -41 -47.5 -54.5t-81.5 -13.5h-182q-70 0 -70 51zM639 524h250l-125 348zM684 1550q0 -33 23.5 -56.5 t56.5 -23.5t55.5 24t22.5 56q0 33 -22.5 55.5t-55.5 22.5t-56.5 -22.5t-23.5 -55.5z" />
<glyph unicode="&#x1fb;" horiz-adv-x="1265" d="M47 442q0 172 79 301t223.5 200t332.5 71q156 0 275.5 -34t220.5 -97v-820q0 -39 -14.5 -51t-57.5 -12h-209q-23 0 -35 7t-20 24l-27 61q-59 -63 -142 -93t-202 -30q-192 0 -308 124t-116 349zM440 1337q0 106 74 180t180 74t180 -73.5t74 -180.5q0 -106 -73.5 -180 t-180.5 -74q-106 0 -180 74t-74 180zM459 446q0 -199 166 -198q80 0 125 39t45 110v320q-39 18 -99 18q-109 0 -173 -75.5t-64 -213.5zM498 1690q0 10 6 24l90 199q14 33 33.5 44t72.5 11h246q37 0 58.5 -10t21.5 -31q0 -16 -14 -37l-133 -188q-25 -33 -47.5 -43t-81.5 -10 h-183q-69 0 -69 41zM614 1337q0 -33 24 -56.5t56 -23.5q33 0 55.5 24t22.5 56q0 33 -22.5 55.5t-55.5 22.5t-56.5 -22.5t-23.5 -55.5z" />
<glyph unicode="&#x1fc;" horiz-adv-x="1820" d="M47 39q0 14 10 39l521 1245q16 39 35.5 54.5t58.5 15.5h995q57 0 78.5 -23.5t21.5 -79.5v-94q0 -55 -21.5 -78.5t-78.5 -23.5h-489v-250h307q57 0 77.5 -23.5t20.5 -79.5v-90q0 -55 -20.5 -78.5t-77.5 -23.5h-307v-252h487q57 0 78.5 -23.5t21.5 -78.5v-95 q0 -53 -21.5 -76.5t-78.5 -23.5h-762q-59 0 -83.5 24.5t-24.5 77.5v148h-246l-72 -205q-10 -31 -34.5 -38t-82.5 -7h-270q-20 0 -31.5 10t-11.5 29zM627 524h168v510zM854 1520q0 16 6 30l90 248q14 41 34 55.5t73 14.5h246q37 0 58 -13.5t21 -37.5q0 -23 -14 -45l-133 -236 q-25 -41 -47.5 -54.5t-81.5 -13.5h-182q-70 1 -70 52z" />
<glyph unicode="&#x1fd;" horiz-adv-x="1906" d="M47 291q0 164 106.5 241.5t317.5 77.5h262v23q0 61 -43 94t-168 33q-68 0 -138.5 -14.5t-117.5 -36.5q-25 -10 -35 -11q-20 0 -32 27l-68 129q-10 20 -10 31q0 18 26 37q145 92 394 92q285 0 395 -162q57 78 152.5 120t220.5 42q272 0 411.5 -134.5t139.5 -371.5 q0 -53 -20.5 -77.5t-67.5 -24.5h-635q0 -84 69.5 -133.5t192.5 -49.5q84 0 137 15.5t113 46.5q25 10 32 10q18 0 31 -25l70 -131q10 -20 10 -30q0 -20 -25 -35q-90 -55 -184 -80t-229 -25q-143 0 -250 47t-168 140q-78 -92 -193.5 -139.5t-259.5 -47.5q-202 0 -319 80 t-117 242zM391 313q0 -90 139 -90q203 0 203 160v27h-221q-61 0 -91 -21.5t-30 -75.5zM739 1180q0 16 6 30l91 248q14 41 33.5 55.5t72.5 14.5h246q37 0 58.5 -13.5t21.5 -37.5q0 -23 -15 -45l-133 -236q-25 -41 -47 -54.5t-82 -13.5h-182q-70 1 -70 52zM1137 608h358 q0 164 -180 164q-90 0 -134 -43t-44 -121z" />
<glyph unicode="&#x1fe;" horiz-adv-x="1548" d="M47 696q0 348 185.5 537.5t541.5 189.5q33 0 98 -4l31 78q16 41 62 41h295q35 0 34 -29q0 -18 -8 -34l-65 -164q139 -88 209.5 -244t70.5 -371q0 -348 -185.5 -537.5t-541.5 -189.5q-33 0 -98 4l-43 -108q-16 -41 -60 -41h-297q-35 0 -34 31q0 8 8 32l78 195 q-139 88 -210 243.5t-71 370.5zM459 696q-1 -127 28 -223l267 655q-150 -8 -222.5 -115.5t-72.5 -316.5zM516 1540q0 16 6 31l90 248q14 41 34 55t73 14h246q37 0 58 -13t21 -38q0 -23 -14 -45l-133 -236q-25 -41 -47.5 -54t-81.5 -13h-182q-70 0 -70 51zM795 262 q149 8 222 116.5t73 317.5q0 127 -29 224z" />
<glyph unicode="&#x1ff;" horiz-adv-x="1280" d="M47 492q0 242 155.5 382t436.5 140h10l47 119q16 41 62 41h295q35 0 34 -29q0 -18 -8 -35l-73 -184q110 -66 168.5 -177.5t58.5 -256.5q0 -242 -156.5 -382.5t-437.5 -140.5h-16l-43 -104q-16 -41 -60 -41h-297q-35 0 -35 31q0 8 9 32l69 174q-106 68 -162.5 177.5 t-56.5 253.5zM459 492q0 -115 47 -172.5t133 -57.5q180 1 180 230q0 225 -180 225t-180 -225zM512 1247q0 16 6 31l90 248q14 41 34 55t73 14h246q37 0 58 -13t21 -38q0 -23 -14 -45l-133 -235q-25 -41 -47.5 -54.5t-81.5 -13.5h-182q-70 0 -70 51z" />
<glyph unicode="&#x218;" horiz-adv-x="1239" d="M47 154q0 16 12 34l101 160q16 25 33 25q10 0 34 -15q76 -43 172.5 -69.5t190.5 -26.5q96 0 142 28.5t46 92.5q0 61 -50 96t-187 88q-207 78 -323 175.5t-116 265.5q0 203 145.5 309t387.5 106q168 0 287.5 -29.5t203.5 -90.5q35 -27 35 -50q0 -14 -12 -32l-100 -160 q-18 -25 -33 -25q-10 0 -35 15q-119 78 -283 77q-88 0 -135 -28.5t-47 -93.5q0 -45 24.5 -74t66.5 -50.5t130 -54.5l39 -14q152 -59 239 -113.5t132 -133.5t45 -197q0 -182 -136 -291t-401 -109q-172 0 -325.5 36t-247.5 101q-35 23 -35 48zM373 -516q0 6 4 27l96 331 q12 47 32.5 61.5t69.5 14.5h164q41 0 58.5 -10t17.5 -35q0 -23 -14 -57l-139 -326q-12 -25 -30 -36t-50 -11h-156q-53 0 -53 41z" />
<glyph unicode="&#x219;" horiz-adv-x="1099" d="M47 119q0 10 10 31l86 153q14 23 31 23q10 0 35 -11q55 -31 147.5 -56.5t161.5 -25.5q61 0 90 14.5t29 43.5t-40 48t-144 50l-45 12q-172 53 -247 118t-75 186q0 150 129 229.5t346 79.5q137 0 237.5 -24.5t190.5 -74.5q37 -20 37 -45q0 -14 -12 -36l-84 -134 q-14 -23 -29 -22q-12 0 -33 12q-49 27 -114.5 43.5t-126.5 16.5q-141 0 -142 -62q0 -27 44 -46t141 -44q115 -33 133 -39q98 -33 151.5 -67.5t76 -83t22.5 -123.5q0 -88 -53.5 -160t-164 -114t-272.5 -42q-289 1 -477 107q-39 25 -39 43zM330 -516q0 6 4 27l96 331 q14 47 33.5 61.5t68.5 14.5h164q41 0 58.5 -10t17.5 -35q0 -23 -14 -57l-140 -326q-12 -25 -29.5 -36t-49.5 -11h-156q-53 0 -53 41z" />
<glyph unicode="&#x21a;" horiz-adv-x="1257" d="M6 1194v96q0 53 20.5 78t77.5 25h1047q57 0 78.5 -25t21.5 -78v-96q0 -53 -21.5 -76.5t-78.5 -23.5h-315v-992q0 -53 -25 -77.5t-84 -24.5h-199q-59 0 -83.5 24.5t-24.5 77.5v992h-316q-57 0 -77.5 23.5t-20.5 76.5zM367 -500q0 6 4 27l92 323q14 45 34.5 60.5t67.5 15.5 h164q41 0 59.5 -10t18.5 -33q0 -20 -16 -59l-136 -318q-10 -25 -27.5 -36t-52.5 -11h-155q-53 0 -53 41z" />
<glyph unicode="&#x21b;" horiz-adv-x="989" d="M10 801v80q0 55 19.5 78.5t76.5 23.5h84v51q0 49 23 99.5t66 121.5q20 35 37.5 45.5t62.5 10.5h121q57 0 80.5 -24.5t23.5 -78.5v-225h164q57 0 76.5 -23.5t19.5 -78.5v-80q0 -55 -19.5 -78t-76.5 -23h-164v-315q0 -63 24.5 -93t80.5 -30q35 0 56 8.5t52 28.5 q16 10 31 10q20 0 35 -24l86 -148q14 -25 14 -39q0 -18 -25 -35q-70 -47 -156.5 -70.5t-205.5 -23.5q-197 0 -301.5 107.5t-104.5 300.5v323h-84q-57 0 -76.5 22.5t-19.5 78.5zM311 -500q0 6 4 27l93 323q14 45 34.5 60.5t67.5 15.5h164q41 0 59.5 -10t18.5 -33 q0 -20 -17 -59l-135 -318q-10 -25 -27.5 -36t-52.5 -11h-155q-54 0 -54 41z" />
<glyph unicode="&#x237;" horiz-adv-x="729" d="M-291 -190q0 14 15 43l88 151q14 29 34 29q16 0 39 -17q100 -72 191 -71q80 0 114.5 37.5t34.5 113.5v783q0 53 24.5 78.5t84.5 25.5h198q59 0 84 -25.5t25 -78.5v-789q0 -203 -122 -320.5t-357 -117.5q-266 0 -430 121q-23 16 -23 37z" />
<glyph unicode="&#x251;" horiz-adv-x="1265" d="M47 442q0 172 79 301t223.5 200t332.5 71q156 0 275.5 -34t220.5 -97v-820q0 -39 -14.5 -51t-57.5 -12h-209q-23 0 -35 7t-20 24l-27 61q-59 -63 -142 -93t-202 -30q-192 0 -308 124t-116 349zM459 446q0 -199 166 -198q80 0 125 39t45 110v320q-39 18 -99 18 q-109 0 -173 -75.5t-64 -213.5z" />
<glyph unicode="&#x259;" horiz-adv-x="1216" d="M47 475q0 100 88 100h643q0 86 -71.5 134.5t-196.5 48.5q-84 0 -138.5 -15.5t-113.5 -46.5q-25 -10 -35 -10q-18 0 -30 25l-70 131q-10 20 -10 30q0 18 26 37q164 104 432 105q172 0 307.5 -57.5t213 -173t77.5 -281.5q0 -260 -147.5 -396.5t-425.5 -136.5 q-270 0 -409.5 133.5t-139.5 372.5zM416 373q0 -164 180 -164q90 0 136 44t46 120h-362z" />
<glyph unicode="&#x2bb;" horiz-adv-x="544" d="M47 963q0 16 14 55l148 348q10 25 27.5 36t52.5 11h155q53 0 54 -41q0 -6 -4 -26l-105 -355q-14 -45 -33.5 -59t-68.5 -14h-164q-41 0 -58.5 10t-17.5 35z" />
<glyph unicode="&#x2bc;" horiz-adv-x="544" d="M47 958q0 6 4 27l105 354q14 45 33.5 59.5t68.5 14.5h164q41 0 58.5 -10t17.5 -35q0 -16 -15 -55l-147 -348q-10 -25 -27.5 -36t-52.5 -11h-156q-53 -1 -53 40z" />
<glyph unicode="&#x2be;" d="M-178 1124v168q0 20 9 27.5t30 7.5q43 0 63.5 12.5t20.5 49.5t-20.5 49t-63.5 12q-20 0 -29.5 7t-9.5 28v168q0 14 10 23.5t27 9.5q168 0 253 -65t85 -232q0 -168 -89.5 -232.5t-248.5 -64.5q-17 0 -27 9t-10 23z" />
<glyph unicode="&#x2bf;" d="M-182 1389q0 168 85 232.5t253 64.5q16 0 26.5 -9.5t10.5 -23.5v-168q0 -20 -9.5 -27.5t-29.5 -7.5q-43 0 -63.5 -12.5t-20.5 -48.5q0 -37 20.5 -49.5t63.5 -12.5q20 0 29.5 -7t9.5 -28v-168q0 -14 -10.5 -23t-26.5 -9q-160 0 -249 64.5t-89 232.5z" />
<glyph unicode="&#x2c6;" horiz-adv-x="964" d="M47 1171q0 25 25 56l196 256q27 35 44.5 45t66.5 10h207q49 0 65.5 -10t44.5 -45l197 -256q25 -31 25 -56q0 -18 -17.5 -29.5t-48.5 -11.5h-154q-49 0 -71.5 11.5t-40.5 42.5l-105 157l-102 -157q-18 -31 -41 -42.5t-74 -11.5h-153q-31 0 -47.5 11.5t-16.5 29.5z" />
<glyph unicode="&#x2c7;" horiz-adv-x="964" d="M47 1528q0 41 64 41h153q51 0 73.5 -11.5t41.5 -41.5l102 -156l105 156q18 31 40.5 42t71.5 11h154q31 0 48.5 -11.5t17.5 -29.5q0 -25 -25 -55l-197 -256q-29 -35 -45 -44.5t-65 -9.5h-207q-51 0 -68.5 9.5t-42.5 44.5l-196 256q-25 31 -25 55z" />
<glyph unicode="&#x2c8;" d="M-160 1229v194q0 57 27 81t82 24h100q55 0 82 -23.5t27 -81.5v-194q0 -57 -27 -80t-82 -23h-100q-55 0 -82 22.5t-27 80.5z" />
<glyph unicode="&#x2c9;" horiz-adv-x="239" d="M-254 1272v94q0 55 20.5 78.5t77.5 23.5h553q57 0 78 -23.5t21 -78.5v-94q0 -55 -20.5 -79t-78.5 -24h-553q-57 0 -77.5 24t-20.5 79z" />
<glyph unicode="&#x2ca;" d="M-248 1196q0 16 6 31l90 248q14 41 34 55t73 14h246q37 0 58.5 -13t21.5 -38q0 -23 -15 -45l-133 -236q-25 -43 -47.5 -55t-81.5 -12h-182q-70 0 -70 51z" />
<glyph unicode="&#x2cb;" d="M-276 1493q0 25 21.5 38t57.5 13h246q53 0 72.5 -14t34.5 -55l90 -248q6 -18 6 -33q0 -23 -17.5 -36t-52.5 -13h-182q-59 0 -81.5 13t-47.5 54l-133 236q-14 23 -14 45z" />
<glyph unicode="&#x2cc;" d="M-160 -176q0 57 27 79.5t82 22.5h100q55 0 82 -22.5t27 -79.5v-197q0 -57 -27 -79.5t-82 -22.5h-100q-55 0 -82 22.5t-27 79.5v197z" />
<glyph unicode="&#x2d8;" horiz-adv-x="868" d="M47 1505q0 16 9.5 26.5t23.5 10.5h221q20 0 27.5 -9t7.5 -30q0 -100 98 -100t98 100q0 20 7.5 29.5t27.5 9.5h221q14 0 23.5 -10t9.5 -27q0 -158 -100 -256t-287 -98q-188 0 -287.5 98.5t-99.5 255.5z" />
<glyph unicode="&#x2d9;" horiz-adv-x="397" d="M47 1296v52q0 55 35 93t90 38h53q55 0 90 -38t35 -93v-52q0 -55 -34.5 -93t-90.5 -38h-53q-55 0 -90 38t-35 93z" />
<glyph unicode="&#x2da;" horiz-adv-x="600" d="M45 1364q0 106 74 180t180 74t181 -74t75 -180t-74.5 -180t-181.5 -74q-106 0 -180 73.5t-74 180.5zM219 1364q0 -33 23.5 -56.5t56.5 -23.5q35 0 57.5 23.5t22.5 56.5t-23.5 55.5t-56.5 22.5t-56.5 -22.5t-23.5 -55.5z" />
<glyph unicode="&#x2db;" horiz-adv-x="532" d="M47 -309q0 57 29.5 116.5t95.5 135.5q14 16 23.5 21t27.5 5h199q18 0 24.5 -10t-4.5 -22q-80 -92 -103.5 -130t-23.5 -81q0 -27 13.5 -41.5t36.5 -14.5q29 0 45 8q12 4 14 5q8 0 14 -15l43 -92q4 -8 4 -12q0 -12 -22 -21q-80 -35 -205 -35q-106 0 -158.5 50.5 t-52.5 132.5z" />
<glyph unicode="&#x2dc;" horiz-adv-x="1042" d="M45 1280q0 25 29 66q61 88 118.5 127.5t139.5 39.5q59 0 107 -16t104 -45q47 -23 71.5 -32t53.5 -9q35 0 58.5 15.5t55.5 54.5q23 27 47 26q37 0 107 -53q37 -27 52.5 -47.5t15.5 -40.5q0 -25 -29 -66q-63 -92 -121.5 -132t-146.5 -40q-45 0 -86 14.5t-95 41.5 q-47 25 -78.5 36t-64.5 11q-39 0 -62.5 -14.5t-56.5 -51.5q-20 -25 -47 -24q-37 0 -106 55q-35 27 -50.5 46.5t-15.5 37.5z" />
<glyph unicode="&#x2dd;" horiz-adv-x="1124" d="M47 1196q0 10 8 31l123 248q20 41 37.5 55t69.5 14h213q37 0 59.5 -13t22.5 -38q0 -23 -17 -45l-166 -236q-25 -33 -36 -44t-31.5 -17t-61.5 -6h-149q-35 0 -53.5 13t-18.5 38zM543 1194q0 16 8 33l123 248q20 41 37.5 55t68.5 14h213q37 0 59.5 -13t22.5 -38 q0 -23 -16 -45l-166 -236q-33 -43 -52.5 -55t-76.5 -12h-150q-34 0 -52.5 13t-18.5 36z" />
<glyph unicode="&#x300;" d="M-408 1477q0 25 21.5 38t58.5 13h246q53 0 72.5 -14.5t34.5 -55.5l90 -248q6 -18 6 -32q0 -23 -17.5 -36.5t-52.5 -13.5h-182q-59 0 -82 13.5t-47 54.5l-133 236q-14 23 -15 45z" />
<glyph unicode="&#x301;" d="M-373 1180q0 16 6 30l91 248q14 41 33.5 55.5t72.5 14.5h246q37 0 58.5 -13.5t21.5 -37.5q0 -23 -15 -45l-133 -236q-25 -41 -47 -54.5t-82 -13.5h-182q-70 1 -70 52z" />
<glyph unicode="&#x302;" d="M-436 1171q0 25 24 56l197 256q29 35 45 45t66 10h206q49 0 66.5 -10t44.5 -45l197 -256q25 -31 24 -56q0 -18 -16.5 -29.5t-46.5 -11.5h-154q-49 0 -71.5 11.5t-43.5 42.5l-102 157l-104 -157q-18 -31 -41 -42.5t-72 -11.5h-154q-30 0 -47.5 11.5t-17.5 29.5z" />
<glyph unicode="&#x303;" d="M-596 1282q0 29 27 64q63 88 120.5 127.5t139.5 39.5q59 0 107 -16t104 -45q47 -23 71.5 -32t53.5 -9q35 0 57 14.5t57 55.5q23 27 47 26q35 0 107 -53q35 -27 50 -47.5t15 -40.5q0 -31 -26 -66q-63 -92 -121.5 -132t-146.5 -40q-46 0 -84.5 13.5t-96.5 42.5 q-47 23 -79.5 35t-65.5 12q-37 0 -60.5 -14.5t-56.5 -51.5q-20 -25 -47 -24q-37 0 -106 55q-35 25 -50.5 45.5t-15.5 40.5z" />
<glyph unicode="&#x304;" d="M-375 1255v95q0 55 21.5 78.5t79.5 23.5h550q57 0 78 -23.5t21 -78.5v-95q0 -55 -20.5 -78.5t-78.5 -23.5h-550q-58 0 -79.5 23.5t-21.5 78.5z" />
<glyph unicode="&#x306;" d="M-387 1489q0 16 9 26.5t24 10.5h221q20 0 27.5 -9.5t7.5 -29.5q0 -100 98 -101q98 0 98 101q0 20 7.5 29.5t27.5 9.5h221q14 0 23.5 -10.5t9.5 -26.5q0 -158 -100.5 -256t-286.5 -98q-188 0 -287.5 98t-99.5 256z" />
<glyph unicode="&#x307;" d="M-154 1280v51q0 55 35 93t90 38h56q55 0 90 -38t35 -93v-51q0 -55 -35 -93t-90 -38h-56q-55 0 -90 38t-35 93z" />
<glyph unicode="&#x308;" d="M-371 1219v51q0 55 35 93t90 38h56q55 0 89.5 -38t34.5 -93v-51q0 -55 -34.5 -93.5t-89.5 -38.5h-56q-55 0 -90 38t-35 94zM68 1219v51q0 55 35.5 93t89.5 38h55q55 0 90 -38t35 -93v-51q0 -55 -35 -93.5t-90 -38.5h-55q-54 0 -89.5 38t-35.5 94z" />
<glyph unicode="&#x309;" d="M-391 1548q0 10 12 17q43 29 116 46t140 17q145 0 218 -56t73 -163q0 -94 -54.5 -150.5t-133.5 -56.5v-33q0 -47 -48 -47h-155q-47 0 -47 47v107q0 35 15 49t58 14q53 0 77 11.5t24 42.5q0 45 -74 45q-59 0 -137 -37q-16 -6 -25 6l-55 129q-4 8 -4 12z" />
<glyph unicode="&#x30a;" d="M-254 1364q0 106 74 180t180 74t180 -74t74 -180t-74 -180t-180 -74t-180 73.5t-74 180.5zM-80 1364q0 -33 22.5 -56.5t57.5 -23.5q33 0 55.5 23.5t22.5 56.5t-22.5 55.5t-55.5 22.5t-56.5 -22.5t-23.5 -55.5z" />
<glyph unicode="&#x30b;" d="M-520 1194q0 16 8 33l121 248q23 43 40 56t68 13h213q37 0 59.5 -13t22.5 -38q0 -20 -18 -45l-164 -236q-23 -31 -35 -43t-33.5 -18t-62.5 -6h-148q-34 0 -52.5 13t-18.5 36zM-27 1196q0 10 9 31l122 248q16 33 24.5 44t28 18t56.5 7h211q37 0 59.5 -13t22.5 -38 q0 -23 -17 -45l-165 -236q-31 -43 -51.5 -55t-77.5 -12h-148q-37 0 -55.5 13t-18.5 38z" />
<glyph unicode="&#x30c;" d="M-436 1513q0 39 61 39h158q49 0 70.5 -10t42.5 -41l104 -158l102 158q20 31 42 41t71 10h158q61 0 61 -39q0 -23 -24 -57l-197 -256q-25 -35 -42 -44t-69 -9h-206q-50 0 -66 9t-45 44l-197 256q-25 35 -24 57z" />
<glyph unicode="&#x31b;" d="M-287 1008v270q98 0 148.5 15.5t70 54t19.5 114.5q0 43 11 57.5t40 14.5h221q35 0 47.5 -14.5t12.5 -59.5q0 -154 -51.5 -252t-176.5 -149t-342 -51z" />
<glyph unicode="&#x323;" d="M-276 -240q0 55 35.5 93t88.5 38h56q55 0 90 -37.5t35 -93.5v-51q0 -55 -35 -93t-90 -38h-56q-53 0 -88.5 38t-35.5 93v51z" />
<glyph unicode="&#x324;" d="M-373 -240q0 55 35 93t90 38h55q53 0 89 -37.5t36 -93.5v-51q0 -55 -34.5 -93t-90.5 -38h-55q-55 0 -90 38t-35 93v51zM70 -240q0 55 34.5 93t90.5 38h53q55 0 90 -37.5t35 -93.5v-51q0 -55 -35 -93t-90 -38h-53q-56 0 -90.5 38t-34.5 93v51z" />
<glyph unicode="&#x326;" d="M-184 -537q0 6 4 27l102 354q14 45 34.5 60.5t68.5 15.5h163q41 0 59.5 -10t18.5 -33q0 -20 -16 -59l-148 -348q-10 -25 -27.5 -36.5t-49.5 -11.5h-156q-53 0 -53 41z" />
<glyph unicode="&#x327;" d="M-237.5 -444.5q-4.5 6.5 1.5 20.5l43 109q6 14 17 14q8 0 20 -6q41 -20 88 -21q68 0 68 43q0 31 -24.5 42.5t-81.5 11.5h-35q-16 0 -21.5 9t0.5 23l56 140q6 16 15 22t30 6h211q25 0 24 -16q0 -10 -4 -16l-47 -103q70 -12 102.5 -49t32.5 -102q0 -78 -67.5 -129.5 t-200.5 -51.5q-56 0 -115 10.5t-90 26.5q-18 10 -22.5 16.5z" />
<glyph unicode="&#x328;" d="M-246 -309q0 57 30 116.5t95 135.5q14 16 23.5 21t27.5 5h199q18 0 24.5 -10t-3.5 -22q-78 -96 -101.5 -133t-23.5 -78q0 -55 49 -56q29 0 45 8q12 4 14 5q8 0 14 -15l43 -92q4 -8 5 -12q0 -12 -25 -23q-72 -33 -209 -33q-102 0 -154.5 51.5t-52.5 131.5z" />
<glyph unicode="&#x32e;" d="M-387 -113q0 16 9 26.5t24 10.5h221q20 0 27.5 -9t7.5 -30q0 -100 98 -100t98 100q0 20 7.5 29.5t27.5 9.5h221q14 0 23.5 -10t9.5 -27q0 -158 -100.5 -256t-286.5 -98q-188 0 -287.5 98.5t-99.5 255.5z" />
<glyph unicode="&#x331;" d="M-348 -219q0 53 20.5 77.5t77.5 24.5h498q57 0 78.5 -24.5t21.5 -77.5v-64q0 -53 -21.5 -76.5t-78.5 -23.5h-498q-57 0 -77.5 23.5t-20.5 76.5v64z" />
<glyph unicode="&#x394;" horiz-adv-x="1583" d="M47 57q0 16 10 43l574 1325q10 29 23.5 39.5t41.5 10.5h193q29 0 42 -10.5t23 -39.5l570 -1325q10 -27 10 -43q0 -57 -78 -57h-1331q-78 0 -78 57zM553 299h475l-237 561z" />
<glyph unicode="&#x3a9;" horiz-adv-x="1515" d="M47 100v97q0 55 20.5 78.5t77.5 23.5h136q-100 66 -163 186.5t-63 264.5q0 305 169 489t534 184q362 0 532 -185t170 -488q0 -143 -62.5 -264t-164.5 -187h137q55 0 76.5 -23.5t21.5 -78.5v-97q0 -53 -21.5 -76.5t-76.5 -23.5h-430q-72 0 -97.5 22.5t-25.5 81.5v84 q0 39 14.5 70t57.5 74q80 82 119 173t39 245q0 186 -73 282t-218 96q-143 0 -216 -96t-73 -282q0 -152 39 -242t119 -176q43 -45 57 -76t14 -68v-84q0 -59 -25.5 -81.5t-97.5 -22.5h-430q-55 0 -75.5 23.5t-20.5 76.5z" />
<glyph unicode="&#x3bc;" horiz-adv-x="1163" d="M47 -260v1139q0 55 25.5 79.5t89.5 24.5h190q59 0 84 -25.5t25 -78.5v-514q0 -57 28.5 -87t83.5 -30q127 0 127 125v506q0 45 15.5 67.5t50.5 29.5t104 7h138q59 0 83.5 -25.5t24.5 -78.5v-816q0 -39 -13 -51t-56 -12h-211q-25 0 -38.5 6t-15.5 25l-10 63 q-23 -55 -70 -90t-112 -35q-82 0 -129 31v-260q0 -45 -15.5 -66.5t-50.5 -28.5t-104 -7h-137q-58 0 -82.5 24.5t-24.5 77.5z" />
<glyph unicode="&#x3c0;" horiz-adv-x="1519" d="M27 813v64q0 57 19.5 81.5t78.5 24.5h1069q59 0 78.5 -24.5t19.5 -81.5v-93q0 -53 -20.5 -76.5t-77.5 -23.5h-41v-305q0 -63 19.5 -90t68.5 -27q35 0 56.5 8.5t52.5 28.5q16 10 30 10q20 0 35 -24l86 -148q14 -25 15 -39q0 -18 -25 -35q-70 -47 -157 -70.5t-206 -23.5 q-196 0 -284 103.5t-88 304.5v307h-191v-582q0 -66 -33.5 -84t-132.5 -18h-125q-59 0 -83.5 24.5t-24.5 77.5v582h-41q-63 0 -80.5 27.5t-17.5 101.5z" />
<glyph unicode="&#xe01;" horiz-adv-x="1300" d="M47 846q0 37 37 67q94 80 245.5 136.5t321.5 56.5q299 0 430 -126t131 -341v-537q0 -53 -24.5 -77.5t-83.5 -24.5h-199q-59 0 -83.5 24.5t-24.5 77.5v545q0 84 -34 123t-114 39q-113 0 -174 -45l23 -39q14 -27 20 -52.5t6 -62.5v-508q0 -53 -25.5 -77.5t-84.5 -24.5h-197 q-59 0 -83.5 24.5t-24.5 77.5v560l-43 108q-18 45 -19 76z" />
<glyph unicode="&#xe02;" horiz-adv-x="1218" d="M47 842v159q0 41 15.5 57.5t56.5 16.5h323q70 0 97.5 -29.5t27.5 -93.5v-174q0 -57 -35 -92q-37 -33 -50 -70.5t-13 -105.5v-150q0 -45 30.5 -70.5t92.5 -25.5q53 0 88 26.5t35 69.5v611q0 53 24.5 78.5t83.5 25.5h199q59 0 83.5 -25.5t24.5 -78.5v-572 q0 -197 -141 -313.5t-397 -116.5q-254 0 -396.5 102.5t-142.5 288.5v82q0 201 154 295v15q0 14 -6 18t-23 4h-59q-43 0 -57.5 13.5t-14.5 54.5z" />
<glyph unicode="&#xe03;" horiz-adv-x="1218" d="M47 772v256q0 47 47 47h156q47 0 47 -47v-10q68 57 168 57q78 0 120 -44t42 -122v-176q0 -41 -10.5 -68.5t-34.5 -46.5q-53 -43 -74 -72.5t-21 -90.5v-82q0 -55 30 -82t83 -27q55 0 85 24.5t30 71.5v611q0 53 24.5 78.5t83.5 25.5h199q59 0 83.5 -25.5t24.5 -78.5v-572 q0 -197 -137 -313.5t-393 -116.5q-158 0 -276.5 43t-183 123t-64.5 184v78q0 221 258 332v43q0 39 -31 39q-27 0 -41 -27v-14q0 -45 -45 -45h-123q-47 0 -47 47z" />
<glyph unicode="&#xe04;" horiz-adv-x="1292" d="M88 102v560q0 215 140.5 329.5t416.5 114.5t417.5 -114.5t141.5 -329.5v-560q0 -53 -25.5 -77.5t-84.5 -24.5h-199q-59 0 -83 24.5t-24 77.5v551q0 82 -33.5 120t-109.5 38t-109.5 -38t-33.5 -120v-121q41 49 110 50h50q25 0 32.5 -9.5t7.5 -37.5v-195q0 -31 -9 -42 t-31 -11h-62q-43 0 -70.5 -31t-27.5 -80v-74q0 -53 -24.5 -77.5t-84.5 -24.5h-198q-60 0 -83.5 24.5t-23.5 77.5z" />
<glyph unicode="&#xe05;" horiz-adv-x="1292" d="M88 102v703q0 301 315 301q74 0 139.5 -26.5t104.5 -71.5q37 45 102.5 71.5t139.5 26.5q315 0 315 -301v-703q0 -53 -25.5 -77.5t-84.5 -24.5h-199q-59 0 -83 24.5t-24 77.5v633q0 41 -11 58.5t-46 17.5t-57 -35q-10 -12 -17.5 -17t-19.5 -5q-14 0 -22.5 5t-18.5 17 q-4 4 -12.5 14.5t-19.5 15.5t-25 5q-31 0 -43.5 -18.5t-12.5 -57.5v-217q23 33 59 48.5t70 15.5h50q25 0 32.5 -9.5t7.5 -37.5v-195q0 -31 -9 -42t-31 -11h-62q-43 0 -70.5 -31t-27.5 -80v-74q0 -53 -24.5 -77.5t-84.5 -24.5h-198q-60 0 -83.5 24.5t-23.5 77.5z" />
<glyph unicode="&#xe06;" horiz-adv-x="1253" d="M45 772v256q0 47 47 47h156q47 0 47 -47v-10q68 57 168 57q78 0 120 -44t42 -122v-176q0 -41 -10.5 -68.5t-34.5 -46.5q-53 -43 -74 -72.5t-21 -90.5v-82q4 -57 37 -90t96 -33t98.5 29.5t35.5 89.5v602q0 53 24.5 78.5t83.5 25.5h199q57 0 81.5 -25.5t24.5 -78.5v-619 q0 -193 -106.5 -288t-290.5 -95q-209 0 -350 137l-6 -61q-6 -45 -62 -45h-186q-90 0 -90 90v307q0 221 258 332v43q0 39 -31 39q-27 0 -41 -27v-14q0 -45 -45 -45h-123q-47 0 -47 47z" />
<glyph unicode="&#xe07;" horiz-adv-x="1263" d="M49 678q0 29 43 43l246 84q27 10 43 10q35 0 49 -53l125 -395q18 -57 43 -80t78 -23q70 0 100.5 68.5t30.5 218.5q0 137 -29.5 198.5t-97.5 61.5q-27 0 -84 -20q-8 -4 -25 -5q-23 0 -34 31l-64 166q-6 16 -6 27q0 20 25 30q68 35 132 50.5t150 15.5q211 0 327 -147.5 t116 -407.5q0 -283 -149.5 -432.5t-422.5 -149.5q-205 0 -314.5 78t-160.5 236l-111 350q-10 31 -10 45z" />
<glyph unicode="&#xe08;" horiz-adv-x="1208" d="M47 954q0 20 25 39q82 55 213 84t288 29q311 0 449.5 -149.5t138.5 -426.5q0 -281 -140 -421t-396 -140q-219 0 -324.5 89t-105.5 216v45h-58q-43 0 -58.5 16.5t-15.5 57.5v146q0 39 16.5 56t57.5 17h285q59 0 83.5 -24.5t24.5 -77.5v-158q0 -45 24 -66.5t71 -21.5 q66 0 94.5 60.5t28.5 205.5q0 152 -61.5 216.5t-203.5 64.5q-78 0 -138 -16.5t-120 -44.5q-29 -14 -43 -15q-18 0 -35 27l-86 149q-14 29 -14 43z" />
<glyph unicode="&#xe09;" horiz-adv-x="1247" d="M47 954q0 20 25 39q82 53 214 83t287 30q305 0 445.5 -130t140.5 -380v-506q0 -90 -92 -90h-182q-55 0 -62 45l-10 61q-59 -68 -138 -102.5t-200 -34.5q-184 0 -290.5 95.5t-106.5 287.5v164q0 53 24.5 79t83.5 26h199q59 0 84 -26t25 -79v-147q0 -61 28.5 -91t91.5 -30 t96 34.5t33 94.5v174q0 143 -56 201.5t-204 58.5q-78 0 -137 -16.5t-121 -46.5q-29 -14 -43 -15q-20 0 -35 27l-86 151q-14 29 -14 43z" />
<glyph unicode="&#xe0a;" horiz-adv-x="1224" d="M53 842v159q0 41 15.5 57.5t56.5 16.5h324q70 0 97 -29.5t27 -93.5v-174q0 -57 -34 -92q-37 -35 -50.5 -73t-13.5 -103v-150q0 -45 31 -70.5t92 -25.5q53 0 88 26.5t35 69.5v170q0 47 -12.5 71t-42.5 48q-18 14 -22.5 29.5t-4.5 44.5v78q0 18 6 27.5t29 29.5q35 33 45 70 t10 121q0 31 12.5 44t46.5 13h306q29 0 37 -10.5t8 -34.5q0 -113 -36 -185.5t-120 -115.5q84 -41 119 -103.5t35 -162.5v-95q0 -197 -141.5 -313.5t-397.5 -116.5q-254 0 -396.5 102.5t-142.5 288.5v82q0 201 154 295v15q0 14 -6 18t-23 4h-59q-43 0 -57.5 13.5t-14.5 54.5z " />
<glyph unicode="&#xe0b;" horiz-adv-x="1224" d="M47 772v256q0 47 47 47h156q47 0 47 -47v-10q68 57 168 57q78 0 120 -44t42 -122v-176q0 -41 -10.5 -68.5t-34.5 -46.5q-53 -43 -74 -72.5t-21 -90.5v-95q0 -96 117 -96q53 0 85 26.5t32 69.5v170q0 49 -10.5 74t-34.5 45q-16 16 -21.5 31.5t-5.5 42.5v78q0 18 6.5 27.5 t28.5 29.5q27 25 36 66t9 125q0 31 12.5 44t46.5 13h306q29 0 37 -10.5t8 -34.5q0 -113 -36 -185.5t-120 -115.5q84 -41 119 -103.5t35 -162.5v-95q0 -197 -137.5 -313.5t-393.5 -116.5q-252 0 -391 102.5t-139 288.5v37q0 221 258 332v43q0 39 -31 39q-27 0 -41 -27v-14 q0 -45 -45 -45h-123q-47 0 -47 47z" />
<glyph unicode="&#xe0c;" horiz-adv-x="1964" d="M47 846q0 37 37 67q94 80 245.5 136.5t321.5 56.5q557 0 557 -467v-266q0 -57 31 -90t94 -33q127 0 127 119v602q0 53 25.5 78.5t85.5 25.5h198q57 0 82 -25.5t25 -78.5v-619q0 -193 -106.5 -288t-290.5 -95q-119 0 -198 36t-138 108l-8 -68q-6 -45 -64 -45h-182 q-92 0 -92 90v557q0 84 -34 123t-114 39q-113 0 -174 -45l23 -39q14 -27 20 -52.5t6 -62.5v-272q0 -25 6.5 -32t22.5 -7h41q35 0 45 -12.5t10 -50.5v-162q0 -37 -11 -52.5t-37 -18.5t-87 -3h-281q-125 0 -124 129v533l-43 108q-18 45 -19 76z" />
<glyph unicode="&#xe0d;" horiz-adv-x="1980" d="M47 846q0 37 37 67q94 80 245.5 136.5t321.5 56.5q557 0 557 -467v-72q0 -84 30 -119.5t105 -35.5q76 0 105 35.5t29 119.5v404q0 61 31.5 82.5t117.5 21.5h156q59 0 84.5 -25.5t25.5 -78.5v-647q0 -305 -137 -452.5t-444 -147.5q-244 0 -414 100q-27 14 -27 37 q0 16 11 33l84 157q18 31 36 31q12 0 33 -10q57 -27 130 -43.5t136 -16.5q94 0 145.5 32t65.5 101q-74 -27 -174 -26q-272 0 -406 105.5t-134 322.5v100q0 84 -34 123t-114 39q-113 0 -174 -45l23 -39q14 -27 20 -52.5t6 -62.5v-272q0 -25 6.5 -32t22.5 -7h41q35 0 45 -12.5 t10 -50.5v-162q0 -37 -11 -52.5t-37 -18.5t-87 -3h-281q-125 0 -124 129v533l-43 108q-18 45 -19 76z" />
<glyph unicode="&#xe0e;" horiz-adv-x="1318" d="M39 74v166q0 37 13.5 48t45.5 11h37q14 0 17.5 14.5t3.5 38.5v301l-74 117q-18 29 -19 76q0 37 37 67q94 80 246 136.5t322 56.5q295 0 429 -126t134 -337v-932q0 -49 -23.5 -71.5t-77.5 -22.5h-116q-31 0 -57.5 8t-84.5 29q-53 20 -100 27.5t-113 7.5q-137 0 -245 -68 q-14 -8 -25 -8q-18 0 -37 29l-110 153q-8 10 -9 23q0 14 19 30q66 49 163 81t191 32q72 0 118 -6t91 -25v717q0 84 -35 123t-112 39q-102 0 -168 -43l35 -49q23 -33 29.5 -60.5t6.5 -85.5v-471q0 -53 -20.5 -76.5t-75.5 -23.5h-366q-41 0 -55.5 16.5t-14.5 57.5z" />
<glyph unicode="&#xe0f;" horiz-adv-x="1318" d="M39 74v166q0 37 13.5 48t45.5 11h37q14 0 17.5 14.5t3.5 38.5v301l-74 117q-18 29 -19 76q0 37 37 67q94 80 246 136.5t322 56.5q295 0 429 -126t134 -337v-739q0 -129 -81 -217t-220 -88q-228 -1 -318 110q-55 -94 -192 -94h-144q-20 0 -30 9t-10 32v205q0 39 38 39h136 q45 0 67.5 11t42.5 32q18 23 37 22h80q20 0 43 -31q16 -20 31.5 -31.5t40.5 -11.5q31 0 47 15.5t16 54.5v686q0 84 -35 123t-112 39q-102 0 -168 -43l35 -49q23 -33 29.5 -60.5t6.5 -85.5v-471q0 -53 -20.5 -76.5t-75.5 -23.5h-366q-41 0 -55.5 16.5t-14.5 57.5z" />
<glyph unicode="&#xe10;" horiz-adv-x="1261" d="M49 952q0 25 25 41q82 53 213 83t286 30q125 0 238 -31q61 37 121.5 63.5t97.5 37.5q41 10 62 10q45 0 57 -39l57 -158q6 -14 6 -28q0 -27 -38 -46l-97 -41q84 -125 84 -344q0 -150 -42 -260t-120 -176q78 -35 120 -100.5t42 -149.5q0 -102 -69.5 -171.5t-184.5 -69.5 q-184 -1 -278 108q-33 -47 -90.5 -68.5t-124.5 -21.5h-176q-20 0 -30.5 9.5t-10.5 31.5v162q0 39 39 39h184q45 0 66.5 7t35.5 26q12 16 20.5 22t24.5 6h88q18 0 26.5 -6t20.5 -22q27 -43 82 -43q59 0 60 55q0 55 -45 84q-98 -23 -174 -23q-219 0 -324.5 87t-105.5 214v49 h-58q-43 0 -58.5 16.5t-15.5 57.5v146q0 39 16.5 56t57.5 17h285q59 0 83.5 -24.5t24.5 -77.5v-156q0 -90 95 -90q66 0 94.5 60.5t28.5 205.5q0 150 -65 215.5t-200 65.5q-143 0 -260 -61q-29 -14 -39 -15q-23 0 -37 29l-86 147q-12 23 -12 41z" />
<glyph unicode="&#xe11;" horiz-adv-x="1247" d="M47 772v256q0 47 47 47h156q47 0 47 -47v-10q31 29 66.5 43t91.5 14q86 0 129 -57q104 88 245 88q160 0 245 -90t85 -262v-652q0 -53 -24.5 -77.5t-83.5 -24.5h-193q-59 0 -84.5 24.5t-25.5 77.5v621q0 74 -70 74q-37 0 -64 -23v-78q0 -49 -5 -71.5t-25 -46.5 q-29 -35 -41.5 -68t-12.5 -86v-322q0 -53 -24.5 -77.5t-83.5 -24.5h-199q-59 0 -83.5 24.5t-24.5 77.5v283q0 250 217 348v39q0 39 -31 39q-27 0 -41 -27v-14q0 -45 -43 -45h-123q-47 0 -47 47z" />
<glyph unicode="&#xe12;" horiz-adv-x="1984" d="M47 496q0 289 107.5 449.5t300.5 160.5q68 0 122 -26.5t87 -71.5q37 45 102 71.5t141 26.5q166 0 243 -85t77 -230v-418q0 -55 35.5 -89t101.5 -34q61 0 89 29.5t28 89.5v602q0 53 25.5 78.5t84.5 25.5h197q59 0 83.5 -25.5t24.5 -78.5v-619q0 -193 -104 -288t-287 -95 q-115 0 -199.5 39t-140.5 103l-8 -62q-6 -49 -65 -49h-179q-45 0 -66.5 21.5t-21.5 66.5v647q0 37 -13 56.5t-48 19.5q-31 0 -59 -37q-16 -23 -41 -22q-31 0 -48 22q-2 4 -11 15.5t-19.5 16.5t-24.5 5q-102 0 -102 -315q0 -125 29.5 -178.5t95.5 -53.5q41 0 78 17q6 2 14 2 q23 0 29 -29l40 -193q2 -6 3 -16q0 -14 -8.5 -22.5t-28.5 -16.5q-51 -18 -102.5 -27.5t-129.5 -9.5q-207 0 -319.5 140.5t-112.5 386.5z" />
<glyph unicode="&#xe13;" horiz-adv-x="1968" d="M47 846q0 37 37 67q94 80 245.5 136.5t321.5 56.5q557 0 557 -467v-270q0 -119 131 -119q63 0 94 32.5t31 90.5v598q0 53 24.5 78.5t82.5 25.5h198q59 0 85 -25.5t26 -78.5v-881q0 -90 -92 -90h-186q-57 0 -64 45l-8 68q-59 -72 -138 -108t-198 -36q-184 0 -290.5 95.5 t-106.5 287.5v295q0 84 -34 123t-114 39q-113 0 -174 -45l23 -39q14 -27 20 -52.5t6 -62.5v-272q0 -25 6.5 -32t22.5 -7h41q35 0 45 -12.5t10 -50.5v-162q0 -37 -11 -52.5t-37 -18.5t-87 -3h-281q-125 0 -124 129v533l-43 108q-18 45 -19 76z" />
<glyph unicode="&#xe14;" horiz-adv-x="1339" d="M47 496q0 295 159 452.5t466 157.5q297 0 438 -128t141 -345v-531q0 -53 -24.5 -77.5t-83.5 -24.5h-199q-59 0 -83.5 24.5t-24.5 77.5v516q0 94 -38 143.5t-126 49.5q-109 0 -161 -77t-52 -251q0 -119 29.5 -169t95.5 -50q41 0 78 17q6 2 14 2q23 0 29 -29l40 -193 q2 -6 3 -16q0 -14 -8.5 -22.5t-28.5 -16.5q-51 -18 -102.5 -27.5t-129.5 -9.5q-207 0 -319.5 140.5t-112.5 386.5z" />
<glyph unicode="&#xe15;" horiz-adv-x="1339" d="M47 496q0 190 52.5 328.5t147.5 210t222 71.5q129 0 201 -98q37 45 103.5 71.5t141.5 26.5q170 0 253 -81t83 -222v-701q0 -53 -24.5 -77.5t-83.5 -24.5h-199q-59 0 -83.5 24.5t-24.5 77.5v633q0 76 -62 76q-35 0 -63 -37q-10 -12 -19.5 -17t-23.5 -5q-16 0 -25.5 5 t-19.5 17q-14 20 -25.5 28.5t-32.5 8.5q-49 0 -77.5 -78t-28.5 -237q0 -125 29.5 -178.5t95.5 -53.5q41 0 78 17q6 2 14 2q23 0 29 -29l40 -193q2 -6 3 -16q0 -14 -8.5 -22.5t-28.5 -16.5q-51 -18 -102.5 -27.5t-129.5 -9.5q-207 0 -319.5 140.5t-112.5 386.5z" />
<glyph unicode="&#xe16;" horiz-adv-x="1300" d="M47 846q0 37 37 67q94 80 245.5 136.5t321.5 56.5q299 0 430 -126t131 -341v-537q0 -53 -24.5 -77.5t-83.5 -24.5h-199q-59 0 -83.5 24.5t-24.5 77.5v545q0 84 -34 123t-114 39q-113 0 -174 -45l23 -39q14 -27 20 -52.5t6 -62.5v-272q0 -25 6.5 -32t22.5 -7h41 q35 0 45 -12.5t10 -50.5v-162q0 -37 -11 -52.5t-37 -18.5t-87 -3h-281q-124 0 -124 129v533l-43 108q-18 45 -19 76z" />
<glyph unicode="&#xe17;" horiz-adv-x="1286" d="M88 102v881q0 92 92 92h182q57 0 64 -47l8 -65q137 143 359 143q184 0 294.5 -97.5t110.5 -287.5v-619q0 -53 -23.5 -77.5t-82.5 -24.5h-199q-59 0 -85 24.5t-26 77.5v603q0 121 -127 120q-72 0 -112.5 -34.5t-40.5 -90.5v-598q0 -53 -23.5 -77.5t-83.5 -24.5h-198 q-60 0 -84.5 24.5t-24.5 77.5z" />
<glyph unicode="&#xe18;" horiz-adv-x="1128" d="M47 799q0 156 130 231.5t372 75.5q289 0 471 -94q39 -20 39 -47q0 -16 -12 -35l-86 -142q-14 -25 -29 -24q-14 0 -35 12q-55 27 -129 45.5t-147 18.5q-80 0 -121 -12.5t-41 -43.5q0 -29 40 -45t140 -41q47 -10 104 -24q133 -35 206 -76t102.5 -99.5t29.5 -150.5 q0 -172 -130 -275.5t-410 -103.5q-248 0 -369 94.5t-121 284.5v49q0 39 11.5 51.5t43.5 12.5h234q41 0 53.5 -13.5t12.5 -50.5v-37q0 -45 35.5 -70.5t99.5 -25.5q129 0 129 101q0 53 -43 77.5t-150 51.5q-170 43 -256 76.5t-130 86t-44 142.5z" />
<glyph unicode="&#xe19;" horiz-adv-x="1286" d="M88 352v619q0 53 24.5 78.5t82.5 25.5h198q59 0 84 -25.5t25 -78.5v-602q0 -119 129 -119q66 0 108.5 34.5t42.5 88.5v598q0 53 24.5 78.5t84.5 25.5h199q59 0 83.5 -25.5t24.5 -78.5v-881q0 -90 -92 -90h-184q-55 0 -62 45l-8 61q-59 -66 -143 -101.5t-215 -35.5 q-185 0 -295.5 96.5t-110.5 286.5z" />
<glyph unicode="&#xe1a;" horiz-adv-x="1308" d="M88 412v559q0 53 24.5 78.5t82.5 25.5h198q59 0 84 -25.5t25 -78.5v-553q0 -82 35.5 -119t115.5 -37t116 37t36 119v553q0 53 24.5 78.5t81.5 25.5h199q59 0 85 -25.5t26 -78.5v-559q0 -217 -141.5 -330t-426.5 -113q-284 0 -424.5 113t-140.5 330z" />
<glyph unicode="&#xe1b;" horiz-adv-x="1308" d="M88 412v559q0 53 24.5 78.5t82.5 25.5h198q59 0 84 -25.5t25 -78.5v-553q0 -82 35.5 -119t115.5 -37t116 37t36 119v911q0 53 24.5 79t81.5 26h199q59 0 85 -26t26 -79v-917q0 -217 -141.5 -330t-426.5 -113q-284 0 -424.5 113t-140.5 330z" />
<glyph unicode="&#xe1c;" horiz-adv-x="1288" d="M88 72v899q0 53 24.5 78.5t82.5 25.5h290q43 0 59.5 -17.5t16.5 -56.5v-112q0 -41 -16.5 -58.5t-59.5 -17.5h-65v-340l141 242q14 25 30.5 34t45.5 9q39 0 55.5 -8.5t30.5 -32.5l139 -244v498q0 55 23.5 79.5t83.5 24.5h123q59 0 83.5 -24.5t24.5 -79.5v-899 q0 -72 -76 -72h-180q-29 0 -42 7t-28 32l-233 391l-229 -391q-14 -25 -27.5 -32t-42.5 -7h-180q-74 0 -74 72z" />
<glyph unicode="&#xe1d;" horiz-adv-x="1288" d="M88 72v899q0 53 24.5 78.5t82.5 25.5h290q43 0 59.5 -17.5t16.5 -56.5v-112q0 -41 -16.5 -58.5t-59.5 -17.5h-65v-340l141 242q14 25 30.5 34t45.5 9q39 0 55.5 -8.5t30.5 -32.5l139 -244v846q0 55 23.5 79.5t83.5 24.5h123q59 0 83.5 -24.5t24.5 -79.5v-1247 q0 -72 -76 -72h-180q-29 0 -42 7t-28 32l-233 391l-229 -391q-14 -25 -27.5 -32t-42.5 -7h-180q-74 0 -74 72z" />
<glyph unicode="&#xe1e;" horiz-adv-x="1406" d="M27 1030q0 45 53 45h221q39 0 54.5 -15.5t21.5 -49.5l88 -453l108 356q10 31 24.5 43.5t45.5 12.5h121q31 0 45 -12.5t25 -43.5l120 -356l76 453q6 35 21.5 50t54.5 15h221q51 0 51 -45q0 -16 -2 -24l-215 -943q-8 -37 -24.5 -50t-51.5 -13h-188q-31 0 -46 11.5t-24 39.5 l-125 430l-127 -430q-8 -29 -23 -40t-44 -11h-184q-35 0 -52.5 13.5t-25.5 49.5l-215 943q-4 16 -4 24z" />
<glyph unicode="&#xe1f;" horiz-adv-x="1423" d="M29 1030q0 45 51 45h221q39 0 54.5 -15.5t21.5 -49.5l88 -453l108 356q10 31 24.5 43.5t45.5 12.5h121q31 0 45 -12.5t25 -43.5l120 -356l168 770q8 37 22.5 51.5t53.5 14.5h221q53 0 54 -45q0 -8 -5 -25l-307 -1260q-8 -37 -24.5 -50t-51.5 -13h-188q-31 0 -46 11.5 t-24 39.5l-125 430l-127 -430q-8 -29 -23 -40t-44 -11h-184q-35 0 -52.5 13.5t-25.5 49.5l-215 943q-2 8 -2 24z" />
<glyph unicode="&#xe20;" horiz-adv-x="1312" d="M33 74v166q0 37 13 48t46 11h37q14 0 17.5 14.5t3.5 38.5v301l-74 117q-18 29 -19 76q0 37 37 67q94 80 246 136.5t322 56.5q295 0 429 -126t134 -337v-541q0 -55 -22.5 -78.5t-82.5 -23.5h-207q-59 0 -81.5 23.5t-22.5 78.5v545q0 84 -35 123t-112 39q-102 0 -168 -43 l34 -49q23 -33 30 -60.5t7 -85.5v-471q0 -53 -20.5 -76.5t-75.5 -23.5h-367q-41 0 -55 16.5t-14 57.5z" />
<glyph unicode="&#xe21;" horiz-adv-x="1286" d="M88 90v881q0 53 24.5 78.5t84.5 25.5h198q57 0 82 -25.5t25 -78.5v-598q0 -53 44 -88t109 -35q127 0 127 119v602q0 53 26 78.5t85 25.5h199q57 0 81.5 -25.5t24.5 -78.5v-619q0 -190 -110.5 -286.5t-296.5 -96.5q-218 1 -357 144l-8 -68q-6 -45 -64 -45h-182 q-92 0 -92 90z" />
<glyph unicode="&#xe22;" horiz-adv-x="1284" d="M47 330q0 180 131 241q-63 41 -93 97.5t-30 138.5q0 133 95.5 216t244.5 83q158 0 264 -59q25 -14 25 -35q0 -10 -6 -27l-49 -129q-10 -23 -25 -22q-8 0 -20 6t-25.5 11t-32.5 5q-35 0 -54 -24.5t-19 -63.5q0 -47 23.5 -68.5t74.5 -21.5h41q45 0 45 -45v-133 q0 -47 -47 -47h-37q-51 0 -75.5 -22.5t-24.5 -72.5q0 -94 157 -94q90 0 130 41t40 135v531q0 53 24.5 78.5t82.5 25.5h198q59 0 85 -25.5t26 -78.5v-508q0 -225 -137 -359.5t-449 -134.5q-258 0 -410.5 91.5t-152.5 269.5z" />
<glyph unicode="&#xe23;" horiz-adv-x="1105" d="M47 117q0 8 10 28l86 158q12 23 29 23q14 0 37 -13q55 -29 148.5 -53t166.5 -24q63 0 91 16t28 49q0 39 -39 62.5t-149 64.5l-56 21q-166 63 -240.5 134.5t-74.5 190.5q0 154 132 243t353 89q137 0 235.5 -22.5t188.5 -69.5q41 -20 41 -47q0 -12 -14 -37l-82 -133 q-16 -25 -29 -25q-10 0 -35 12q-49 25 -115.5 40.5t-127.5 15.5q-76 0 -112 -13.5t-36 -46.5q0 -41 50.5 -68.5t189.5 -78.5q8 -2 63 -23q152 -57 212.5 -125.5t60.5 -183.5q0 -147 -127 -239.5t-369 -92.5q-295 1 -475 101q-23 12 -32 22t-9 25z" />
<glyph unicode="&#xe24;" horiz-adv-x="1300" d="M47 846q0 37 37 67q94 80 245.5 136.5t321.5 56.5q299 0 430 -126t131 -341v-856q0 -53 -24.5 -77.5t-83.5 -24.5h-199q-59 0 -83.5 24.5t-24.5 77.5v864q0 84 -34 123t-114 39q-113 0 -174 -45l23 -39q14 -27 20 -52.5t6 -62.5v-272q0 -25 6.5 -32t22.5 -7h41 q35 0 45 -12.5t10 -50.5v-162q0 -37 -11 -52.5t-37 -18.5t-87 -3h-281q-125 0 -124 129v533l-43 108q-18 45 -19 76z" />
<glyph unicode="&#xe25;" horiz-adv-x="1280" d="M47 299q0 193 127 274.5t365 81.5h243v23q0 72 -49 105.5t-178 33.5q-72 0 -142.5 -15.5t-121.5 -39.5q-29 -14 -41 -14q-20 0 -35 26l-92 162q-10 16 -10 29q0 18 28 34q86 51 216 79t280 28q285 0 420 -117t135 -350v-537q0 -53 -24.5 -77.5t-84.5 -24.5h-192 q-59 0 -84 24.5t-25 77.5v285h-225q-66 0 -95.5 -18.5t-29.5 -63.5q0 -43 21.5 -61.5t70.5 -18.5q35 0 80 17q6 2 14 2q23 0 29 -29l31 -156q2 -6 2 -16q0 -14 -8 -22.5t-29 -16.5q-98 -35 -240 -35q-163 0 -259.5 91.5t-96.5 238.5z" />
<glyph unicode="&#xe26;" horiz-adv-x="1312" d="M33 74v166q0 37 13 48t46 11h37q14 0 17.5 14.5t3.5 38.5v301l-74 117q-18 29 -19 76q0 37 37 67q94 80 246 136.5t322 56.5q295 0 429 -126t134 -337v-860q0 -55 -22.5 -78.5t-82.5 -23.5h-207q-59 0 -81.5 23.5t-22.5 78.5v864q0 84 -35 123t-112 39q-102 0 -168 -43 l34 -49q23 -33 30 -60.5t7 -85.5v-471q0 -53 -20.5 -76.5t-75.5 -23.5h-367q-41 0 -55 16.5t-14 57.5z" />
<glyph unicode="&#xe27;" horiz-adv-x="1155" d="M27 119q0 20 14 43l86 147q18 31 37 31q12 0 39 -16q53 -33 108.5 -47.5t124.5 -14.5q127 0 192.5 61.5t65.5 211.5t-62.5 213t-187.5 63q-129 0 -233 -61q-27 -16 -41 -17q-23 0 -37 29l-84 149q-14 29 -14 43q0 20 24 39q86 55 191.5 84t253.5 29q297 0 450.5 -144.5 t153.5 -426.5q0 -281 -156.5 -423.5t-453.5 -142.5q-152 0 -255.5 27t-191.5 84q-25 14 -24 39z" />
<glyph unicode="&#xe28;" horiz-adv-x="1298" d="M88 102v560q0 215 140.5 329.5t416.5 114.5q121 0 219 -25q127 72 209 95q41 10 60 10q45 0 57 -39l57 -158q6 -14 6 -28q0 -27 -39 -46l-69 -30q59 -88 59 -223v-560q0 -53 -25.5 -77.5t-84.5 -24.5h-199q-59 0 -83 24.5t-24 77.5v551q0 82 -33.5 120t-109.5 38 t-109.5 -38t-33.5 -120v-121q41 49 110 50h50q25 0 32.5 -9.5t7.5 -37.5v-195q0 -31 -9 -42t-31 -11h-62q-43 0 -70.5 -31t-27.5 -80v-74q0 -53 -24.5 -77.5t-84.5 -24.5h-198q-60 0 -83.5 24.5t-23.5 77.5z" />
<glyph unicode="&#xe29;" horiz-adv-x="1320" d="M88 412v559q0 53 24.5 78.5t82.5 25.5h198q59 0 84 -25.5t25 -78.5v-553q0 -82 35.5 -119t115.5 -37t116 37t36 119v69h-68q-45 0 -63.5 25t-18.5 76v82q0 53 18.5 76.5t63.5 23.5h68v201q0 53 24.5 78.5t81.5 25.5h199q59 0 85 -25.5t26 -78.5v-201h28q45 0 63.5 -23.5 t18.5 -76.5v-82q0 -51 -18.5 -76t-63.5 -25h-28v-75q0 -217 -141.5 -330t-426.5 -113q-284 0 -424.5 113t-140.5 330z" />
<glyph unicode="&#xe2a;" horiz-adv-x="1284" d="M47 299q0 193 127 274.5t365 81.5h243v23q0 72 -49 105.5t-178 33.5q-72 0 -142.5 -15.5t-121.5 -39.5q-29 -14 -41 -14q-20 0 -35 26l-92 162q-10 16 -10 29q0 18 28 34q86 51 216 79t280 28q115 0 201 -31q84 55 153.5 82t108.5 27q29 -2 42 -10.5t21 -26.5l58 -158 q6 -14 6 -26q0 -29 -39 -48l-68 -28q72 -92 72 -248v-537q0 -53 -24.5 -77.5t-84.5 -24.5h-192q-59 0 -84 24.5t-25 77.5v285h-225q-66 0 -95.5 -18.5t-29.5 -63.5q0 -43 21.5 -61.5t70.5 -18.5q35 0 80 17q6 2 14 2q23 0 29 -29l31 -156q2 -6 2 -16q0 -14 -8 -22.5 t-29 -16.5q-98 -35 -240 -35q-163 0 -259.5 91.5t-96.5 238.5z" />
<glyph unicode="&#xe2b;" horiz-adv-x="1249" d="M88 102v869q0 53 24.5 78.5t82.5 25.5h196q59 0 85 -25.5t26 -78.5v-205h145q57 0 77.5 27.5t20.5 85.5v92q0 53 25 78.5t84 25.5h199q59 0 83.5 -25.5t24.5 -78.5v-103q0 -180 -133 -239q133 -59 133 -240v-287q0 -53 -24.5 -77.5t-83.5 -24.5h-199q-59 0 -84 24.5 t-25 77.5v256q0 55 -20 82t-74 27h-149v-365q0 -53 -25.5 -77.5t-85.5 -24.5h-196q-60 0 -83.5 24.5t-23.5 77.5z" />
<glyph unicode="&#xe2c;" horiz-adv-x="1361" d="M29 1030q0 45 51 45h221q39 0 54.5 -15.5t21.5 -49.5l88 -453l108 356q10 31 24.5 43.5t45.5 12.5h121q31 0 45 -12.5t25 -43.5l120 -356l56 248q8 45 8 53q0 23 -9.5 39t-29.5 31q-20 16 -27.5 25.5t-7.5 29.5v68q0 27 13.5 41t48.5 30t50 36t20 42.5t18 89.5l8 51 q4 31 17.5 41.5t41.5 10.5h236q29 0 40 -12.5t7 -37.5l-12 -96q-10 -86 -55.5 -146.5t-127.5 -84.5q92 -55 92 -166q0 -47 -10 -86l-170 -701q-8 -37 -24.5 -50t-51.5 -13h-188q-31 0 -46 11.5t-24 39.5l-125 430l-127 -430q-8 -29 -23 -40t-44 -11h-184q-35 0 -52.5 13.5 t-25.5 49.5l-215 943q-2 8 -2 24z" />
<glyph unicode="&#xe2d;" horiz-adv-x="1210" d="M47 385v150q0 51 23.5 75.5t81.5 24.5h327q41 0 56.5 -16.5t15.5 -57.5v-100q0 -41 -15.5 -57.5t-58.5 -16.5h-69v-33q0 -37 38.5 -63.5t122.5 -26.5q104 0 142.5 63.5t38.5 215.5q0 150 -56.5 209t-199.5 59q-74 0 -142.5 -16.5t-122.5 -42.5q-29 -14 -41 -15 q-20 0 -34 27l-86 149q-14 29 -15 45q0 23 23 37q84 53 220 82t288 29q580 0 579 -563q0 -285 -155.5 -429.5t-438.5 -144.5q-522 0 -522 416z" />
<glyph unicode="&#xe2e;" horiz-adv-x="1245" d="M47 385v150q0 51 23.5 75.5t81.5 24.5h327q41 0 56.5 -16.5t15.5 -57.5v-100q0 -41 -15.5 -57.5t-58.5 -16.5h-69v-33q0 -37 38.5 -63.5t122.5 -26.5q104 0 142.5 63.5t38.5 215.5q0 150 -56.5 209t-199.5 59q-74 0 -142.5 -16.5t-122.5 -42.5q-29 -14 -41 -15 q-20 0 -34 27l-86 149q-14 29 -15 45q0 23 23 37q84 53 220 82t288 29q125 0 219 -31q53 35 114.5 62.5t100.5 38.5q41 10 61 10q43 0 56 -39l59 -158q6 -14 6 -26q0 -29 -41 -48l-88 -38q47 -68 69.5 -148t22.5 -186q0 -285 -155.5 -429.5t-438.5 -144.5q-522 0 -522 416z " />
<glyph unicode="&#xe2f;" horiz-adv-x="1169" d="M6 764q0 92 38 170t111.5 125t178.5 47q76 0 126 -6t99 -25q29 -10 36 -21.5t3 -35.5l-27 -154q-4 -18 -15 -25.5t-28 -0.5q-31 10 -67 10q-35 0 -53.5 -22.5t-18.5 -63.5q0 -102 127 -103q92 0 150 37v275q0 53 24.5 78.5t83.5 25.5h197q59 0 84.5 -25.5t25.5 -78.5 v-869q0 -53 -25.5 -77.5t-84.5 -24.5h-197q-59 0 -83.5 24.5t-24.5 77.5v328q-37 -16 -92.5 -27.5t-112.5 -11.5q-215 0 -335 92t-120 281z" />
<glyph unicode="&#xe30;" horiz-adv-x="722" d="M47 205v151q0 55 22.5 76t75.5 21h115q55 0 77.5 -20.5t22.5 -78.5v-71q143 37 230 36q51 0 68.5 -18t17.5 -70v-102q0 -51 -19.5 -70.5t-76.5 -19.5h-369q-90 0 -127 39t-37 127zM47 735v152q0 55 22.5 75.5t75.5 20.5h115q55 0 77.5 -20.5t22.5 -77.5v-72 q143 37 230 37q51 0 68.5 -18.5t17.5 -69.5v-103q0 -51 -19.5 -70.5t-76.5 -19.5h-369q-90 0 -127 39t-37 127z" />
<glyph unicode="&#xe31;" d="M-655 1368v154q0 59 23.5 79.5t78.5 20.5h119q55 0 78.5 -21.5t23.5 -78.5v-84q86 14 216 25.5t210 11.5q59 0 77.5 -18.5t18.5 -72.5v-86q0 -59 -18 -78.5t-78 -19.5h-586q-90 0 -126.5 40t-36.5 128z" />
<glyph unicode="&#xe32;" horiz-adv-x="927" d="M23 1014q0 10 5 16t17 12q137 63 324 64q240 0 355.5 -102.5t115.5 -315.5v-598q0 -90 -95 -90h-227q-94 0 -94 90v567q0 84 -33 119t-106 35q-78 0 -144 -33q-20 -12 -37 -12q-20 0 -26 25l-51 194z" />
<glyph unicode="&#xe33;" horiz-adv-x="927" d="M-551 1444q0 119 76 192.5t199 73.5q125 0 201.5 -73.5t76.5 -192.5t-77 -191.5t-201 -72.5q-125 0 -200 72.5t-75 191.5zM-360 1444q0 -35 24.5 -57.5t59.5 -22.5q34 0 57.5 22.5t23.5 57.5t-23.5 57.5t-57.5 22.5q-35 0 -59.5 -22.5t-24.5 -57.5zM23 1014q0 10 5 16 t17 12q137 63 324 64q240 0 355.5 -102.5t115.5 -315.5v-598q0 -90 -95 -90h-227q-94 0 -94 90v567q0 84 -33 119t-106 35q-78 0 -144 -33q-20 -12 -37 -12q-20 0 -26 25l-51 194z" />
<glyph unicode="&#xe34;" d="M-1036 1303v77q0 63 18.5 83t79.5 20h750q57 0 78.5 -23.5t21.5 -79.5v-77q0 -55 -21.5 -79t-78.5 -24h-750q-61 0 -79.5 19.5t-18.5 83.5z" />
<glyph unicode="&#xe35;" d="M-1036 1303v77q0 63 18.5 83t79.5 20h526v84q0 55 23.5 75.5t75.5 20.5h127q51 0 74.5 -20.5t23.5 -75.5v-254q0 -61 -22.5 -87t-88.5 -26h-739q-61 0 -79.5 19.5t-18.5 83.5z" />
<glyph unicode="&#xe36;" d="M-1038 1305v75q0 63 18.5 83t79.5 20h412q8 82 71.5 136t157.5 54q113 0 178.5 -69.5t65.5 -171.5t-75 -167t-189 -65h-621q-61 0 -79.5 19.5t-18.5 85.5zM-377 1432q0 -33 22.5 -55.5t55.5 -22.5q37 0 58.5 22.5t21.5 55.5q0 35 -22.5 57t-57.5 22q-31 0 -54.5 -22.5 t-23.5 -56.5z" />
<glyph unicode="&#xe37;" d="M-1038 1303v77q0 63 18.5 83t81.5 20h225v84q0 55 23.5 75.5t75.5 20.5h69q51 0 75 -20.5t24 -75.5v-84h92v84q0 55 23.5 75.5t74.5 20.5h70q51 0 74.5 -20.5t23.5 -75.5v-254q0 -61 -22.5 -87t-88.5 -26h-739q-63 0 -81.5 19.5t-18.5 83.5z" />
<glyph unicode="&#xe38;" d="M-561 -180q0 41 14.5 57.5t54.5 16.5h297q57 0 82 -25t25 -78v-297q0 -53 -22.5 -76.5t-79.5 -23.5h-127q-58 0 -80.5 23.5t-22.5 76.5v127h-72q-41 0 -55 16.5t-14 57.5v125z" />
<glyph unicode="&#xe39;" d="M-954 -180q0 41 14 57.5t57 16.5h230q57 0 81.5 -25t24.5 -78v-151q0 -53 86 -54q86 0 86 54v206q0 47 47 48h193q47 0 47 -48v-272q0 -104 -94 -158.5t-277 -54.5q-170 0 -258 50t-88 147v71h-78q-41 0 -56 16.5t-15 57.5v117z" />
<glyph unicode="&#xe3a;" d="M-428 -254q0 68 42 113t107 45h66q68 0 110 -45t42 -113v-35q0 -66 -42 -113t-110 -47h-66q-65 0 -107 47.5t-42 112.5v35z" />
<glyph unicode="&#xe3f;" horiz-adv-x="1357" d="M88 102v1186q0 53 24.5 79t82.5 26h233v90q0 53 24.5 78.5t84.5 25.5h163q59 0 85 -25.5t26 -78.5v-90q463 -10 463 -400q0 -94 -43 -167.5t-117 -104.5q197 -63 197 -297q0 -199 -130 -308.5t-370 -115.5v-88q0 -57 -27.5 -79.5t-99.5 -22.5h-147q-60 0 -84.5 24.5 t-24.5 77.5v88h-233q-57 0 -82 24.5t-25 77.5zM502 297h260q66 0 101.5 38t35.5 99q0 70 -39 104.5t-106 34.5h-252v-276zM502 848h225q63 0 98 31.5t35 93.5q0 66 -32.5 94.5t-100.5 28.5h-225v-248z" />
</font>
</defs>
</svg>
